osu file format v5

[General]
AudioFilename: 02-blof-harder_dan_ik_hebben_kan.mp3
AudioLeadIn: 1500
PreviewTime: 62214
Countdown: 1
SampleSet: Soft
StackLeniency: 0.7
Mode: 0
LetterboxInBreaks: 1
EditorBookmarks: 32047,33381,36714,38714,84881

[Metadata]
Title:Harder Dan Ik Hebben Kan
Artist:Blof
Creator:Remco32
Version:Normal
Source:
Tags:

[Difficulty]
HPDrainRate:6
CircleSize:3
OverallDifficulty:5
SliderMultiplier:1
SliderTickRate:0.5

[Events]
//Background and Video events
0,0,"800px-Bløf.jpg"
//Break Periods
2,40246,41514
2,70913,71847
2,82580,84061
2,93247,94181
2,103747,105181
2,114581,116181
//Storyboard Layer 0 (Background)
//Storyboard Layer 1 (Failing)
//Storyboard Layer 2 (Passing)
//Storyboard Layer 3 (Foreground)
//Storyboard Sound Samples
//Background Colour Transformations
3,100,0,0,0

[TimingPoints]
22048,666.666666666667,4,2,0,61,1
62381,666.666666666667,4,1,0,81,1
85047,666.666666666667,4,2,0,71,1
126047,666.666666666667,4,1,0,91,1

[Colours]
Combo1 : 135,1,115
Combo2 : 9,197,236
Combo3 : 27,13,202
Combo4 : 97,33,67

[HitObjects]
112,96,21381,5,0
144,96,21684,1,0
192,96,22004,1,0
288,96,22714,2,0,B|288:208,1,100
288,256,23881,1,2
240,256,24214,1,2
96,64,26048,6,0,B|96:176,1,100
160,224,27381,1,2
256,224,28048,1,2
368,160,29047,1,2
320,160,29381,2,2,B|112:160,1,200
208,128,31381,5,0
208,176,31714,1,0
160,176,32047,2,2,B|146:244|198:249|336:240,1,200
384,176,34048,6,0,B|80:176,1,300
80,80,36714,2,0,B|80:192|80:240|272:240,1,300
352,240,39381,1,0
352,240,39547,2,0,B|448:240,1,75
256,304,42714,5,0
256,256,43047,2,0,B|256:192,2,50
256,206,44047,1,0
256,112,44714,1,0
352,112,45381,2,0,B|304:48|256:48,1,100
256,304,48047,5,0
256,256,48380,2,0,B|256:192,1,50
256,112,49380,1,0
256,112,50047,1,0
160,112,50714,2,0,B|208:48|256:48,1,100
464,192,53381,5,0
416,192,53714,2,0,B|240:192,1,150
176,192,55381,2,0,B|64:192,1,100
112,272,56714,1,0
208,272,57381,1,4
48,192,58714,6,0,B|48:128|80:96|96:80|128:64,1,150
160,64,60048,1,0
256,64,60714,2,2,B|304:64|320:96|320:128,2,100
256,112,62381,5,0
256,160,62714,1,0
224,192,63047,2,0,B|288:192,1,50
320,192,63714,2,0,B|320:256,1,50
320,288,64381,1,0
272,288,64714,1,0
256,192,65381,12,2,66381
256,48,67047,5,0
256,96,67381,1,0
256,192,68047,2,0,B|256:304,1,100
304,224,69381,1,2
208,224,70047,2,2,B|96:224,1,100
400,112,73047,6,0,B|400:176,1,50
400,208,73714,2,0,B|336:208,1,50
304,208,74381,2,0,B|256:160,1,50
256,192,75047,12,2,76714
80,320,77714,6,2,B|128:272,1,50
176,224,78714,1,4
272,224,79381,1,4
368,224,80047,2,2,B|368:160|320:96|64:112,1,350
448,64,85381,5,0
448,112,85714,1,0
448,160,86047,1,2
448,256,86714,2,2,B|336:256,1,100
304,256,87714,1,0
256,256,88047,1,2
80,48,90047,6,0,B|144:128,1,100
192,192,91381,1,0
288,192,92047,1,0
384,192,92714,1,0
432,192,93047,1,2
432,48,95381,6,0,B|368:128,1,100
320,192,96715,1,2
224,192,97381,1,0
128,192,98048,1,0
128,288,98714,2,2,B|240:288,1,100
256,112,100714,6,0,B|256:176,1,50
256,208,101381,1,0
256,304,102047,1,0
160,304,102714,1,2
160,208,103381,1,0
160,208,103547,1,2
432,288,106381,5,0
400,256,106714,2,2,B|352:224,3,50
352,176,108047,1,2
352,80,108714,1,4
256,80,109381,2,2,B|256:192,1,100
464,48,112047,6,0,B|240:48,1,200
176,48,114047,1,0
176,96,114381,1,2
48,320,117381,6,0,B|304:320,1,250
336,320,119381,2,0,B|336:208,1,100
336,176,120381,1,0
336,128,120714,1,0
336,32,121381,2,0,B|272:32,2,50
256,192,122714,12,4,125714
240,320,126381,5,0
240,272,126714,1,0
240,224,127047,2,0,B|176:224,1,50
192,176,127714,2,0,B|192:112,1,50
192,80,128381,1,2
240,80,128714,1,2
336,80,129381,1,4
256,48,131047,6,0,B|256:160,1,100
256,192,132047,1,2
256,288,132714,1,2
160,288,133381,2,0,B|160:176,1,100
160,96,134714,1,4
256,192,136714,12,2,138381
160,192,139047,6,2,B|384:192,1,200
256,48,141714,6,2,B|256:224,1,150
256,288,143381,1,0
160,288,144047,2,0,B|48:288,2,100
