osu file format v5

[General]
AudioFilename: 02 Helicopter.mp3
AudioLeadIn: 0
PreviewTime: -1
Countdown: 0
SampleSet: Normal
StackLeniency: 0.7
Mode: 0
LetterboxInBreaks: 1
EditorBookmarks: 4270,166619

[Metadata]
Title:Helicopter
Artist:Bloc Party
Creator:Seibei4211
Version:Expert
Source:
Tags:

[Difficulty]
HPDrainRate:6
CircleSize:5
OverallDifficulty:7
SliderMultiplier:1.8
SliderTickRate:1

[Events]
//Background and Video events
0,0,"Helicopter - Bloc Party.jpg"
//Break Periods
2,17009,21909
2,66949,70086
2,73302,75733
2,89009,93733
2,122715,128850
2,144597,147733
2,150950,153380
//Storyboard Layer 0 (Background)
//Storyboard Layer 1 (Failing)
//Storyboard Layer 2 (Passing)
//Storyboard Layer 3 (Foreground)
//Storyboard Sound Samples
//Background Colour Transformations
3,100,163,162,255

[TimingPoints]
56,352.941176470588,4,1,0,40,1

[Colours]
Combo1 : 255,128,0
Combo2 : 5,240,5
Combo3 : 255,0,0
Combo4 : 255,255,0
Combo5 : 0,0,255

[HitObjects]
96,96,5703,1,0
167,96,5879,1,0
230,62,6055,1,0
292,97,6232,2,0,B|393:97,1,90
421,128,6585,2,0,B|512:128,1,90
421,128,6938,1,0
357,162,7114,5,0
292,194,7291,1,0
230,157,7467,1,0
168,193,7644,2,0,B|72:193,1,90
14,227,7997,2,0,B|112:227,2,90
47,290,8526,6,0,B|145:290,1,90
202,258,8879,2,0,B|296:258,1,90
356,290,9232,2,0,B|451:290,1,90
484,229,9585,1,0
446,167,9761,1,0
408,228,9938,6,0,B|313:228,1,90
257,188,10291,2,0,B|165:188,1,90
107,228,10644,2,0,B|14:228,1,90
49,162,10997,1,0
104,116,11173,2,0,B|179:57,1,90
223,113,11526,5,0
223,113,11703,1,0
223,113,11879,2,0,B|320:113,2,90
167,159,12408,2,0,B|277:159,1,90
320,192,12761,2,0,B|221:192,1,90
165,224,13114,1,0
228,256,13291,1,0
292,223,13467,2,0,B|292:120,1,90
322,67,13820,2,0,B|322:172,1,90
385,192,14173,5,0
448,224,14350,1,0
415,288,14526,2,0,B|321:288,1,90
260,320,14879,2,0,B|164:320,1,90
104,288,15232,2,0,B|104:186,1,90
159,151,15585,5,0
159,151,15761,1,0
218,191,15938,2,0,B|315:191,1,90
369,152,16291,1,0
369,152,16467,1,0
308,113,16644,2,0,B|210:113,1,90
90,92,22820,5,0
162,92,22997,1,0
162,163,23173,1,0
89,163,23350,1,0
423,93,23879,1,0
350,92,24055,1,0
351,163,24232,1,0
423,163,24408,1,0
256,160,24761,6,0,B|256:64,1,90
256,256,25291,1,0
128,160,25644,5,0
64,96,25820,1,0
128,32,25997,1,0
192,96,26173,1,0
384,160,26703,1,0
448,96,26879,1,0
384,32,27055,1,0
320,96,27232,1,0
192,160,27585,6,0,B|205:232|306:235|317:177|324:145,2,180
148,92,28467,6,0,B|252:92,1,90
365,93,28820,2,0,B|262:93,1,90
238,258,29526,2,0,B|142:258,1,90
275,258,29879,2,0,B|376:258,1,90,0|0
453,160,30408,6,0,B|346:160,1,90
290,160,30761,2,0,B|233:113|199:176|162:210|115:146,1,180
94,95,31291,6,0,B|94:3,1,90
160,96,31644,2,0,B|160:3,1,90
417,288,32350,2,0,B|417:386,1,90
354,288,32703,2,0,B|354:381,1,90
289,288,33055,5,0
223,317,33232,2,0,B|196:264|223:196|268:193|312:195,1,180
110,96,34114,5,0
174,63,34291,1,0
238,94,34467,2,0,B|337:94,1,90
400,95,34820,2,0,B|492:95,2,90
353,150,35350,2,0,B|165:150,2,180
412,192,36232,1,0
381,256,36408,1,0
316,223,36585,2,0,B|131:223,1,180
99,160,37114,5,0
163,127,37291,2,0,B|257:127,1,90
317,159,37644,2,0,B|414:159,2,90
252,127,38173,5,0
144,31,38526,1,0
38,129,38879,1,0
90,80,39056,1,0
144,127,39232,1,0
199,80,39408,1,0
334,128,39761,5,0
398,161,39938,1,0
432,224,40114,2,0,B|334:224,1,90
277,255,40467,2,0,B|181:255,2,90
241,193,40997,2,0,B|180:200|147:174|117:137|117:89,1,180
260,96,41703,2,0,B|357:96,1,90
415,127,42056,1,0
446,191,42232,2,0,B|463:236|401:273|329:238|308:208|297:232,1,180
239,192,42761,6,0,B|172:264,1,90
195,144,43114,2,0,B|128:218,1,90
151,96,43467,2,0,B|84:172,1,90
52,223,43820,5,0
256,288,44173,1,0
459,224,44526,1,0
256,160,44879,1,0
256,192,45232,12,0,49820
128,80,50526,5,0
384,80,51232,1,0
384,304,51938,1,0
128,304,52644,1,0
204,225,52997,5,0
347,225,53350,1,0
352,81,53703,1,0
208,81,54056,1,0
88,160,54408,1,0
232,160,54761,1,0
360,224,55114,5,0
394,160,55291,1,0
359,96,55467,1,0
232,160,55820,5,0
168,193,55997,1,0
103,161,56173,1,0
167,128,56350,2,0,B|167:70,2,45
231,96,56703,1,0
295,127,56879,1,0
401,224,57232,5,0
337,257,57408,1,0
272,224,57585,1,0
208,256,57761,2,0,B|148:256,2,45
272,224,58114,1,0
336,192,58291,1,0
403,64,58644,5,0
338,96,58820,1,0
273,64,58997,1,0
200,63,59173,2,0,B|160:18,2,45
136,96,59526,1,0
70,64,59703,1,0
128,192,60056,5,0
384,192,60408,1,0
128,80,61114,5,0
384,80,61820,1,0
128,304,62526,1,0
384,304,63232,1,0
293,192,63585,5,0
228,225,63761,1,0
163,193,63938,2,0,B|70:193,1,90
39,128,64291,2,0,B|84:84|126:69|210:100,1,180
344,129,64997,2,0,B|436:129,1,90
466,64,65350,1,0
393,64,65526,1,0
321,65,65703,2,0,B|230:65,1,90
166,97,66056,1,0
132,160,66232,1,0
196,191,66408,2,0,B|302:191,2,90
160,129,70997,5,0
225,160,71173,1,0
290,128,71350,2,0,B|360:196,1,90
458,189,71703,2,0,B|391:263,1,90,0|0
333,222,72056,1,0
269,254,72232,1,0
192,224,72408,1,0
256,192,72497,12,0,73114
128,96,76644,6,0,B|128:197,1,90
192,96,76997,2,0,B|192:192,1,90
256,96,77350,2,0,B|256:192,1,90
315,145,77703,6,0,B|380:210,1,90
423,145,78056,1,0
416,73,78232,2,0,B|321:73,1,90
257,95,78585,2,0,B|155:95,1,90
102,128,78938,5,0
67,191,79114,1,0
98,255,79291,2,0,B|205:255,1,90
253,224,79644,2,0,B|355:224,1,90
407,256,79997,2,0,B|472:191,1,90
436,128,80350,5,0
384,77,80526,1,0
332,128,80703,2,0,B|219:128,1,90
177,160,81056,2,0,B|80:160,1,90
53,96,81408,2,0,B|161:96,1,90
208,64,81761,5,0
272,96,81938,2,0,B|370:96,1,90
426,128,82291,1,0
426,128,82467,1,0
361,159,82644,2,0,B|253:159,1,90
207,192,82997,1,0
207,192,83173,1,0
141,160,83350,6,0,B|77:228,1,90
116,287,83703,2,0,B|216:287,1,90
271,258,84056,2,0,B|369:258,1,90
425,224,84408,2,0,B|425:128,1,90
384,74,84761,5,0
250,127,85114,1,0
120,190,85467,1,0
250,250,85820,1,0
382,192,86173,5,0
348,128,86350,1,0
276,126,86526,2,0,B|208:126|208:126|113:199,3,180
81,256,87761,5,0
145,288,87938,2,0,B|240:288,1,90
270,224,88291,2,0,B|369:224,1,90
392,288,88644,2,0,B|494:288,1,90
384,96,94644,5,0
319,128,94820,1,0
254,96,94997,2,0,B|187:168,1,90
120,160,95350,2,0,B|191:235,1,90
254,224,95703,2,0,B|187:296,1,90
120,288,96056,5,0
85,224,96232,1,0
119,161,96408,2,0,B|222:160,1,90
242,224,96761,2,0,B|348:224,1,90
366,160,97114,2,0,B|471:160,1,90
419,97,97467,5,0
346,96,97644,1,0
282,62,97820,2,0,B|184:104,1,90
167,32,98173,2,0,B|76:68,1,90
18,96,98526,2,0,B|123:139,1,90
166,160,98879,5,0
166,160,99056,1,0
238,160,99232,2,0,B|348:160,1,90
392,192,99585,1,0
392,192,99761,1,0
328,225,99938,2,0,B|233:225,1,90
97,256,100467,5,0
169,256,100644,1,0
96,192,100820,1,0
168,192,100997,1,0
416,256,101526,1,0
344,256,101703,1,0
417,191,101879,1,0
345,191,102056,1,0
345,47,102408,5,0
274,31,102585,2,0,B|225:24|148:65|174:166,1,180
79,256,103291,5,0
150,256,103467,2,0,B|252:256,1,90
312,256,103820,1,0
81,82,104526,2,0,B|190:82,1,90
243,80,104879,1,0
363,158,105232,1,0
243,237,105585,1,0
41,160,106114,6,0,B|140:160,1,90
221,160,106467,2,0,B|124:160,1,90
344,128,107173,2,0,B|444:128,1,90
346,193,107526,2,0,B|438:193,1,90,0|0
295,160,108056,5,0
261,223,108232,2,0,B|200:201|185:155|207:108|269:96,2,180
332,235,109114,5,0
332,90,109467,1,0
127,160,109997,1,0
198,160,110173,2,0,B|294:160,1,90
360,161,110526,1,0
235,232,110879,1,0
234,87,111232,1,0
31,160,111761,5,0
95,192,111938,1,0
95,120,112114,2,0,B|197:120,1,90
244,160,112467,2,0,B|349:160,2,90
209,96,112997,1,0
353,96,113350,1,0
418,224,113703,5,0
353,192,113879,1,0
288,224,114056,1,0
223,191,114232,1,0
78,192,114585,5,0
45,127,114761,1,0
81,64,114938,2,0,B|192:64,1,90
243,64,115291,2,0,B|343:64,2,90
210,128,115820,1,0
354,128,116173,1,0
224,190,116526,6,0,B|128:232,1,90
294,222,116879,2,0,B|205:262,1,90,0|0
84,191,117408,5,0
147,157,117585,1,0
213,128,117761,2,0,B|309:128,1,90
338,64,118114,2,0,B|236:64,2,90
403,95,118644,1,0
467,223,118997,1,0
322,224,119350,1,0
257,192,119526,1,0
223,128,119703,1,0
158,160,119879,1,0
50,63,120232,5,0
113,95,120408,2,0,B|220:95,1,90
158,160,120761,2,0,B|254:160,1,90
202,224,121114,2,0,B|299:224,1,90
250,288,121467,1,0
336,160,121820,1,0
160,160,122173,1,0
250,39,122526,1,0
128,192,129761,5,0
192,224,129938,2,0,B|290:224,1,90
347,193,130291,2,0,B|443:193,1,90
401,130,130644,1,0
256,130,130997,1,0
111,130,131350,1,0
256,130,131703,1,0
401,130,132056,1,0
256,130,132408,1,0
126,192,132761,1,0
90,129,132938,1,0
128,68,133114,1,0
256,130,133467,5,0
328,128,133644,1,0
256,130,133820,1,0
183,128,133997,2,0,B|132:128,2,45
219,190,134350,1,0
291,188,134526,1,0
417,256,134879,5,0
352,224,135056,1,0
286,255,135232,1,0
214,255,135408,2,0,B|153:255,2,45
286,255,135761,1,0
352,287,135938,1,0
242,192,136291,5,0
177,160,136467,1,0
210,96,136644,1,0
281,96,136820,2,0,B|339:96,2,45
210,96,137173,1,0
137,96,137350,1,0
127,239,137703,5,0
385,238,138056,1,0
33,193,138761,5,0
352,31,139467,1,0
160,32,140173,1,0
481,193,140879,1,0
336,192,141232,5,0
191,192,141585,1,0
258,64,141938,1,0
258,135,142114,2,0,B|258:232,2,90
258,64,142644,1,0
117,97,142997,5,0
149,160,143173,1,0
214,128,143350,2,0,B|313:128,1,90
368,160,143703,2,0,B|275:160,1,90
214,193,144056,2,0,B|316:193,2,90
192,192,148644,5,0
263,192,148820,1,0
299,129,148997,2,0,B|206:129,1,90,0|0
144,96,149350,2,0,B|239:96,1,90
298,64,149703,1,0
361,97,149879,1,0
425,129,150055,1,0
256,192,150144,12,0,150761
96,96,154291,5,0
160,127,154467,1,0
225,96,154644,2,0,B|320:96,1,90
379,128,154997,1,0
379,128,155173,1,0
315,161,155350,6,0,B|223:161,1,90
160,192,155703,1,0
95,224,155879,2,0,B|2:224,1,90
53,288,156232,2,0,B|153:288,1,90,0|0
207,256,156585,5,0
271,224,156761,1,0
343,223,156938,2,0,B|426:172,1,90
352,149,157291,2,0,B|434:98,1,90
366,64,157644,2,0,B|274:64,1,90
211,32,157997,5,0
146,63,158173,1,0
82,96,158350,2,0,B|183:96,1,90
203,160,158703,2,0,B|306:160,1,90
322,225,159056,2,0,B|428:225,1,90
446,161,159408,5,0
381,128,159585,2,0,B|276:128,1,90
256,64,159938,1,0
256,64,160114,1,0
223,128,160291,2,0,B|116:128,1,90
93,188,160644,1,0
93,188,160820,1,0
155,223,160997,6,0,B|263:223,1,90
308,256,161350,2,0,B|387:200,1,90
435,155,161703,2,0,B|346:124,1,90
284,94,162056,2,0,B|186:94,1,90
162,158,162408,5,0
306,159,162761,1,0
450,160,163114,1,0
306,159,163467,1,0
176,96,163820,1,0
111,128,163997,1,0
79,192,164173,2,0,B|132:222|205:222|255:188,3,180
289,129,165408,5,0
216,128,165585,2,0,B|113:128,1,90
126,38,165938,2,0,B|126:135,1,90,0|0
36,128,166291,2,0,B|132:128,1,90
