osu file format v7

[General]
AudioFilename: TerranSC2-01.mp3
AudioLeadIn: 3000
PreviewTime: 133344
Countdown: 1
SampleSet: Normal
StackLeniency: 0.7
Mode: 0
LetterboxInBreaks: 1

[Editor]
DistanceSpacing: 0.699999988079071
BeatDivisor: 4
GridSize: 8

[Metadata]
Title:Terran Theme
Artist:Blizzard Entertainment
Creator:KIA
Version:#1
Source:Star Craft 2
Tags:

[Difficulty]
HPDrainRate:6
CircleSize:5
OverallDifficulty:7
SliderMultiplier:1.6
SliderTickRate:1

[Events]
//Background and Video events
0,0,"wall3.jpg"
//Break Periods
//Storyboard Layer 0 (Background)
//Storyboard Layer 1 (Fail)
//Storyboard Layer 2 (Pass)
//Storyboard Layer 3 (Foreground)
//Storyboard Sound Samples
//Background Colour Transformations
3,100,0,0,0

[TimingPoints]
523.584186091977,461.182818936366,4,1,0,20,1,0
58672,460.828461538463,4,1,0,29,1,0

[Colours]
Combo1 : 0,0,160
Combo2 : 0,0,255
Combo3 : 128,0,128
Combo4 : 0,128,255

[HitObjects]
80,64,523,1,8
135,64,754,1,0
190,64,984,1,8
246,64,1215,1,0
265,83,1330,1,0
321,83,1561,1,8
340,102,1676,1,0
396,102,1907,1,8
435,141,2137,5,8
463,141,2253,1,0
463,168,2368,1,8
463,195,2483,1,0
463,223,2598,1,0
406,223,2829,1,8
349,223,3060,1,0
329,242,3175,1,0
272,224,3405,1,8
252,204,3521,1,0
200,224,3751,1,8
143,224,3982,1,8
103,184,4213,5,12
83,164,4328,1,0
102,144,4443,1,0
141,104,4674,1,8
196,104,4904,1,0
215,84,5020,1,0
270,84,5250,1,8
289,103,5366,1,0
344,103,5596,1,8
393,128,5827,5,0
412,147,5942,1,0
412,174,6057,1,8
372,213,6288,1,0
352,232,6403,1,0
352,259,6518,1,8
352,315,6749,1,0
332,334,6864,1,0
275,334,7095,1,8
255,314,7210,1,0
198,314,7441,1,8
142,314,7671,5,0
122,294,7787,1,4
122,265,7902,1,12
71,240,8133,1,4
40,192,8363,1,8
71,145,8594,1,0
90,125,8709,1,8
140,100,8940,1,8
159,119,9055,1,0
215,119,9286,1,8
270,119,9516,5,0
289,138,9631,1,0
309,158,9747,1,8
328,138,9862,1,0
347,118,9977,1,8
386,157,10208,1,0
426,196,10439,1,8
406,215,10554,1,0
386,235,10669,1,0
358,235,10784,1,8
329,235,10900,1,0
309,215,11015,1,0
289,195,11130,1,8
249,155,11361,5,0
229,135,11476,1,0
209,115,11591,1,12
152,115,11822,1,0
132,134,11937,1,8
112,153,12053,1,0
112,208,12283,1,8
112,264,12514,1,0
131,283,12629,1,8
150,302,12744,1,0
206,302,12975,1,8
262,302,13206,5,0
281,282,13321,1,8
300,262,13436,1,0
300,205,13667,1,0
320,184,13782,1,0
319,157,13897,1,0
338,137,14013,1,0
338,109,14128,1,8
357,89,14243,1,0
376,69,14359,6,2,B|451:208|371:344,1,280,8|0
376,336,15281,1,8
319,336,15512,1,8
279,296,15742,1,0
222,296,15973,1,8
196,285,16088,1,0
176,265,16203,1,0
168,237,16319,1,8
168,209,16434,1,0
128,169,16664,1,0
182,108,17010,5,0
201,88,17126,1,8
240,48,17356,1,8
279,87,17587,1,0
319,127,17817,1,8
358,166,18048,1,0
358,193,18163,1,8
358,221,18279,1,0
358,277,18509,1,0
273,277,18855,5,0
245,277,18970,1,8
188,277,19201,2,0,B|120:280|128:216,1,80,8|0
127,182,19662,1,8
127,125,19893,1,0
127,97,20008,1,8
127,69,20123,1,0
183,69,20354,1,8
267,69,20700,5,0
286,88,20815,1,8
325,127,21046,1,8
256,192,21276,12,0,22429
256,224,22545,5,0
228,224,22660,1,8
172,224,22890,1,8
256,192,23121,12,0,24274
256,192,24389,5,0
256,163,24505,1,8
256,107,24735,1,8
312,107,24966,1,0
337,94,25081,1,8
356,75,25196,1,0
375,94,25312,1,0
400,105,25427,1,0
426,95,25542,1,8
445,75,25658,1,0
464,94,25773,1,0
489,104,25888,1,8
444,175,26234,5,0
424,194,26349,1,8
367,194,26580,1,8
327,233,26811,1,0
271,233,27041,1,8
251,213,27156,1,0
211,173,27387,1,0
183,173,27502,1,8
143,133,27733,1,0
83,73,28079,5,0
110,73,28194,1,8
166,73,28425,1,8
205,112,28655,1,0
261,112,28886,1,8
280,131,29001,1,0
300,151,29116,1,8
319,170,29232,1,0
339,190,29347,1,8
299,229,29578,1,8
243,229,29808,5,2
215,229,29923,1,0
186,229,30039,1,0
186,173,30269,1,0
186,116,30500,2,2,B|186:68|130:60|74:68|74:124,2,160
186,172,31653,5,8
186,200,31768,1,0
186,228,31884,1,8
186,283,32114,1,8
320,200,32806,5,0
291,151,33036,1,0
263,102,33267,1,0
237,151,33498,1,8
224,176,33613,1,0
213,201,33728,1,8
201,226,33844,1,0
189,251,33959,1,8
163,300,34189,2,2,B|75:300,2,80,2|2|2
432,112,35112,5,0
380,132,35342,1,8
352,124,35458,1,0
324,117,35573,1,8
269,130,35804,1,0
157,130,36265,5,0
157,185,36495,1,8
157,213,36611,1,8
176,232,36726,1,8
232,232,36957,2,0,B|296:240|304:280,1,80,8|0
339,307,37418,5,0
378,267,37648,1,0
400,216,37879,1,2
411,190,37994,1,2
421,164,38109,2,0,B|397:116|309:116|285:172,1,160,2|0
289,113,38801,5,0
249,73,39032,1,0
209,112,39262,1,0
169,151,39493,1,0
149,170,39608,1,0
129,189,39724,1,0
129,244,39954,5,0
148,263,40070,1,0
203,263,40300,1,0
222,243,40415,1,0
278,243,40646,1,0
334,243,40877,1,0
389,243,41107,5,2
389,215,41222,1,2
389,186,41338,1,2
389,74,41799,2,0,B|360:40|301:42,1,80,8|0
261,42,42260,2,0,B|165:42,1,80,8|0
141,81,42721,2,0,B|97:119|128:176,1,80,8|0
165,185,43182,5,0
184,204,43298,1,0
184,231,43413,1,8
240,231,43644,1,0
240,203,43759,1,0
259,183,43874,1,8
310,161,44105,1,0
310,133,44220,1,0
290,113,44335,1,8
239,87,44566,1,8
288,60,44797,5,4
343,60,45027,1,4
454,60,45488,2,0,B|458:108|434:140,1,80,8|0
404,183,45950,2,0,B|374:218|374:266,1,80,8|0
359,309,46411,2,0,B|343:333|311:341|258:312,1,80,8|0
200,175,47103,5,0
227,126,47333,1,4
327,77,47794,1,4
327,189,48256,1,4
377,213,48486,2,0,B|401:254|401:302|377:342|297:334|232:272,1,240,4|0
221,270,49293,1,0
197,254,49408,1,0
173,238,49524,1,0
149,223,49639,2,0,B|115:191|107:142,1,80
109,98,50100,2,0,B|117:51|165:43,1,80
239,123,50792,2,0,B|285:122|309:154,1,80
328,264,51484,5,0
300,264,51599,1,0
280,245,51714,1,0
251,245,51830,1,0
231,226,51945,1,0
203,226,52060,1,0
201,197,52176,2,0,B|281:109|425:165,1,240
434,218,53098,2,0,B|434:274|322:282|282:242,1,160
258,292,53790,5,0
230,292,53905,1,0
243,267,54020,2,0,B|211:211|299:163|219:139|131:179|107:139|43:123|107:35|235:35,1,400
286,35,55404,6,0,B|334:59|318:107,1,80
320,155,55865,2,0,B|320:261,1,80,4|0
234,319,56557,5,0
214,299,56672,1,0
194,279,56787,1,0
213,259,56903,1,0
232,239,57018,1,0
212,219,57133,1,0
212,190,57249,2,0,B|212:84,1,80,4|0
256,192,58672,6,0,B|256:144,7,40,0|0|0|0|0|0|0|0
256,124,59593,2,0,B|272:51|343:50|362:131,1,160,0|0
359,178,60284,1,0
359,289,60745,1,0
246,289,61206,5,0
246,232,61436,1,0
246,120,61897,1,0
246,176,62128,1,0
149,118,62589,1,0
149,229,63049,5,0
149,285,63280,1,0
149,173,63741,1,0
149,116,63971,1,0
261,116,64432,1,0
428,116,65123,5,0
428,172,65354,1,0
408,191,65469,1,0
388,211,65584,1,0
332,211,65814,1,0
275,211,66045,1,0
255,191,66160,1,0
235,171,66275,1,0
235,114,66506,1,0
