osu file format v9

[General]
AudioFilename: RadioFreeZerg.mp3
AudioLeadIn: 0
PreviewTime: -1
Countdown: 1
SampleSet: Normal
StackLeniency: 0.5
Mode: 0
LetterboxInBreaks: 1
SkinPreference:Marisa Kirisame

[Editor]
DistanceSpacing: 0.8
BeatDivisor: 8
GridSize: 8

[Metadata]
Title:Radio Free Zerg
Artist:Blizzard Entertainment
Creator:[CSGA]Ar3sgice
Version:Starry Scout
Source:StarCraft
Tags:zerg,starcraft,protoss,terran,hydralisk,diffs,demo,demonstration,omg,neta,ar3,ac3,evil,danmaku,game,sc,wtf,script,javascript,stars,asd,qwerty

[Difficulty]
HPDrainRate:2
CircleSize:5
OverallDifficulty:4
ApproachRate:7
SliderMultiplier:2.99999990463257
SliderTickRate:1

[Events]
//Background and Video events
0,0,"xterranb.png"
//Break Periods
//Storyboard Layer 0 (Background)
//Storyboard Layer 1 (Fail)
//Storyboard Layer 2 (Pass)
//Storyboard Layer 3 (Foreground)
//Storyboard Sound Samples
//Background Colour Transformations
3,100,163,162,255

[TimingPoints]
22,500,4,1,0,100,1,0
22,-50,4,1,0,100,0,0
176022,-200,4,1,0,100,0,0

[Colours]
Combo1 : 236,236,0
Combo2 : 244,4,4
Combo3 : 12,72,204
Combo4 : 44,180,148
Combo5 : 136,64,156
Combo6 : 248,140,20
Combo7 : 112,48,20
Combo8 : 8,128,8

[HitObjects]
176,288,2272,1,0
256,64,2647,1,0
328,288,3272,1,0
128,152,3772,1,0
368,152,4397,1,4
256,48,5897,6,0,B|320:328|320:328|104:128|104:128|392:120|392:120|160:328|160:328|248:8,1,1499.99995231629
240,184,7522,2,0,B|280:128|280:128|240:256|240:256|200:128|200:128|312:208|312:208|168:208|168:208|240:176|240:176|248:184|248:184|232:192|232:192|248:176|248:176,1,749.999976158143
256,42,8772,5,0
353,326,9272,1,8
97,164,9772,1,8
389,159,10272,1,8
176,334,10772,1,0
256,89,12022,5,0
316,275,12522,1,0
158,160,13022,1,0
353,160,13522,1,0
195,275,14022,1,2
259,83,14272,6,0,B|356:161|391:150,1,149.999995231629
353,160,14522,2,0,B|320:274|333:325,1,149.999995231629
318,277,14772,2,0,B|194:275|159:322,1,149.999995231629
195,275,15022,2,0,B|159:153|126:140,1,149.999995231629
157,157,15272,2,0,B|257:79|286:35,1,149.999995231629
354,161,15522,6,8,B|192:277|192:277|259:76|259:76|347:144,1,449.999985694885
313,279,16022,2,0,B|151:157|151:157|360:153|360:153|344:210,1,449.999985694885
194,274,16522,2,0,B|264:54|264:54|315:276|314:273|313:271|313:271|299:296,1,449.999985694885
144,156,17022,2,0,B|368:147|368:147|199:274|199:274|178:289,1,449.999985694885
252,60,17522,2,0,B|313:279|313:279|149:152|149:152|106:141,1,449.999985694885
72,202,18022,5,0
84,32,18272,1,0
176,167,18522,1,0
13,114,18772,1,0
185,69,19022,1,0
260,312,19272,1,8
338,69,19522,1,8
129,238,19772,1,8
380,247,20022,1,8
479,146,20272,1,8
463,299,20522,1,0
396,165,20772,1,0
511,224,21022,1,0
232,172,21272,1,0
473,64,21522,1,0
352,316,21772,1,0
303,49,22022,1,2
364,141,22272,1,0
257,108,22522,1,8
364,78,22772,5,8
303,160,23022,1,8
197,320,23272,1,0
364,264,23522,1,0
189,212,23772,1,0
298,345,24022,1,0
376,112,24272,1,0
419,353,24522,1,8
241,201,24772,1,8
490,216,25022,1,8
166,317,26022,6,0,B|255:29,1,299.999990463257
255,37,26522,6,0,B|352:323,1,299.999990463257
347,316,27022,6,0,B|100:142,1,299.999990463257
109,145,27522,6,0,B|410:140,1,299.999990463257
402,143,28022,6,4,B|161:324,1,299.999990463257
166,317,29022,6,0,B|255:29,1,299.999990463257
109,145,29522,6,0,B|410:140,1,299.999990463257
255,37,30022,6,0,B|352:323,1,299.999990463257
402,143,30522,6,0,B|161:324,1,299.999990463257
347,316,31022,6,4,B|100:142,1,299.999990463257
166,317,32022,6,0,B|255:29,1,299.999990463257
347,316,32522,6,0,B|100:142,1,299.999990463257
402,143,33022,6,0,B|161:324,1,299.999990463257
255,37,33522,6,0,B|352:323,1,299.999990463257
109,145,34022,6,0,B|410:140,1,299.999990463257
204,257,35022,5,0
259,102,35147,1,0
301,254,35272,1,0
177,169,35397,1,0
341,169,35522,1,0
204,257,35647,5,0
259,102,35772,1,0
301,254,35897,1,0
177,169,36022,1,6
341,169,36147,1,6
380,0,36522,5,0
451,164,36772,1,0
286,69,37022,1,0
474,57,37272,1,0
341,169,37522,1,0
360,347,37772,1,0
250,211,38022,1,0
417,268,38272,1,0
256,335,38522,1,0
341,169,38772,1,0
360,347,39022,1,0
250,211,39272,1,0
417,268,39522,1,0
256,335,39772,1,0
162,69,40022,1,8
395,229,40272,1,8
104,266,40522,1,8
328,64,40772,1,10
328,64,41022,1,8
104,266,41272,1,8
395,229,41522,1,0
163,72,41772,1,0
262,352,42022,1,0
163,72,42522,6,0,B|257:190,1,149.999995231629
341,66,43022,6,0,B|258:192,1,149.999995231629
401,234,43522,6,0,B|256:194,1,149.999995231629
260,343,44022,6,2,B|254:193,1,149.999995231629
113,243,44522,6,0,B|254:190,1,149.999995231629
251,40,45022,6,0,B|257:190,1,149.999995231629
398,140,45272,6,0,B|257:193,1,149.999995231629
349,312,45522,6,0,B|255:193,1,149.999995231629
170,317,45772,6,0,B|253:191,1,149.999995231629
110,149,46022,6,0,B|255:189,1,149.999995231629
250,72,46522,5,0
321,262,46772,1,0
147,161,47022,1,0
354,142,47272,1,0
195,282,47522,1,4
254,104,48022,5,0
298,232,48272,1,0
188,168,48522,1,0
320,150,48772,1,0
217,242,49022,1,8
255,148,49522,5,0
277,212,49772,1,0
222,180,50022,1,0
288,171,50272,1,0
236,217,50522,1,8
254,125,50772,5,0
287,222,51022,1,0
205,174,51272,1,0
304,160,51522,1,0
226,229,51772,1,8
253,92,52022,5,0
303,237,52272,1,0
179,165,52522,1,0
328,144,52772,1,0
212,248,53022,1,8
252,43,53272,5,0
326,259,53522,1,0
141,151,53772,1,0
364,121,54022,1,0
190,276,54272,1,8
251,0,54522,5,0
347,279,54772,1,0
107,139,55022,1,0
395,100,55272,1,0
170,301,55522,1,8
253,0,56022,5,0
251,339,56522,1,0
255,36,57022,1,0
348,317,57272,1,0
107,144,57522,1,0
404,142,57772,1,0
165,318,58022,1,0
165,318,58272,2,0,B|256:30|256:30|351:319|351:319|164:319,1,749.999976158143
255,36,59022,2,0,B|351:323|351:323|104:145|104:145|255:35,1,749.999976158143
348,317,59772,2,0,B|101:141|101:141|406:140|406:140|348:318,1,749.999976158143
107,144,60522,2,0,B|410:141|410:141|164:321|164:321|106:143,1,749.999976158143
404,142,61272,2,0,B|160:323|160:323|253:33|253:33|405:143,1,749.999976158143
108,79,64022,5,2
178,284,64105,1,2
0,159,64188,1,2
217,155,64272,1,2
44,286,64355,1,2
145,79,64521,5,0
215,284,64604,1,0
37,159,64687,1,0
254,155,64771,1,0
81,286,64854,1,0
182,81,65021,5,0
252,286,65104,1,0
74,161,65187,1,0
291,157,65271,1,0
118,288,65354,1,0
220,82,65522,5,0
290,287,65605,1,0
112,162,65688,1,0
329,158,65772,1,0
156,289,65855,1,0
263,83,66022,5,0
333,288,66105,1,0
155,163,66188,1,0
372,159,66272,1,0
199,290,66355,1,0
307,81,66522,5,0
377,286,66605,1,0
199,161,66688,1,0
416,157,66772,1,0
243,288,66855,1,0
358,83,67022,5,0
428,288,67105,1,0
250,163,67188,1,0
467,159,67272,1,0
294,290,67355,1,0
403,81,67522,5,0
473,286,67605,1,0
295,161,67688,1,0
512,157,67772,1,0
339,288,67855,1,0
108,271,68022,5,0
178,66,68105,1,0
0,191,68188,1,0
217,195,68272,1,0
44,64,68355,1,0
145,271,68521,5,0
215,66,68604,1,0
37,191,68687,1,0
254,195,68771,1,0
81,64,68854,1,0
182,269,69021,5,0
252,64,69104,1,0
74,189,69187,1,0
291,193,69271,1,0
118,62,69354,1,0
220,268,69522,5,0
290,63,69605,1,0
112,188,69688,1,0
329,192,69772,1,0
156,61,69855,1,0
263,267,70022,5,0
333,62,70105,1,0
155,187,70188,1,0
372,191,70272,1,0
199,60,70355,1,0
307,269,70522,5,0
377,64,70605,1,0
199,189,70688,1,0
416,193,70772,1,0
243,62,70855,1,0
358,267,71022,5,0
428,62,71105,1,0
250,187,71188,1,0
467,191,71272,1,0
294,60,71355,1,0
403,269,71522,5,6
473,64,71605,1,6
295,189,71688,1,6
512,193,71772,1,6
339,62,71855,1,6
255,72,72522,5,0
279,155,72647,1,0
297,209,72772,1,0
327,288,72897,1,0
259,235,73022,1,0
212,202,73147,1,0
141,155,73272,1,0
227,158,73397,1,0
284,158,73522,1,0
369,153,73647,1,0
298,202,73772,1,0
252,236,73897,1,0
186,289,74022,1,0
215,208,74147,1,0
232,154,74272,1,0
254,71,74397,1,0
254,36,75772,5,8
285,143,75897,1,8
309,214,76022,1,8
348,317,76147,1,8
260,248,76272,1,8
199,205,76397,1,8
107,145,76522,1,8
219,148,76647,1,8
293,148,76772,1,8
403,142,76897,1,8
310,205,77022,1,8
251,249,77147,1,8
165,318,77272,1,8
203,213,77397,1,8
225,142,77522,1,8
254,36,77647,1,8
159,40,78022,5,0
190,147,78147,1,0
213,217,78272,1,0
252,321,78397,1,0
164,252,78522,1,0
104,209,78647,1,0
11,148,78772,1,0
123,152,78897,1,0
197,152,79022,1,0
308,146,79147,1,0
215,209,79272,1,0
155,253,79397,1,0
69,322,79522,1,0
107,217,79647,1,0
130,146,79772,1,0
159,39,79897,1,0
251,322,80022,5,0
282,215,80147,1,0
305,145,80272,1,0
344,41,80397,1,0
256,110,80522,1,0
196,153,80647,1,0
103,214,80772,1,0
215,210,80897,1,0
289,210,81022,1,0
400,216,81147,1,2
307,153,81272,1,8
247,109,81397,1,0
161,40,81522,1,0
199,145,81647,1,0
222,216,81772,1,0
251,323,81897,1,0
341,38,82022,5,0
372,145,82147,1,0
395,215,82272,1,0
434,319,82397,1,8
346,250,82522,1,0
286,207,82647,1,8
193,146,82772,1,0
305,150,82897,1,0
379,150,83022,1,0
490,144,83147,1,0
397,207,83272,1,2
337,251,83397,1,0
251,320,83522,1,0
289,215,83647,1,8
312,144,83772,1,0
341,37,83897,1,0
262,37,86022,6,0,B|267:2|267:2|280:33|280:33|252:19|252:19|284:13|284:13|265:34,1,149.999995231629
337,252,86272,2,0,B|353:283|353:283|324:265|324:265|355:260|355:260|333:284|333:284|336:256,1,149.999995231629
149,122,86522,2,0,B|117:106|117:106|150:103|150:103|128:125|128:125|132:93|132:93|147:118,1,149.999995231629
378,117,86772,2,0,B|412:110|412:110|387:132|387:132|392:101|392:101|407:130|407:130|381:118,1,149.999995231629
196,255,87022,2,0,B|171:280|171:280|179:247|179:247|193:275|193:275|164:261|164:261|191:255,1,149.999995231629
284,128,87272,6,0,B|289:93|289:93|302:124|302:124|274:110|274:110|306:104|306:104|287:125,1,149.999995231629
359,343,87522,2,0,B|375:374|375:374|346:356|346:356|377:351|377:351|355:375|355:375|358:347,1,149.999995231629
171,213,87772,2,0,B|139:197|139:197|172:194|172:194|150:216|150:216|154:184|154:184|169:209,1,149.999995231629
400,208,88022,2,0,B|434:201|434:201|409:223|409:223|414:192|414:192|429:221|429:221|403:209,1,149.999995231629
218,346,88272,2,0,B|193:371|193:371|201:338|201:338|215:366|215:366|186:352|186:352|213:346,1,149.999995231629
212,80,88522,6,0,B|217:45|217:45|230:76|230:76|202:62|202:62|234:56|234:56|215:77,1,149.999995231629
287,295,88772,2,0,B|303:326|303:326|274:308|274:308|305:303|305:303|283:327|283:327|286:299,1,149.999995231629
99,165,89022,2,0,B|67:149|67:149|100:146|100:146|78:168|78:168|82:136|82:136|97:161,1,149.999995231629
328,160,89272,2,0,B|362:153|362:153|337:175|337:175|342:144|342:144|357:173|357:173|331:161,1,149.999995231629
146,298,89522,2,0,B|121:323|121:323|129:290|129:290|143:318|143:318|114:304|114:304|141:298,1,149.999995231629
309,78,89772,6,0,B|314:43|314:43|327:74|327:74|299:60|299:60|331:54|331:54|312:75,1,149.999995231629
384,293,90022,2,0,B|400:324|400:324|371:306|371:306|402:301|402:301|380:325|380:325|383:297,1,149.999995231629
196,163,90272,2,0,B|164:147|164:147|197:144|197:144|175:166|175:166|179:134|179:134|194:159,1,149.999995231629
425,158,90522,2,0,B|459:151|459:151|434:173|434:173|439:142|439:142|454:171|454:171|428:159,1,149.999995231629
243,296,90772,2,0,B|218:321|218:321|226:288|226:288|240:316|240:316|211:302|211:302|238:296,1,149.999995231629
237,130,91022,6,0,B|242:95|242:95|255:126|255:126|227:112|227:112|259:106|259:106|240:127,1,149.999995231629
312,345,91272,2,0,B|328:376|328:376|299:358|299:358|330:353|330:353|308:377|308:377|311:349,1,149.999995231629
124,215,91522,2,0,B|92:199|92:199|125:196|125:196|103:218|103:218|107:186|107:186|122:211,1,149.999995231629
353,210,91772,2,0,B|387:203|387:203|362:225|362:225|367:194|367:194|382:223|382:223|356:211,1,149.999995231629
171,348,92022,2,0,B|146:373|146:373|154:340|154:340|168:368|168:368|139:354|139:354|166:348,1,149.999995231629
254,24,94022,6,8,B|335:313|335:313|95:127|95:127|394:121|394:121|160:311|160:311|254:20,1,1499.99995231629
256,192,96522,12,0,96022
256,192,96522,12,0,96022
256,192,96522,12,0,96022
256,192,96522,12,0,96022
256,192,96522,12,0,96022
256,192,96522,12,0,96022
256,192,96522,12,0,96022
256,192,96522,12,0,96022
273,39,97022,6,0,B|354:328|354:328|114:142|114:142|413:136|413:136|179:326|179:326|273:35,1,1499.99995231629
356,326,98522,6,0,B|120:140|120:140|424:149|424:149|186:330|186:330|263:39|263:39|358:329,1,1499.99995231629
128,146,100022,6,0,B|427:158|427:158|176:329|176:329|263:42|263:42|371:324|371:324|124:144,1,1499.99995231629
427,155,101522,6,0,B|177:321|177:321|279:35|279:35|378:318|378:318|124:154|124:154|430:153,1,1499.99995231629
178,321,103022,6,4,B|282:39|282:39|367:331|367:331|121:160|121:160|422:144|422:144|175:324,1,1499.99995231629
256,0,106022,6,0,B|305:147|303:147,1,149.999995231629
330,221,106272,6,0,B|379:368|377:368,1,149.999995231629
378,362,106522,6,0,B|251:271|253:270,1,149.999995231629
188,226,106772,6,0,B|61:135|63:134,1,149.999995231629
57,126,107022,6,0,B|212:125|211:126,1,149.999995231629
291,124,107272,6,0,B|445:123|445:125,1,149.999995231629
455,128,107522,6,0,B|330:220|330:218,1,149.999995231629
267,267,107772,6,0,B|142:359|142:357,1,149.999995231629
132,360,108022,6,0,B|178:212|180:214,1,149.999995231629
202,137,108272,6,0,B|249:-9|251:-8,1,149.999995231629
195,124,109022,5,8
352,201,109272,1,8
172,232,109522,1,8
297,110,109772,1,8
274,285,110022,1,8
256,0,110522,6,0,B|305:147|303:147,1,149.999995231629
249,0,110772,6,0,B|249:-9|202:137,1,149.999995231629
378,362,111022,6,0,B|251:271|253:270,1,149.999995231629
145,355,111271,6,0,B|142:359|267:267,1,149.999995231629
57,126,111522,6,0,B|212:125|211:126,1,149.999995231629
440,124,111772,6,0,B|445:123|291:124,1,149.999995231629
455,128,112022,6,0,B|330:220|330:218,1,149.999995231629
66,137,112272,6,0,B|61:135|188:226,1,149.999995231629
132,360,112522,6,0,B|178:212|180:214,1,149.999995231629
376,363,112771,6,0,B|379:368|330:221,1,149.999995231629
256,0,113522,6,0,B|305:147|303:147,1,149.999995231629
376,363,113772,6,0,B|379:368|330:221,1,149.999995231629
378,362,114022,6,0,B|251:271|253:270,1,149.999995231629
66,137,114272,6,0,B|61:135|188:226,1,149.999995231629
57,126,114522,6,0,B|212:125|211:126,1,149.999995231629
440,124,114772,6,0,B|445:123|291:124,1,149.999995231629
455,128,115022,6,0,B|330:220|330:218,1,149.999995231629
145,355,115272,6,0,B|142:359|267:267,1,149.999995231629
132,360,115522,6,8,B|178:212|180:214,1,149.999995231629
249,0,115772,6,8,B|249:-9|202:137,1,149.999995231629
302,142,116522,6,0,B|305:147|256:0,1,149.999995231629
330,221,116772,6,0,B|379:368|376:363,1,149.999995231629
256,273,117022,6,0,B|251:271|378:362,1,149.999995231629
187,225,117272,6,0,B|61:135|66:137,1,149.999995231629
206,125,117522,6,0,B|212:125|57:126,1,149.999995231629
291,123,117772,6,0,B|445:123|440:124,1,149.999995231629
333,216,118022,6,0,B|330:220|455:128,1,149.999995231629
266,267,118272,6,0,B|142:359|145:355,1,149.999995231629
178,217,118522,6,8,B|178:212|132:360,1,149.999995231629
202,136,118772,6,8,B|249:-9|249:-5,1,149.999995231629
256,0,119522,6,0,B|305:147|302:142,1,149.999995231629
291,123,119772,6,0,B|445:123|440:124,1,149.999995231629
454,128,120022,6,0,B|330:220|333:216,1,149.999995231629
330,221,120272,6,0,B|379:368|376:363,1,149.999995231629
377,361,120522,6,0,B|251:271|256:273,1,149.999995231629
266,267,120772,6,0,B|142:359|145:355,1,149.999995231629
132,359,121022,6,0,B|178:212|178:217,1,149.999995231629
187,225,121272,6,0,B|61:135|66:137,1,149.999995231629
57,125,121522,6,2,B|212:125|206:125,1,149.999995231629
202,136,121772,6,0,B|249:-9|249:-5,1,149.999995231629
256,0,122022,6,0,B|305:147|302:142,1,149.999995231629
291,123,122272,6,0,B|445:123|440:124,1,149.999995231629
454,128,122522,6,0,B|330:220|333:216,1,149.999995231629
330,221,122772,6,8,B|379:368|376:363,1,149.999995231629
377,361,123022,6,0,B|251:271|256:273,1,149.999995231629
266,267,123272,6,0,B|142:359|145:355,1,149.999995231629
132,359,123522,6,0,B|178:212|178:217,1,149.999995231629
187,225,123772,6,2,B|61:135|66:137,1,149.999995231629
57,125,124022,6,0,B|212:125|206:125,1,149.999995231629
202,136,124272,6,12,B|249:-9|249:-5,1,149.999995231629
249,389,125022,6,0,B|249:393|202:247,1,149.999995231629
206,258,125273,6,0,B|212:259|57:258,1,149.999995231629
66,246,125522,6,0,B|61:249|187:158,1,149.999995231629
178,166,125772,6,0,B|178:172|132:24,1,149.999995231629
145,28,126022,6,0,B|142:25|266:116,1,149.999995231629
256,110,126273,6,8,B|251:113|377:22,1,149.999995231629
376,20,126522,6,0,B|379:16|330:162,1,149.999995231629
333,167,126772,6,2,B|330:164|454:255,1,149.999995231629
440,259,127023,6,0,B|445:261|291:260,1,149.999995231629
302,241,127273,6,0,B|305:237|256:383,1,149.999995231629
249,389,127522,6,2,B|249:393|202:247,1,149.999995231629
206,258,127773,6,0,B|212:259|57:258,1,149.999995231629
66,246,128022,6,8,B|61:249|187:158,1,149.999995231629
178,166,128272,6,0,B|178:172|132:24,1,149.999995231629
145,28,128522,6,2,B|142:25|266:116,1,149.999995231629
256,110,128773,6,12,B|251:113|377:22,1,149.999995231629
376,20,129022,6,0,B|379:16|330:162,1,149.999995231629
333,167,129272,6,2,B|330:164|454:255,1,149.999995231629
440,259,129523,6,0,B|445:261|291:260,1,149.999995231629
302,241,129773,6,12,B|305:237|256:383,1,149.999995231629
256,58,131022,5,0
262,76,131105,1,0
266,96,131188,1,0
273,116,131272,1,0
281,139,131355,1,0
287,159,131438,1,0
295,180,131522,1,0
300,200,131605,1,0
309,219,131688,1,0
316,239,131772,1,0
324,262,131855,1,0
330,282,131938,1,0
334,300,132022,5,0
319,289,132105,1,0
304,275,132188,1,0
286,263,132272,1,0
266,249,132355,1,0
250,236,132438,1,0
231,224,132522,1,0
215,211,132605,1,0
197,201,132688,1,0
179,189,132772,1,0
159,175,132855,1,0
143,162,132938,1,0
128,150,133022,5,0
147,150,133105,1,0
167,152,133188,1,0
188,152,133272,1,0
213,151,133355,1,0
234,152,133438,1,0
256,151,133522,1,0
277,152,133605,1,0
298,149,133688,1,0
319,149,133772,1,0
343,148,133855,1,0
364,149,133938,1,0
383,150,134022,5,0
368,161,134105,1,0
350,171,134188,1,0
333,184,134272,1,0
314,199,134355,1,0
296,211,134438,1,0
279,225,134522,1,0
261,236,134605,1,0
246,250,134688,1,0
229,263,134772,1,0
210,278,134855,1,0
193,290,134938,1,0
177,300,135022,5,0
182,282,135105,1,0
191,263,135188,1,0
197,243,135272,1,0
204,220,135355,1,0
211,200,135438,1,0
217,178,135522,1,0
225,159,135605,1,0
228,139,135688,1,0
235,118,135772,1,8
242,95,135855,1,0
249,75,135938,1,0
256,17,136022,5,0
263,41,136105,1,0
268,67,136188,1,0
278,93,136272,1,0
288,123,136355,1,0
296,149,136438,1,0
306,176,136522,1,0
313,202,136605,1,0
324,227,136688,1,0
333,253,136772,1,0
344,282,136855,1,0
352,308,136938,1,0
358,332,137022,5,0
338,318,137105,1,0
318,300,137188,1,0
296,284,137272,1,0
270,266,137355,1,0
248,250,137438,1,8
224,234,137522,1,0
203,217,137605,1,0
179,204,137688,1,0
157,188,137772,1,0
131,170,137855,1,0
109,153,137938,1,0
90,138,138022,5,0
115,138,138105,1,0
141,141,138188,1,0
168,140,138272,1,0
200,139,138355,1,0
227,140,138438,1,0
256,139,138522,1,0
283,140,138605,1,0
310,137,138688,1,0
338,136,138772,1,0
369,136,138855,1,0
396,136,138938,1,0
421,138,139022,5,8
401,152,139105,1,0
378,165,139188,1,0
356,182,139272,1,0
331,201,139355,1,0
309,217,139438,1,0
286,235,139522,1,0
263,249,139605,1,0
243,268,139688,1,0
222,284,139772,1,0
196,304,139855,1,0
174,319,139938,1,0
153,332,140022,5,0
161,309,140105,1,0
172,285,140188,1,0
180,258,140272,1,0
189,228,140355,1,0
198,203,140438,1,0
205,174,140522,1,0
215,149,140605,1,0
220,123,140688,1,0
228,96,140772,1,0
237,66,140855,1,0
246,40,140938,1,0
256,17,141022,5,0
263,41,141105,1,0
268,67,141188,1,0
278,93,141272,1,0
288,123,141355,1,0
296,149,141438,1,0
306,176,141522,1,0
313,202,141605,1,0
324,227,141688,1,0
333,253,141772,1,0
344,282,141855,1,0
352,308,141938,1,8
358,332,142022,5,0
338,318,142105,1,0
318,300,142188,1,0
296,284,142272,1,0
270,266,142355,1,0
248,250,142438,1,0
224,234,142522,1,0
203,217,142605,1,0
179,204,142688,1,0
157,188,142772,1,0
131,170,142855,1,0
109,153,142938,1,0
90,138,143022,5,0
115,138,143105,1,0
141,141,143188,1,0
168,140,143272,1,0
200,139,143355,1,0
227,140,143438,1,0
256,139,143522,1,8
283,140,143605,1,0
310,137,143688,1,0
338,136,143772,1,0
369,136,143855,1,0
396,136,143938,1,0
421,138,144022,5,0
401,152,144105,1,0
378,165,144188,1,0
356,182,144272,1,0
331,201,144355,1,0
309,217,144438,1,0
286,235,144522,1,0
263,249,144605,1,0
243,268,144688,1,0
222,284,144772,1,0
196,304,144855,1,0
174,319,144938,1,0
153,332,145022,5,0
161,309,145105,1,0
172,285,145188,1,0
180,258,145272,1,0
189,228,145355,1,0
198,203,145438,1,0
205,174,145522,1,0
215,149,145605,1,12
220,123,145688,1,12
228,96,145772,1,12
237,66,145855,1,12
246,40,145938,1,12
168,354,148022,5,0
176,330,148105,1,0
181,304,148188,1,0
191,278,148272,1,0
201,248,148355,1,0
209,222,148438,1,0
219,195,148522,1,0
226,169,148605,1,0
237,144,148688,1,0
246,118,148772,1,0
257,89,148855,1,0
265,63,148938,1,0
271,39,149022,5,0
251,53,149105,1,0
231,71,149188,1,0
209,87,149272,1,0
183,105,149355,1,0
161,121,149438,1,0
137,137,149522,1,0
116,154,149605,1,0
92,167,149688,1,0
70,183,149772,1,0
44,201,149855,1,0
22,218,149938,1,0
3,233,150022,5,0
28,233,150105,1,0
54,230,150188,1,0
81,231,150272,1,0
113,232,150355,1,0
140,231,150438,1,0
169,232,150522,1,0
196,231,150605,1,0
223,234,150688,1,0
251,235,150772,1,0
282,235,150855,1,0
309,235,150938,1,0
334,233,151022,5,0
314,219,151105,1,0
291,206,151188,1,0
269,189,151272,1,0
244,170,151355,1,8
222,154,151438,1,0
199,136,151522,1,0
176,122,151605,1,0
156,103,151688,1,0
135,87,151772,1,0
109,67,151855,1,0
87,52,151938,1,0
66,39,152022,5,0
74,62,152105,1,0
85,86,152188,1,0
93,113,152272,1,8
102,143,152355,1,0
111,168,152438,1,0
118,197,152522,1,0
128,221,152605,1,0
133,248,152688,1,0
141,275,152772,1,0
150,305,152855,1,0
159,331,152938,1,0
187,313,153022,5,0
209,298,153105,1,8
235,278,153188,1,0
256,262,153272,1,0
276,243,153355,1,0
299,229,153438,1,0
322,211,153522,1,0
344,195,153605,1,0
369,176,153688,1,0
391,159,153772,1,0
414,146,153855,1,0
434,132,153938,1,0
409,130,154022,5,0
382,130,154105,1,0
351,130,154188,1,0
323,131,154272,1,0
296,134,154355,1,0
269,133,154438,1,0
240,134,154522,1,8
213,133,154605,1,0
181,134,154688,1,0
154,135,154772,1,0
128,132,154855,1,0
103,132,154938,1,0
122,147,155022,5,0
144,164,155105,1,0
170,182,155188,1,0
192,198,155272,1,0
216,211,155355,1,0
237,228,155438,1,0
261,244,155522,1,0
283,260,155605,1,0
309,278,155688,1,0
331,294,155772,1,0
351,312,155855,1,0
371,326,155938,1,0
365,302,156022,5,0
357,276,156105,1,0
346,247,156188,1,0
337,221,156272,1,0
326,196,156355,1,0
319,170,156438,1,0
309,143,156522,1,0
301,117,156605,1,0
291,87,156688,1,0
281,61,156772,1,0
276,35,156855,1,0
268,11,156938,1,0
259,34,157022,5,0
250,60,157105,1,8
241,90,157188,1,0
233,117,157272,1,0
228,144,157355,1,0
218,168,157438,1,0
211,197,157522,1,0
202,222,157605,1,0
193,252,157688,1,0
185,279,157772,1,0
174,303,157855,1,0
166,326,157938,1,0
166,326,158022,5,0
174,303,158105,1,0
185,279,158188,1,0
193,252,158272,1,0
202,222,158355,1,0
211,197,158438,1,0
218,168,158522,1,0
228,144,158605,1,0
233,117,158688,1,0
241,90,158772,1,0
250,60,158855,1,8
259,34,158938,1,0
268,20,159022,5,0
275,44,159105,1,0
279,70,159188,1,0
287,97,159272,1,0
296,127,159355,1,0
303,154,159438,1,0
311,181,159522,1,0
317,207,159605,1,0
326,233,159688,1,0
334,259,159772,1,0
343,289,159855,1,0
350,315,159938,1,0
346,318,160022,5,0
354,294,160105,1,0
359,268,160188,1,0
369,242,160272,1,0
379,212,160355,1,0
387,186,160438,1,0
397,159,160522,1,0
404,133,160605,1,0
415,108,160688,1,0
424,82,160772,1,0
435,53,160855,1,0
443,27,160938,1,0
449,3,161022,5,0
429,17,161105,1,0
409,35,161188,1,0
387,51,161272,1,0
361,69,161355,1,0
339,85,161438,1,0
315,101,161522,1,0
294,118,161605,1,10
270,131,161688,1,10
248,147,161772,1,10
222,165,161855,1,0
200,182,161938,1,0
181,197,162022,5,0
206,197,162105,1,0
232,194,162188,1,0
259,195,162272,1,0
291,196,162355,1,0
318,195,162438,1,0
347,196,162522,1,0
374,195,162605,1,0
401,198,162688,1,10
429,199,162772,1,10
460,199,162855,1,0
487,199,162938,1,0
512,197,163022,5,0
492,183,163105,1,0
469,170,163188,1,0
447,153,163272,1,0
422,134,163355,1,0
400,118,163438,1,0
377,100,163522,1,0
354,86,163605,1,0
334,67,163688,1,0
313,51,163772,1,0
287,31,163855,1,0
265,16,163938,1,0
244,3,164022,5,0
252,26,164105,1,0
263,50,164188,1,0
271,77,164272,1,0
280,107,164355,1,0
289,132,164438,1,0
296,161,164522,1,10
306,185,164605,1,10
311,212,164688,1,10
319,239,164772,1,10
328,269,164855,1,10
337,295,164938,1,10
254,189,167522,5,14
254,19,168034,5,0
341,288,168047,1,0
112,121,168059,1,0
395,121,168072,1,0
166,288,168084,1,0
261,37,168147,5,0
348,306,168160,1,0
119,139,168172,1,0
402,139,168185,1,0
173,306,168197,1,0
268,53,168272,5,0
355,322,168285,1,0
126,155,168297,1,0
409,155,168310,1,0
180,322,168322,1,0
275,70,168397,5,0
362,339,168410,1,0
133,172,168422,1,0
416,172,168435,1,0
187,339,168447,1,0
281,89,168522,5,0
368,358,168535,1,0
139,191,168547,1,0
422,191,168560,1,0
193,358,168572,1,0
287,104,168647,5,0
374,373,168660,1,0
145,206,168672,1,0
428,206,168685,1,0
199,373,168697,1,0
270,95,168772,5,0
357,364,168785,1,0
128,197,168797,1,0
411,197,168810,1,0
182,364,168822,1,0
248,83,168897,5,0
335,352,168910,1,0
106,185,168922,1,0
389,185,168935,1,0
160,352,168947,1,0
222,68,169022,5,0
309,337,169035,1,0
80,170,169047,1,0
363,170,169060,1,0
134,337,169072,1,0
204,57,169147,5,0
291,326,169160,1,0
62,159,169172,1,0
345,159,169185,1,0
116,326,169197,1,0
223,53,169272,5,0
310,322,169285,1,0
81,155,169297,1,0
364,155,169310,1,0
135,322,169322,1,0
241,51,169397,5,0
328,320,169410,1,0
99,153,169422,1,0
382,153,169435,1,0
153,320,169447,1,0
258,49,169522,5,0
345,318,169535,1,0
116,151,169547,1,0
399,151,169560,1,0
170,318,169572,1,0
275,45,169647,5,0
362,314,169660,1,0
133,147,169672,1,0
416,147,169685,1,0
187,314,169697,1,0
289,40,169772,5,0
376,309,169785,1,0
147,142,169797,1,0
430,142,169810,1,0
201,309,169822,1,0
279,52,169897,5,0
366,321,169910,1,0
137,154,169922,1,0
420,154,169935,1,0
191,321,169947,1,0
266,65,170022,5,0
353,334,170035,1,0
124,167,170047,1,0
407,167,170060,1,0
178,334,170072,1,0
255,76,170147,5,0
342,345,170160,1,0
113,178,170172,1,0
396,178,170185,1,0
167,345,170197,1,0
243,89,170272,5,0
330,358,170285,1,0
101,191,170297,1,0
384,191,170310,1,0
155,358,170322,1,0
229,105,170397,5,0
316,374,170410,1,0
87,207,170422,1,0
370,207,170435,1,0
141,374,170447,1,0
234,87,170522,5,0
321,356,170535,1,0
92,189,170547,1,0
375,189,170560,1,0
146,356,170572,1,0
238,65,170647,5,0
325,334,170660,1,0
96,167,170672,1,0
379,167,170685,1,0
150,334,170697,1,0
244,48,170772,5,0
331,317,170785,1,0
102,150,170797,1,0
385,150,170810,1,0
156,317,170822,1,0
245,34,170897,5,0
332,303,170910,1,0
103,136,170922,1,0
386,136,170935,1,0
157,303,170947,1,0
254,19,171022,5,0
341,288,171035,1,0
112,121,171047,1,0
395,121,171060,1,0
166,288,171072,1,0
258,365,172022,5,0
171,96,172035,1,0
400,263,172047,1,0
117,263,172060,1,0
346,96,172072,1,0
251,347,172135,5,0
164,78,172148,1,0
393,245,172160,1,0
110,245,172173,1,0
339,78,172185,1,0
244,331,172260,5,0
157,62,172273,1,0
386,229,172285,1,0
103,229,172298,1,0
332,62,172310,1,0
237,314,172385,5,0
150,45,172398,1,0
379,212,172410,1,0
96,212,172423,1,0
325,45,172435,1,0
231,295,172510,5,0
144,26,172523,1,0
373,193,172535,1,0
90,193,172548,1,0
319,26,172560,1,0
225,280,172635,5,0
138,11,172648,1,0
367,178,172660,1,0
84,178,172673,1,0
313,11,172685,1,0
242,289,172760,5,0
155,20,172773,1,0
384,187,172785,1,0
101,187,172798,1,0
330,20,172810,1,0
264,301,172885,5,0
177,32,172898,1,0
406,199,172910,1,0
123,199,172923,1,0
352,32,172935,1,0
290,316,173010,5,0
203,47,173023,1,0
432,214,173035,1,0
149,214,173048,1,0
378,47,173060,1,0
308,327,173135,5,0
221,58,173148,1,0
450,225,173160,1,0
167,225,173173,1,0
396,58,173185,1,0
289,331,173260,5,0
202,62,173273,1,0
431,229,173285,1,0
148,229,173298,1,0
377,62,173310,1,0
271,333,173385,5,0
184,64,173398,1,0
413,231,173410,1,0
130,231,173423,1,0
359,64,173435,1,0
254,335,173510,5,0
167,66,173523,1,0
396,233,173535,1,0
113,233,173548,1,0
342,66,173560,1,0
237,339,173635,5,0
150,70,173648,1,0
379,237,173660,1,0
96,237,173673,1,0
325,70,173685,1,0
223,344,173760,5,0
136,75,173773,1,0
365,242,173785,1,0
82,242,173798,1,0
311,75,173810,1,0
233,332,173885,5,0
146,63,173898,1,0
375,230,173910,1,0
92,230,173923,1,0
321,63,173935,1,0
246,319,174010,5,0
159,50,174023,1,0
388,217,174035,1,0
105,217,174048,1,0
334,50,174060,1,0
257,308,174135,5,0
170,39,174148,1,0
399,206,174160,1,0
116,206,174173,1,0
345,39,174185,1,0
269,295,174260,5,0
182,26,174273,1,0
411,193,174285,1,0
128,193,174298,1,0
357,26,174310,1,0
283,279,174385,5,0
196,10,174398,1,0
425,177,174410,1,0
142,177,174423,1,0
371,10,174435,1,0
278,297,174510,5,0
191,28,174523,1,0
420,195,174535,1,0
137,195,174548,1,0
366,28,174560,1,0
274,319,174635,5,0
187,50,174648,1,0
416,217,174660,1,0
133,217,174673,1,0
362,50,174685,1,0
268,336,174760,5,0
181,67,174773,1,0
410,234,174785,1,0
127,234,174798,1,0
356,67,174810,1,0
267,350,174885,5,0
180,81,174898,1,0
409,248,174910,1,0
126,248,174923,1,0
355,81,174935,1,0
258,365,175010,5,0
171,96,175023,1,0
400,263,175035,1,0
117,263,175048,1,0
346,96,175060,1,0
179,321,176022,6,0,B|256:43|256:43|329:322|329:322|96:134|96:134|391:130|391:130|177:323|177:323|256:32|256:32|329:323|329:323|94:133|94:133|394:130|394:130|178:320,1,2924.99990701676
256,32,186022,1,0
270,68,186034,1,0
283,100,186047,1,0
290,137,186059,1,0
331,139,186072,1,0
368,140,186084,1,0
408,142,186097,1,0
378,166,186109,1,0
351,189,186122,1,0
318,208,186134,1,0
329,247,186147,1,0
339,283,186159,1,0
350,321,186172,1,0
317,300,186184,1,0
288,282,186197,1,0
259,256,186209,1,0
226,279,186222,1,0
195,299,186234,1,0
161,321,186247,1,0
171,284,186259,1,0
180,250,186272,1,0
195,215,186284,1,0
163,190,186297,1,0
135,167,186309,1,0
103,142,186322,1,0
141,140,186334,1,0
176,141,186347,1,0
215,138,186359,1,0
229,104,186372,1,0
242,69,186384,1,0
256,32,186397,5,0
270,68,186409,5,0
283,100,186422,5,0
290,137,186434,5,0
331,139,186447,5,0
368,140,186459,5,0
408,142,186472,5,0
378,166,186484,5,0
351,189,186497,5,0
318,208,186509,5,0
329,247,186522,5,0
339,283,186534,5,0
350,321,186547,5,0
317,300,186559,5,0
288,282,186572,5,0
259,256,186584,5,0
226,279,186597,5,0
195,299,186609,5,0
161,321,186622,5,0
171,284,186634,5,0
180,250,186647,5,0
195,215,186659,5,0
163,190,186672,5,0
135,167,186684,5,0
103,142,186697,5,0
141,140,186709,5,0
176,141,186722,5,0
215,138,186734,5,0
229,104,186747,5,0
242,69,186759,5,0
