osu file format v9

[General]
AudioFilename: RadioFreeZerg.mp3
AudioLeadIn: 0
PreviewTime: -1
Countdown: 3
SampleSet: Normal
StackLeniency: 0.4
Mode: 0
LetterboxInBreaks: 1
CountdownOffset: 2

[Editor]
DistanceSpacing: 0.8
BeatDivisor: 4
GridSize: 8

[Metadata]
Title:Radio Free Zerg
Artist:Blizzard Entertainment
Creator:[CSGA]Ar3sgice
Version:Spinny Mutalisk
Source:StarCraft
Tags:zerg,starcraft,protoss,terran,hydralisk,diffs,demo,demonstration,omg,neta,ar3,ac3,evil,danmaku,game,sc,wtf,script,javascript,stars,asd,qwerty

[Difficulty]
HPDrainRate:5
CircleSize:6
OverallDifficulty:4
ApproachRate:7
SliderMultiplier:1.4
SliderTickRate:1

[Events]
//Background and Video events
0,0,"xterranb.png"
//Break Periods
//Storyboard Layer 0 (Background)
//Storyboard Layer 1 (Fail)
//Storyboard Layer 2 (Pass)
//Storyboard Layer 3 (Foreground)
//Storyboard Sound Samples
//Background Colour Transformations
3,100,163,162,255

[TimingPoints]
0,500,4,1,0,100,1,0

[Colours]
Combo1 : 255,0,0
Combo2 : 0,255,0
Combo3 : 0,0,255

[HitObjects]
256,192,2000,12,0,5500
256,192,6500,12,0,6000
256,192,7000,12,0,6500
256,192,7500,12,0,7000
256,192,8000,12,0,7500
256,192,8500,12,0,8000
256,192,9000,12,0,12000
256,192,12500,12,0,13500
256,192,14000,12,0,15000
256,192,16000,12,0,15500
256,192,16000,12,0,17500
256,192,18000,12,0,19500
256,192,20000,12,0,22500
256,192,23500,12,0,23000
256,192,24000,12,0,23500
256,192,24000,12,0,25500
256,192,26500,12,0,26000
256,192,26750,12,0,26250
256,192,27000,12,0,26500
256,192,27250,12,0,26750
256,192,27500,12,0,27000
256,192,27750,12,0,27250
256,192,28000,12,0,27500
256,192,28250,12,0,27750
256,192,28000,12,0,30500
256,192,31000,12,0,31500
256,192,32000,12,0,33500
256,192,34500,12,0,34000
256,192,34750,12,0,34250
256,192,35000,12,0,34500
256,192,35250,12,0,34750
256,192,35500,12,0,35000
256,192,35750,12,0,35250
256,192,36000,12,0,35500
256,192,36250,12,0,35750
256,192,36000,12,0,36500
256,192,37000,12,0,37500
256,192,38000,12,0,39500
256,192,40500,12,0,40000
256,192,41500,12,0,41000
256,192,42500,12,0,42000
256,192,43500,12,0,43000
256,192,44000,12,0,46000
256,192,46500,12,0,47500
256,192,48000,12,0,48500
256,192,50000,12,0,51500
256,192,52000,12,0,54000
256,192,56000,12,0,56500
256,192,58500,12,0,58000
256,192,58625,12,0,58125
256,192,58750,12,0,58250
256,192,58875,12,0,58375
256,192,59000,12,0,58500
256,192,59125,12,0,58625
256,192,59250,12,0,58750
256,192,59375,12,0,58875
256,192,59500,12,0,59000
256,192,59625,12,0,59125
256,192,59750,12,0,59250
256,192,59875,12,0,59375
256,192,60000,12,0,59500
256,192,60000,12,0,61500
256,192,62000,12,0,63500
256,192,64000,12,0,65500
256,192,66000,12,0,66500
256,192,68000,12,0,69500
256,192,70000,12,0,70500
256,192,72000,12,0,72500
256,192,73000,12,0,73500
256,192,74000,12,0,74500
256,192,75000,12,0,75500
256,192,76000,12,0,77500
256,192,78000,12,0,78500
256,192,79000,12,0,79500
256,192,80500,12,0,80000
256,192,80750,12,0,80250
256,192,81000,12,0,80500
256,192,82500,12,0,84500
256,192,85500,12,0,85000
256,192,85750,12,0,85250
256,192,86000,12,0,85500
256,192,86000,12,0,87500
256,192,88000,12,0,89500
256,192,90500,12,0,90000
256,192,92000,12,0,92250
256,192,93000,12,0,92500
256,192,93000,12,0,93250
256,192,94000,12,0,93500
256,192,96000,12,0,97500
256,192,98000,12,0,99000
256,192,99750,12,0,100000
256,192,100250,12,0,100500
256,192,100750,12,0,101000
256,192,102500,12,0,102000
256,192,102625,12,0,102125
256,192,102750,12,0,102250
256,192,102875,12,0,102375
256,192,103000,12,0,102500
256,192,103125,12,0,102625
256,192,103250,12,0,102750
256,192,103375,12,0,102875
256,192,103500,12,0,103000
256,192,103625,12,0,103125
256,192,103750,12,0,103250
256,192,103875,12,0,103375
256,192,104000,12,0,103500
256,192,104000,12,0,112000
256,192,114000,12,0,115500
256,192,116000,12,0,117500
256,192,118500,12,0,118000
256,192,118750,12,0,118250
256,192,119000,12,0,118500
256,192,119250,12,0,118750
256,192,119500,12,0,119000
256,192,119750,12,0,119250
256,192,120000,12,0,119500
256,192,120000,12,0,123500
256,192,124000,12,0,127500
256,192,128000,12,0,129500
256,192,130500,12,0,130000
256,192,130750,12,0,130250
256,192,131000,12,0,130500
256,192,131250,12,0,130750
256,192,131500,12,0,131000
256,192,131750,12,0,131250
256,192,131875,12,0,131375
256,192,132000,12,0,131500
256,192,132000,12,0,132500
256,192,133000,12,0,133500
256,192,134500,12,0,134000
256,192,134750,12,0,134250
256,192,135000,12,0,134500
256,192,135250,12,0,134750
256,192,135500,12,0,135000
256,192,135750,12,0,135250
256,192,135875,12,0,135375
256,192,136000,12,0,135500
256,192,139375,12,0,143500
256,192,144000,12,0,145500
256,192,146500,12,0,146000
256,192,147000,12,0,146500
256,192,147000,12,0,147500
256,192,148500,12,0,148000
256,192,148750,12,0,148250
256,192,149000,12,0,148500
256,192,149250,12,0,148750
256,192,149000,12,0,149500
256,192,150500,12,0,150000
256,192,151000,12,0,150500
256,192,151000,12,0,151500
256,192,152500,12,0,152000
256,192,153000,12,0,152500
256,192,153000,12,0,153500
256,192,154500,12,0,154000
256,192,155000,12,0,154500
256,192,155000,12,0,155500
256,192,156500,12,0,156000
256,192,157000,12,0,156500
256,192,157000,12,0,157500
256,192,158500,12,0,158000
256,192,159000,12,0,158500
256,192,159000,12,0,159500
256,192,160500,12,0,160000
256,192,161000,12,0,160500
256,192,161000,12,0,161500
256,192,162500,12,0,162000
256,192,163000,12,0,162500
256,192,163000,12,0,163500
256,192,164500,12,0,164000
256,192,165000,12,0,164500
256,192,165000,12,0,165500
256,192,166500,12,0,166000
256,192,167000,12,0,166500
256,192,167000,12,0,167500
256,192,168500,12,0,168000
256,192,169000,12,0,168500
256,192,169000,12,0,169500
256,192,170500,12,0,170000
256,192,170750,12,0,170250
256,192,171000,12,0,170500
256,192,171250,12,0,170750
256,192,171500,12,0,171000
256,192,171750,12,0,171250
256,192,171875,12,0,171375
256,192,172000,12,0,171500
256,192,172000,12,0,172250
256,192,173000,12,0,172500
256,192,173000,12,0,173250
256,192,174000,12,0,173500
256,192,174000,12,0,174250
256,192,175000,12,0,174500
256,192,176000,12,0,178000
