osu file format v9

[General]
AudioFilename: RadioFreeZerg.mp3
AudioLeadIn: 0
PreviewTime: -1
Countdown: 3
SampleSet: Normal
StackLeniency: 0.4
Mode: 0
LetterboxInBreaks: 1
CountdownOffset: 2

[Editor]
DistanceSpacing: 0.8
BeatDivisor: 4
GridSize: 8

[Metadata]
Title:Radio Free Zerg
Artist:Blizzard Entertainment
Creator:[CSGA]Ar3sgice
Version:Slow Overlord
Source:StarCraft
Tags:zerg,starcraft,protoss,terran,hydralisk,diffs,demo,demonstration,omg,neta,ar3,ac3,evil,danmaku,game,sc,wtf,script,javascript,stars,asd,qwerty

[Difficulty]
HPDrainRate:3
CircleSize:4
OverallDifficulty:3
ApproachRate:0
SliderMultiplier:0.4
SliderTickRate:1

[Events]
//Background and Video events
0,0,"xterranb.png"
//Break Periods
//Storyboard Layer 0 (Background)
//Storyboard Layer 1 (Fail)
//Storyboard Layer 2 (Pass)
//Storyboard Layer 3 (Foreground)
//Storyboard Sound Samples
//Background Colour Transformations
3,100,163,162,255

[TimingPoints]
445,500.834724540902,4,1,0,100,1,0
445,-800,4,1,0,100,0,0
82456,500.834724540902,4,1,0,100,1,0
82456,-800,4,1,0,100,0,0
144059,500.834724540902,4,1,0,100,1,0
144059,-800,4,1,0,100,0,0

[Colours]
Combo1 : 255,0,0
Combo2 : 0,255,0
Combo3 : 0,0,255

[HitObjects]
160,192,445,2,0,B|174:192,1,15
160,88,2448,2,0,B|169:89,1,10
192,136,3950,1,0
256,136,4451,2,0,B|259:136,1,5
448,88,5954,6,0,B|448:97,1,10
432,160,7581,2,0,B|432:166|432:168,1,8.75
432,280,8959,1,0
432,280,9209,2,0,B|421:280,1,12.5
419,280,10712,1,0
296,288,11964,2,0,B|295:288,1,2.5
296,288,12465,2,0,B|272:289,1,25
120,72,15970,6,0,B|128:69|128:72,1,10
184,136,17473,1,0
336,72,17974,1,0
336,144,18475,1,0
336,144,18600,1,0
336,144,18725,1,0
400,144,18975,2,0,B|401:145,1,2.5
464,144,19476,1,0
464,144,19601,1,0
464,144,19727,1,0
400,272,19977,6,0,B|392:272,2,10
328,216,22481,1,0
288,288,22982,1,0
248,216,23483,1,0
200,288,23984,2,0,B|191:288,1,10
128,288,25486,1,0
128,104,25987,6,0,B|129:105,1,2.5
128,168,26488,1,0
128,168,26613,1,0
128,168,26738,1,0
192,168,26989,2,0,B|192:167,1,2.5
192,104,27490,1,0
192,104,27615,1,0
192,104,27740,1,0
328,104,27990,6,0,B|352:104,1,25
424,112,30995,1,0
424,112,31121,1,0
424,112,31246,1,0
424,184,31496,1,0
424,184,31621,1,0
424,184,31747,1,0
424,272,31997,6,0,B|411:272,1,15
328,280,34000,1,0
248,280,34501,1,0
248,280,34626,1,0
248,280,34752,1,0
200,280,35002,1,0
200,280,35127,1,0
200,280,35253,1,0
152,280,35503,1,0
152,280,35628,1,0
152,280,35753,1,0
144,144,36004,6,0,B|177:144,1,35
240,144,40010,1,0
240,144,40136,1,0
240,144,40261,1,0
296,144,40511,1,0
296,144,40636,1,0
296,144,40762,1,0
352,144,41012,1,0
352,144,41137,1,0
352,144,41263,1,0
408,144,41513,1,0
408,144,41638,1,0
408,144,41763,1,0
408,232,42014,6,0,B|408:236,1,5
344,232,43015,2,0,B|344:236,1,5
264,232,44017,2,0,B|246:235,1,20
176,248,46521,2,0,B|176:256,1,10
160,112,48024,6,0,B|159:111,1,2.5
224,112,48525,2,0,B|223:112,1,2.5
288,112,49025,2,0,B|288:113,1,2.5
352,112,49526,2,0,B|351:112,1,2.5
352,272,50027,6,0,B|353:273,1,2.5
288,272,50528,2,0,B|289:272,1,2.5
224,272,51028,2,0,B|224:271,1,2.5
160,272,51529,2,0,B|161:272,1,2.5
160,112,52030,6,0,B|159:111,1,2.5
224,112,52531,2,0,B|223:112,1,2.5
288,112,53031,2,0,B|288:113,1,2.5
352,112,53532,2,0,B|351:112,1,2.5
352,272,54033,6,0,B|353:273,1,2.5
288,272,54534,2,0,B|289:272,1,2.5
224,272,55034,2,0,B|224:271,1,2.5
160,272,55535,2,0,B|161:272,1,2.5
256,192,56037,6,0,B|259:189,1,5
320,192,57039,1,0
320,192,57164,1,0
320,192,57289,1,0
320,128,57540,1,0
320,128,57665,1,0
320,128,57790,1,0
320,192,58040,1,0
320,192,58166,1,0
320,192,58291,1,0
320,256,58541,1,0
320,256,58667,1,0
320,256,58792,1,0
384,192,59042,1,0
384,192,59167,1,0
384,192,59293,1,0
448,192,59543,1,0
448,192,59668,1,0
448,192,59793,1,0
256,192,60044,6,0,B|255:191,1,2.5
192,192,60545,2,0,B|192:193,1,2.5
128,192,61046,2,0,B|127:192,1,2.5
64,192,61546,2,0,B|64:191,1,2.5
184,104,62047,5,0
184,104,62172,1,0
184,104,62298,1,0
248,104,62548,1,0
248,104,62673,1,0
248,104,62798,1,0
312,104,63049,1,0
312,104,63174,1,0
312,104,63299,1,0
376,104,63550,1,0
376,104,63675,1,0
376,104,63800,1,0
376,192,64051,2,0,B|376:200,1,10
376,208,65553,1,0
296,208,66054,5,0
224,208,66555,2,0,B|221:209,1,5
160,208,67556,1,0
160,112,68057,2,0,B|168:112,1,10
168,112,69560,1,0
376,104,70061,5,0
376,160,70561,1,0
376,216,71062,1,0
376,272,71563,1,0
256,192,72064,6,0,B|243:192,1,15
240,192,74067,1,0
184,192,74568,1,0
128,192,75069,1,0
80,192,75570,1,0
80,88,76071,6,0,B|89:87,1,10
80,192,77573,1,0
120,192,78074,1,0
152,192,78575,1,0
176,192,79076,1,0
192,192,79576,1,0
192,88,80077,6,0,B|191:89,2,2.5
312,88,81079,2,0,B|311:89,2,2.5,0|0|0
384,192,82456,6,0,B|398:193,1,15
320,128,84459,1,0
320,248,84960,1,0
320,128,85461,1,0
320,248,85961,2,0,B|306:249,1,15
208,192,87965,6,0,B|208:183,1,10
208,112,89467,1,0
72,112,89968,1,0
72,128,90218,1,0
72,144,90469,1,0
72,232,90970,1,0
72,248,91220,1,0
72,264,91471,1,0
184,248,91971,6,0,B|197:249,1,15
312,256,93975,1,0
312,272,94225,1,0
312,288,94476,1,0
408,256,94976,1,0
408,272,95226,1,0
408,288,95477,1,0
408,136,95978,6,0,B|408:122,1,15
328,120,97981,1,0
328,104,98231,1,0
328,88,98482,1,0
256,120,98983,1,0
256,104,99233,1,0
256,88,99484,1,0
256,256,99985,6,0,B|242:256,1,15
256,192,101988,12,0,103991
128,192,104492,6,0,B|356:192,1,230
256,88,128031,6,0,B|256:97,1,10
256,152,129284,1,0
256,152,129409,1,0
256,152,129534,1,0
256,216,130035,1,0
288,216,130285,1,0
320,216,130536,1,0
224,216,130786,1,0
192,216,131036,1,0
256,216,131287,1,0
256,216,131412,1,0
256,216,131537,1,0
256,288,132038,6,0,B|256:301,1,15
360,288,134041,1,0
360,256,134292,1,0
360,224,134542,1,0
360,192,134793,1,0
360,160,135043,1,0
360,128,135294,1,0
360,112,135419,1,0
360,96,135544,1,0
304,192,136045,6,0,B|226:192,1,80
176,192,144559,1,0
176,112,145060,2,0,B|176:108,1,5
360,96,146062,5,0
360,128,146313,1,0
360,160,146563,1,0
360,192,146814,1,0
360,224,147064,1,0
360,256,147315,1,0
360,272,147440,1,0
360,288,147565,1,0
320,96,148065,5,0
320,128,148316,1,0
320,160,148566,1,0
320,192,148817,1,0
320,224,149067,1,0
320,256,149318,1,0
320,272,149443,1,0
320,288,149568,1,0
280,96,150069,5,0
280,128,150320,1,0
280,160,150570,1,0
280,192,150821,1,0
280,224,151071,1,0
280,256,151322,1,0
280,272,151447,1,0
280,288,151572,1,0
240,96,152072,5,0
240,128,152323,1,0
240,160,152573,1,0
240,192,152824,1,0
240,224,153074,1,0
240,256,153325,1,0
240,272,153450,1,0
240,288,153575,1,0
200,96,154075,5,0
200,128,154326,1,0
200,160,154576,1,0
200,192,154827,1,0
200,224,155077,1,0
200,256,155328,1,0
200,272,155453,1,0
200,288,155578,1,0
160,96,156079,5,0
160,128,156330,1,0
160,160,156580,1,0
160,192,156831,1,0
160,256,157080,2,0,B|160:264,1,10
192,264,158332,1,0
224,264,158583,1,0
256,264,158833,1,0
288,264,159084,1,0
320,264,159334,1,0
336,264,159459,1,0
352,264,159584,1,0
120,88,160085,5,0
120,120,160336,1,0
120,152,160586,1,0
120,184,160837,1,0
120,216,161087,1,0
120,248,161338,1,0
120,264,161463,1,0
120,280,161588,1,0
160,88,162089,5,0
160,120,162340,1,0
160,152,162590,1,0
160,184,162841,1,0
160,216,163091,1,0
160,248,163342,1,0
160,264,163467,1,0
160,280,163592,1,0
200,88,164092,5,0
200,120,164343,1,0
200,152,164593,1,0
200,184,164844,1,0
200,216,165094,1,0
200,248,165345,1,0
200,264,165470,1,0
200,280,165595,1,0
240,96,166095,5,0
240,128,166346,1,0
240,160,166596,1,0
240,192,166847,1,0
240,224,167097,1,0
240,256,167348,1,0
240,272,167473,1,0
240,288,167598,1,0
280,96,168099,5,0
280,128,168350,1,0
280,160,168600,1,0
280,192,168851,1,0
280,224,169101,1,0
280,256,169352,1,0
280,272,169477,1,0
280,288,169602,1,0
320,96,170102,5,0
320,128,170353,1,0
320,160,170603,1,0
320,192,170854,1,0
320,224,171104,1,0
320,256,171355,1,0
320,272,171480,1,0
320,288,171605,1,0
408,104,172105,6,0,B|408:107,1,5
408,176,173107,2,0,B|406:179,1,5
408,272,174109,2,0,B|409:276,1,5
312,192,175110,1,0
200,192,175611,1,0
256,192,176112,2,0,B|257:114,1,80
