osu file format v9

[General]
AudioFilename: RadioFreeZerg.mp3
AudioLeadIn: 0
PreviewTime: -1
Countdown: 1
SampleSet: Normal
StackLeniency: 0.5
Mode: 0
LetterboxInBreaks: 1

[Editor]
DistanceSpacing: 0.8
BeatDivisor: 4
GridSize: 8

[Metadata]
Title:Radio Free Zerg
Artist:Blizzard Entertainment
Creator:[CSGA]Ar3sgice
Version:Simple Drone
Source:StarCraft
Tags:zerg,starcraft,protoss,terran,hydralisk,diffs,demo,demonstration,omg,neta,ar3,ac3,evil,danmaku,game,sc,wtf,script,javascript,stars,asd,qwerty

[Difficulty]
HPDrainRate:9
CircleSize:6
OverallDifficulty:3
ApproachRate:5
SliderMultiplier:1.49999990463257
SliderTickRate:2

[Events]
//Background and Video events
0,0,"xterranb.png"
//Break Periods
//Storyboard Layer 0 (Background)
//Storyboard Layer 1 (Fail)
//Storyboard Layer 2 (Pass)
//Storyboard Layer 3 (Foreground)
//Storyboard Sound Samples
//Background Colour Transformations
3,100,163,162,255

[TimingPoints]
445,500.834724540902,4,1,0,100,1,0
114009,500.834724540902,4,1,0,100,1,0

[Colours]
Combo1 : 255,128,0
Combo2 : 244,4,4
Combo3 : 12,72,204
Combo4 : 44,180,148
Combo5 : 136,64,156
Combo6 : 248,140,20
Combo7 : 112,48,20
Combo8 : 8,128,8

[HitObjects]
72,232,1446,2,0,B|128:80,1,149.999990463257
80,128,2448,2,0,B|136:264|136:264|192:128|192:128|248:264|248:264|308:122|308:122|368:272,1,749.999952316284
360,136,5954,2,0,B|320:248|240:240|184:232|152:168|144:120,1,299.999980926514
88,192,7456,2,0,B|88:96|176:96|176:280|272:280|272:184,1,299.999980926514
384,192,8959,2,0,B|168:120|168:120|168:272|168:272|381:194,1,599.999961853027
320,144,11964,6,0,B|320:248,2,74.9999952316284
320,144,12965,2,0,B|216:144,4,74.9999952316284
80,64,14468,2,0,B|144:96|176:184|120:224|120:224|120:336,1,299.999980926514
48,256,15970,6,0,B|48:96|48:96|192:96,1,299.999980926514
296,80,17974,2,0,B|216:112|216:112|296:136|296:136|216:160|216:160|296:184|296:184|216:216|216:216|296:240|296:240|216:264|216:264|216:280,1,599.999961853027
208,320,20478,2,0,B|48:320,1,149.999990463257
64,320,21480,2,0,B|64:160,1,149.999990463257
152,96,23984,6,8,B|88:160|144:200|200:200|200:200|272:200|304:256|232:304|224:304,2,299.999980926514
320,128,26989,2,8,B|320:216,2,74.9999952316284
400,208,27990,2,4,B|304:280|272:120|176:128|128:224,2,299.999980926514
120,56,31997,2,2,B|40:128|40:128|40:304|40:304|40:336,1,299.999980926514
208,112,36004,2,4,B|152:176|224:232|288:160|288:160|344:200|280:264|336:312|400:320|432:248|408:192,1,449.999971389771
408,112,38007,2,0,B|344:184|344:184|264:168,3,149.999990463257
96,56,44017,6,8,B|32:128|32:200|96:272|152:304|208:304|288:224|296:168,1,449.999971389771
368,72,46521,2,0,B|368:112,4,37.4999976158142
272,72,47523,2,0,B|272:176,1,74.9999952316284
272,147,48024,2,8,B|272:296,1,149.999990463257
168,336,49025,6,0,B|152:328|152:328|184:328|184:328|152:320|152:320|184:320|184:320|152:312|152:312|184:312|184:312|152:304|152:304|184:304|184:304|152:296|152:296|184:296|184:296|152:288|152:288|184:288|184:288|152:280|152:280|184:280|184:280|152:272|152:272|184:272|184:272|152:264|152:264|184:264|184:264|168:240,1,599.999961853027
352,336,52030,6,2,B|336:328|336:328|368:328|368:328|336:320|336:320|368:320|368:320|336:312|336:312|368:312|368:312|336:304|336:304|368:304|368:304|336:296|336:296|368:296|368:296|336:288|336:288|368:288|368:288|336:280|336:280|368:280|368:280|336:272|336:272|368:272|368:272|336:264|336:264|368:264|368:264|352:240,1,599.999961853027
256,224,55035,2,0,B|256:120,3,74.9999952316284
256,224,56037,2,8,B|256:376,1,149.999990463257
280,96,58040,2,0,B|232:96,16,37.4999976158142
280,280,62047,2,0,B|232:280,16,37.4999976158142
264,80,64802,6,2,B|96:240,1,224.999985694885
104,200,68057,2,8,B|104:96|104:96|216:96|216:96|216:336,1,449.999971389771
288,72,72064,2,4,B|176:56|128:128|112:192|112:192|224:192|296:256|296:312,1,449.999971389771
152,96,76071,2,2,B|152:232|216:224|264:144|272:120|272:120|296:240|368:320|384:320,1,449.999971389771
360,120,80077,2,8,B|360:216,2,74.9999952316284
240,64,82456,6,0,B|72:232|288:336,1,337.499978542328
176,128,85086,2,0,B|224:224|224:224|264:168,1,149.999990463257
328,88,87840,2,8,B|432:96|472:176|464:272|344:312|304:320|264:296,1,374.999976158142
120,96,92097,2,8,B|168:280|264:176|352:248|320:296,1,299.999980926514
128,240,96104,2,2,B|192:120|192:120|328:104|328:104|336:152,2,299.999980926514
72,208,100111,2,4,B|392:208,1,299.999980926514
240,96,104117,2,0,B|168:224|168:224|448:232|448:232|312:368,4,599.999961853027
40,192,116012,6,8,B|488:192,1,449.999971389771
40,88,118015,2,8,B|496:88,1,449.999971389771
48,304,120019,2,8,B|496:304,1,449.999971389771
88,152,122022,2,8,B|120:224|120:224|152:152|152:152|176:224|176:224|208:160|208:160|232:224|232:224|272:152,1,449.999971389771
152,192,124025,2,8,B|184:264|184:264|216:192|216:192|240:264|240:264|272:200|272:200|296:264|296:264|336:192,1,449.999971389771
240,232,126029,2,8,B|272:304|272:304|304:232|304:232|328:304|328:304|360:240|360:240|384:304|384:304|424:232,1,449.999971389771
256,80,128032,2,8,B|144:80|144:248|344:248|344:80|256:84|256:82,1,299.999980926514
40,56,132039,6,4,B|40:360,1,299.999980926514
40,192,136045,2,0,B|488:192,3,449.999971389771
128,80,144059,2,4,B|128:216|192:256|328:280,2,299.999980926514
48,96,148065,6,2,B|144:280|144:280|240:240|304:320|304:320|376:328,1,449.999971389771
464,96,150069,2,0,B|368:280|368:280|272:240|208:320|208:320|136:328,1,449.999971389771
48,96,152072,6,8,B|144:280|144:280|240:240|304:320|304:320|376:328,1,449.999971389771
464,96,154076,2,0,B|368:280|368:280|272:240|208:320|208:320|136:328,1,449.999971389771
48,96,156079,6,2,B|144:280|144:280|240:240|304:320|304:320|376:328,1,449.999971389771
464,96,158083,2,0,B|368:280|368:280|272:240|208:320|208:320|136:328,1,449.999971389771
152,352,160085,2,8,B|256:72|256:72|360:360,2,599.999961853027
48,96,168099,6,0,B|144:280|144:280|240:240|304:320|304:320|376:328,1,449.999971389771
464,96,170103,2,0,B|368:280|368:280|272:240|208:320|208:320|136:328,1,449.999971389771
184,96,172105,6,0,B|368:96,1,149.999990463257
184,192,173107,2,0,B|368:192,1,149.999990463257
184,296,174109,2,0,B|368:296,1,149.999990463257
104,192,176112,6,0,B|424:192,1,299.999980926514
