osu file format v9

[General]
AudioFilename: RadioFreeZerg.mp3
AudioLeadIn: 0
PreviewTime: -1
Countdown: 1
SampleSet: Normal
StackLeniency: 0.5
Mode: 0
LetterboxInBreaks: 1

[Editor]
DistanceSpacing: 0.8
BeatDivisor: 4
GridSize: 8

[Metadata]
Title:Radio Free Zerg
Artist:Blizzard Entertainment
Creator:[CSGA]Ar3sgice
Version:Little Larva
Source:StarCraft
Tags:zerg,starcraft,protoss,terran,hydralisk,diffs,demo,demonstration,omg,neta,ar3,ac3,evil,danmaku,game,sc,wtf,script,javascript,stars,asd,qwerty

[Difficulty]
HPDrainRate:3
CircleSize:9
OverallDifficulty:7
ApproachRate:3
SliderMultiplier:1.99999990463257
SliderTickRate:1

[Events]
//Background and Video events
0,0,"xterranb.png"
//Break Periods
2,104222,108582
//Storyboard Layer 0 (Background)
//Storyboard Layer 1 (Fail)
//Storyboard Layer 2 (Pass)
//Storyboard Layer 3 (Foreground)
//Storyboard Sound Samples
//Background Colour Transformations
3,100,163,162,255

[TimingPoints]
22,500,4,1,0,100,1,0

[Colours]
Combo1 : 255,128,0
Combo2 : 244,4,4
Combo3 : 12,72,204
Combo4 : 44,180,148
Combo5 : 136,64,156
Combo6 : 248,140,20
Combo7 : 112,48,20
Combo8 : 8,128,8

[HitObjects]
96,72,1022,1,0
96,72,1272,2,0,B|176:136|176:136|264:88|264:88|360:144,1,299.999985694885
144,224,2647,1,0
240,176,3397,1,0
320,120,4397,1,0
384,136,5897,6,0,B|416:168|408:200|384:224,3,99.9999952316285
104,152,7522,1,8
200,104,8022,1,8
312,96,9272,5,0
312,128,9772,1,0
312,160,10522,1,0
312,160,10647,1,0
448,88,12022,5,0
448,88,12272,1,0
448,88,12397,1,0
448,120,12772,1,0
448,120,13022,1,0
448,152,13272,1,0
448,184,13522,1,0
448,216,13772,1,0
448,248,14022,1,8
448,280,14647,1,8
256,192,15022,12,0,16022
120,176,16522,6,8,B|128:112|192:120,1,99.9999952316285
368,136,20022,1,0
416,168,20522,2,0,B|512:200|512:200|240:320,1,399.999980926514
416,168,21772,1,0
336,112,22022,6,0,B|376:72,12,49.9999976158143
112,144,23772,2,0,B|112:192|112:192|168:192,1,99.9999952316285
164,192,24522,1,8
164,192,24772,1,8
368,112,26022,5,0
304,176,26522,1,0
344,264,27022,1,0
440,280,27522,1,0
184,104,28022,5,2
216,104,28522,1,0
216,104,28772,1,0
248,104,30022,2,0,B|456:104,1,199.999990463257
184,176,32022,6,0,B|192:224|192:224|240:240|240:240|280:208|280:208|272:160,3,199.999990463257
240,96,34022,2,0,B|296:80|328:120|304:184|272:224|216:160,3,199.999990463257
256,192,36022,5,0
48,48,38022,1,2
464,104,40022,5,0
440,128,40272,1,0
440,160,40522,1,0
416,184,40772,1,0
416,216,41022,1,0
392,240,41272,1,0
392,272,41522,1,0
368,296,41772,1,0
336,296,42022,5,0
312,272,42272,1,0
312,240,42522,1,0
288,216,42772,1,0
288,184,43022,1,0
264,160,43272,1,0
264,128,43522,1,0
240,104,43772,1,0
136,72,44022,5,0
136,72,44147,1,0
136,72,44272,1,0
136,72,44647,1,8
136,72,44772,1,8
136,72,45272,1,0
136,72,45397,1,0
136,72,45522,1,0
216,288,46522,5,4
424,48,47022,5,12
56,144,47522,5,0
376,224,48022,2,0,B|424:248|424:248|392:280,1,99.9999952316285
376,224,49022,1,0
376,224,49522,1,0
120,112,51022,1,8
128,272,51522,1,8
272,152,52022,5,0
272,168,52522,1,0
272,184,53022,1,0
272,200,53522,1,0
360,144,54022,5,0
376,144,54272,1,0
376,160,54522,1,0
360,160,54772,1,0
360,176,55022,1,0
376,176,55272,1,0
376,192,55522,1,0
360,192,55772,1,0
360,208,56022,2,0,B|376:208|376:208|363:209|363:209|376:209|376:209|363:208|363:208|375:210|375:210|361:210|361:210|375:209|375:209|368:208,1,99.9999952316285
112,80,57022,5,0
120,304,57522,1,0
384,96,58022,5,8
144,192,58522,1,8
336,312,59022,1,8
144,192,59522,1,8
256,56,60022,5,0
256,56,60147,1,0
256,56,60272,1,0
256,112,60522,1,0
256,112,60647,1,0
256,112,60772,1,0
256,168,61022,1,0
256,168,61147,1,0
256,168,61272,1,0
256,224,61522,1,0
256,224,61647,1,0
256,224,61772,1,0
256,328,62022,5,0
256,328,62147,1,0
256,328,62272,1,0
256,272,62522,1,0
256,272,62647,1,0
256,272,62772,1,0
256,216,63022,1,0
256,216,63147,1,0
256,216,63272,1,0
256,160,63522,1,0
256,160,63647,1,0
256,160,63772,1,0
256,192,64022,12,0,65522
256,96,66022,5,0
168,192,66522,1,0
256,280,67022,1,0
344,192,67522,1,0
256,192,68022,1,2
80,48,70022,5,4
416,304,71522,5,0
216,152,72022,5,0
296,152,73022,1,0
128,304,74022,5,2
424,64,75522,5,2
176,104,76022,6,0,B|128:152|160:200|160:200|184:248|128:304|128:304|80:344|16:296|48:216|48:216|88:144|48:80|88:32|88:32|112:0|176:16|168:72|168:72|160:136|96:120,1,799.999961853028
256,96,78522,1,0
256,248,79022,1,0
80,248,79522,1,0
432,64,80022,5,0
408,104,80272,1,0
456,104,80522,1,0
104,272,81022,5,0
80,312,81272,1,0
128,312,81522,1,0
184,64,82522,5,0
352,296,83022,1,0
128,224,83522,1,0
440,120,84022,1,0
256,192,86022,5,8
256,192,86522,5,8
256,192,87022,5,8
256,192,87522,5,8
88,80,88022,5,0
112,80,88522,1,0
136,80,89022,1,0
160,80,89522,1,0
448,80,92022,5,2
144,296,93022,5,0
344,96,94022,5,0
296,160,94522,1,0
376,224,95022,1,0
328,296,95522,1,0
136,96,96022,2,0,B|136:296,2,199.999990463257
280,112,98022,2,0,B|376:72|416:216,1,199.999990463257
416,264,99022,2,0,B|264:336|256:192,1,199.999990463257
120,96,100022,6,0,B|104:112|120:128|120:128|136:144|152:128|152:128|168:112|152:96|152:96|136:80|120:97|119:90|119:90|124:97|124:97,1,149.999992847443
368,120,101022,6,0,B|352:136|368:152|368:152|384:168|400:152|400:152|416:136|400:120|400:120|384:104|368:121|367:114|367:114|372:121|372:121,1,149.999992847443
176,304,102022,6,0,B|160:320|176:336|176:336|192:352|208:336|208:336|224:320|208:304|208:304|192:288|176:305|175:298|175:298|180:305|180:305,1,149.999992847443
256,192,104022,5,12
128,80,110022,5,0
104,264,110522,1,0
360,80,111022,1,0
384,136,111272,1,0
384,136,111397,1,0
384,136,111522,1,0
160,88,114022,5,0
152,256,114522,5,0
368,240,115022,5,0
336,88,115522,5,0
120,168,116022,5,0
240,296,116522,5,0
424,136,117022,5,0
232,48,117522,5,0
72,304,118022,5,0
320,256,118522,5,0
80,96,119022,5,0
352,328,119522,5,0
208,176,120022,5,0
192,312,120522,5,0
352,152,121022,5,0
144,152,121522,5,0
320,304,122022,5,0
432,96,122522,5,0
352,248,123022,5,0
152,272,123522,5,0
128,104,124022,5,0
240,232,124522,5,0
400,64,125022,5,0
408,264,125522,5,0
376,264,126022,5,0
96,128,126522,5,0
288,240,127022,5,0
120,288,127522,5,0
256,192,128022,12,0,129522
256,192,132022,12,0,133522
256,192,136022,12,0,143522
112,88,144022,6,0,B|40:184|112:280,1,199.999990463257
184,104,145022,1,0
224,160,145272,1,0
184,208,145522,1,0
352,136,146022,5,0
352,240,146522,1,0
448,240,147022,1,0
448,136,147522,1,0
160,136,148022,5,0
160,240,148522,1,0
64,240,149022,1,0
64,136,149522,1,0
352,136,150022,5,8
352,240,150522,1,8
448,240,151022,1,8
448,136,151522,1,8
160,136,152022,5,0
160,240,152522,1,0
64,240,153022,1,0
64,136,153522,1,0
184,48,154022,5,0
184,48,154272,1,0
184,48,154522,1,0
184,48,154772,1,0
184,48,155022,1,0
184,48,155272,1,0
184,48,155397,1,0
184,48,155522,1,0
400,256,156022,5,0
400,256,156272,1,0
400,256,156522,1,0
400,256,156772,1,0
400,256,157022,1,0
400,256,157272,1,0
400,256,157397,1,0
400,256,157522,1,0
104,240,158022,5,0
104,240,158272,1,0
104,240,158522,1,0
104,240,158772,1,0
104,240,159022,1,0
104,240,159272,1,0
104,240,159397,1,0
104,240,159522,1,0
400,112,160022,5,0
400,112,160272,1,0
400,112,160522,1,0
400,112,160772,1,0
400,112,161022,1,0
400,112,161272,1,0
400,112,161397,1,0
400,112,161522,1,0
168,160,162022,5,12
352,272,164022,1,12
304,88,166022,1,12
208,288,168022,1,12
96,256,170022,1,12
168,192,172022,5,0
192,192,172522,1,0
216,192,173022,1,0
240,192,173522,1,0
264,192,174022,1,0
288,192,174522,1,0
312,192,175022,1,0
336,192,175522,1,0
360,192,176022,2,4,B|408:192|416:192|416:192|456:192|456:144|456:144|456:96|408:96|408:96|368:96|368:144|368:144|368:192|413:192|413:192|488:192,1,399.999980926514
