osu file format v9

[General]
AudioFilename: RadioFreeZerg.mp3
AudioLeadIn: 0
PreviewTime: -1
Countdown: 1
SampleSet: Normal
StackLeniency: 0.5
Mode: 0
LetterboxInBreaks: 1

[Editor]
DistanceSpacing: 0.8
BeatDivisor: 4
GridSize: 8

[Metadata]
Title:Radio Free Zerg
Artist:Blizzard Entertainment
Creator:[CSGA]Ar3sgice
Version:Huge Ultralisk
Source:StarCraft
Tags:zerg,starcraft,protoss,terran,hydralisk,diffs,demo,demonstration,omg,neta,ar3,ac3,evil,danmaku,game,sc,wtf,script,javascript,stars,asd,qwerty

[Difficulty]
HPDrainRate:0
CircleSize:0
OverallDifficulty:3
ApproachRate:7
SliderMultiplier:2.99999990463257
SliderTickRate:1

[Events]
//Background and Video events
0,0,"xterranb.png"
//Break Periods
2,104222,113122
2,135722,143122
//Storyboard Layer 0 (Background)
//Storyboard Layer 1 (Fail)
//Storyboard Layer 2 (Pass)
//Storyboard Layer 3 (Foreground)
//Storyboard Sound Samples
//Background Colour Transformations
3,100,163,162,255

[TimingPoints]
22,500,4,1,0,100,1,0

[Colours]
Combo1 : 255,128,0
Combo2 : 244,4,4
Combo3 : 12,72,204
Combo4 : 44,180,148
Combo5 : 136,64,156
Combo6 : 248,140,20
Combo7 : 112,48,20
Combo8 : 8,128,8

[HitObjects]
256,192,1272,2,0,B|296:256|296:256|336:184,1,149.999995231629
332,190,2022,1,0
336,104,2147,2,0,B|416:104,1,74.9999976158143
336,104,2522,2,0,B|184:104,2,149.999995231629
336,104,3272,2,0,B|176:200|496:280|336:336,1,299.999990463257
344,332,4022,1,0
240,328,4272,2,0,B|80:328,1,149.999995231629
128,256,4772,1,0
128,72,5522,5,0
128,72,5772,1,0
320,80,6022,6,0,B|264:128|392:144,2,74.9999976158143
456,80,6522,2,0,B|456:248,1,149.999995231629
320,232,7022,2,0,B|232:232,2,74.9999976158143
344,232,7397,1,0
360,232,7522,1,0
376,232,7772,1,0
392,232,8022,1,0
400,80,8522,5,0
216,168,9022,6,0,B|264:208|264:208|264:128|264:128|224:160,1,149.999995231629
216,168,9522,1,0
64,168,10022,2,0,B|224:168,1,149.999995231629
216,88,10522,1,0
216,248,10772,1,0
216,88,11022,1,0
400,88,12147,5,0
400,88,12397,1,0
416,176,12772,2,0,B|320:176,1,74.9999976158143
341,176,13272,2,0,B|32:176,2,299.999990463257
336,264,14772,2,0,B|496:264,1,149.999995231629
488,256,15147,1,0
480,232,15272,1,0
464,208,15397,1,0
432,176,15522,1,0
376,144,15647,1,0
296,112,15772,1,0
200,96,15897,1,0
80,88,16022,2,0,B|-8:168|8:272|144:336,2,299.999990463257
176,192,17522,5,0
192,192,17772,1,0
208,192,18022,1,0
224,192,18272,1,0
240,192,18522,1,0
256,192,18772,1,0
272,192,19022,1,0
288,192,19272,1,0
304,192,19522,1,0
320,192,19772,1,0
368,312,20022,6,0,B|488:240|488:96|360:48,2,299.999990463257
328,184,21522,1,0
328,184,21772,2,0,B|152:280|72:88,1,299.999990463257
81,108,22522,1,0
104,104,22772,1,0
128,104,23022,1,0
152,104,23272,1,0
168,104,23522,1,0
256,104,24022,6,0,B|384:40|480:96|488:240,2,299.999990463257
256,104,25522,1,0
384,176,26022,5,0
384,184,26147,1,0
384,192,26272,1,0
384,200,26397,1,0
384,208,26522,1,0
384,216,26647,1,0
384,224,26772,1,0
280,176,27022,1,0
280,184,27147,1,0
280,192,27272,1,0
280,200,27397,1,0
280,208,27522,1,0
280,216,27647,1,0
280,224,27772,1,0
112,248,28022,6,0,B|24:216|24:88|128:64|200:144,2,299.999990463257
112,248,29522,1,0
112,248,29772,2,0,B|456:248,1,299.999990463257
412,248,30522,1,0
336,128,30772,5,0
312,128,30897,1,0
288,128,31022,1,0
264,128,31147,1,0
240,128,31272,1,0
216,128,31397,1,0
192,128,31522,1,0
112,128,32022,6,0,B|40:240|112:304|208:344|264:240,2,299.999990463257
112,128,33522,1,0
216,128,34022,6,0,B|216:32,2,74.9999976158143
256,128,34522,2,0,B|256:224,2,74.9999976158143,0|0|0
304,128,35022,2,0,B|304:32,2,74.9999976158143,0|0|0
344,128,35522,2,0,B|344:224,2,74.9999976158143,0|0|0
384,128,36022,2,0,B|384:32,2,74.9999976158143,0|0|0
384,272,36522,5,0
384,272,36772,2,0,B|80:272,1,299.999990463257
56,80,37772,1,0
56,80,38022,2,0,B|360:80,1,299.999990463257
356,80,38772,1,0
356,80,39022,2,0,B|464:112|464:264|352:320,1,299.999990463257
256,192,40022,12,0,44022
96,160,44522,6,0,B|96:80,2,74.9999976158143
440,160,45272,6,0,B|440:80,2,74.9999976158143
256,192,46022,1,0
256,192,46522,12,0,47522
184,80,48022,6,0,B|344:80,1,149.999995231629
128,232,48522,2,0,B|128:312,2,74.9999976158143
184,232,49022,2,0,B|184:312,2,74.9999976158143
240,232,49522,2,0,B|240:312,2,74.9999976158143
296,232,50022,2,0,B|296:312,2,74.9999976158143
352,232,50522,2,0,B|352:312,2,74.9999976158143
416,232,51022,2,0,B|416:312,2,74.9999976158143
416,152,51522,2,0,B|416:72,2,74.9999976158143
352,152,52022,2,0,B|352:72,2,74.9999976158143
288,152,52522,2,0,B|288:72,2,74.9999976158143
216,152,53022,2,0,B|216:72,2,74.9999976158143
144,152,53522,2,0,B|144:72,2,74.9999976158143
144,232,54022,2,0,B|144:312,2,74.9999976158143
208,232,54522,2,0,B|208:312,2,74.9999976158143
280,232,55022,2,0,B|280:312,2,74.9999976158143
344,232,55522,2,0,B|344:312,2,74.9999976158143
424,232,56022,6,0,B|424:80,1,149.999995231629
424,82,56522,1,0
104,80,57022,2,0,B|24:80,2,74.9999976158143
104,136,57522,2,0,B|24:136,2,74.9999976158143
104,192,58022,2,0,B|24:192,2,74.9999976158143
104,248,58522,2,0,B|24:248,2,74.9999976158143
104,304,59022,2,0,B|24:304,2,74.9999976158143
280,80,59522,2,0,B|200:80,2,74.9999976158143
280,136,60022,2,0,B|200:136,2,74.9999976158143
280,192,60522,2,0,B|200:192,2,74.9999976158143
280,248,61022,2,0,B|200:248,2,74.9999976158143
280,304,61522,2,0,B|200:304,2,74.9999976158143
456,80,62022,2,0,B|376:80,2,74.9999976158143
456,136,62522,2,0,B|376:136,2,74.9999976158143
456,192,63022,2,0,B|376:192,2,74.9999976158143
456,248,63522,2,0,B|376:248,2,74.9999976158143
456,304,64022,2,0,B|376:304,2,74.9999976158143
392,192,64522,5,0
392,192,64772,2,0,B|88:192,1,299.999990463257
92,192,65522,1,0
88,72,66022,2,0,B|168:72,1,74.9999976158143
248,72,66522,1,0
248,72,67022,1,0
163,72,67522,2,0,B|88:72,1,74.9999976158143
64,120,68022,6,0,B|64:272,1,149.999995231629
64,270,68522,2,0,B|144:144|224:144|312:336|416:336|488:248|488:176|392:88,1,599.999980926514
395,91,70022,1,0
304,144,70522,5,0
304,192,70772,1,0
304,248,71022,1,0
200,192,71522,2,0,B|112:192,1,74.9999976158143
160,80,72022,6,0,B|64:104|80:192,1,149.999995231629
79,186,72522,2,0,B|104:336|224:336|256:64|408:56|496:232|480:320|352:328,1,599.999980926514
464,56,74022,2,0,B|464:136,1,74.9999976158143
368,56,74522,1,0
368,128,75022,1,0
464,131,75522,2,0,B|464:56,1,74.9999976158143
256,192,76022,12,0,77522
128,104,78022,6,0,B|64:168,1,74.9999976158143
74,157,78522,1,0
74,157,79022,1,0
74,157,79522,2,0,B|128:104,1,74.9999976158143
256,152,80022,5,0
256,232,80272,1,0
256,152,80522,1,0
360,152,81022,1,0
360,232,81272,1,0
360,152,81522,1,0
256,200,82022,1,0
56,184,82522,6,0,B|112:336|216:336|208:32|208:32|336:32|464:32|464:32|464:320,1,899.999971389771
264,224,84272,1,0
296,168,84522,1,0
392,168,85022,1,0
424,224,85272,1,0
456,168,85522,1,0
368,88,86022,5,0
360,88,86147,1,0
352,88,86272,1,0
344,88,86397,1,0
336,88,86522,1,0
328,88,86647,1,0
320,88,86772,1,0
312,88,86897,1,0
304,88,87022,1,0
296,88,87147,1,0
288,88,87272,1,0
280,88,87397,1,0
272,88,87522,1,0
264,88,87647,1,0
256,88,87772,1,0
248,88,87897,1,0
240,88,88022,2,0,B|168:0|48:40|40:160|72:208,2,299.999990463257
256,184,89522,5,0
128,256,90022,1,0
168,328,90272,1,0
208,256,90522,1,0
256,328,90772,1,0
296,256,91022,1,0
344,328,91272,1,0
384,256,91522,1,0
408,88,92022,2,0,B|96:88,3,299.999990463257
128,256,94022,5,0
168,328,94272,1,0
208,256,94522,1,0
256,328,94772,1,0
296,256,95022,1,0
344,328,95272,1,0
384,256,95522,1,0
48,56,96022,6,0,B|48:352|216:352|216:176|216:176|216:48|360:48|360:176|360:176|360:344|488:280,1,899.999971389771
128,256,98022,1,0
168,328,98272,1,0
208,256,98522,1,0
256,328,98772,1,0
296,256,99022,1,0
344,328,99272,1,0
384,256,99522,1,0
384,104,100022,2,0,B|64:104,2,299.999990463257
376,192,101272,5,0
368,192,101397,1,0
360,192,101522,1,0
352,192,101647,1,0
344,192,101772,1,0
336,192,101897,1,0
328,192,102022,1,0
320,192,102147,1,0
312,192,102272,1,0
304,192,102397,1,0
296,192,102522,1,0
288,192,102647,1,0
280,192,102772,1,0
272,192,102897,1,0
264,192,103022,1,0
256,192,103147,1,0
248,192,103272,1,0
240,192,103397,1,0
232,192,103522,1,0
224,192,103647,1,0
216,192,103772,1,0
208,192,103897,1,0
200,192,104022,1,0
120,128,114022,6,0,B|120:288,1,149.999995231629
216,272,114522,2,0,B|216:120,1,149.999995231629
304,192,115022,1,0
416,176,115272,1,0
416,200,115397,1,0
416,224,115522,1,0
120,128,116022,6,0,B|120:288,1,149.999995231629
216,272,116522,2,0,B|216:120,1,149.999995231629
304,192,117022,1,0
416,176,117272,1,0
416,200,117397,1,0
416,224,117522,1,0
120,128,118022,6,0,B|120:288,1,149.999995231629
216,272,118522,2,0,B|216:120,1,149.999995231629
304,192,119022,1,0
416,176,119272,1,0
416,200,119397,1,0
416,224,119522,1,0
120,128,120022,6,0,B|120:288,1,149.999995231629
216,272,120522,2,0,B|216:120,1,149.999995231629
304,192,121022,1,0
416,176,121272,1,0
416,200,121397,1,0
416,224,121522,1,0
440,72,122022,5,0
432,72,122272,1,0
416,72,122522,1,0
392,72,122772,1,0
360,72,123022,1,0
320,64,123272,1,0
320,72,123397,1,0
320,80,123522,1,0
272,72,124022,5,0
216,72,124272,1,0
152,72,124522,1,0
80,72,124772,1,0
80,152,125022,1,0
72,240,125272,1,0
80,240,125397,1,0
88,240,125522,1,0
176,240,126022,5,0
280,240,126272,1,0
392,240,126522,1,0
392,120,126772,1,0
264,120,127022,1,0
128,112,127272,1,0
128,120,127397,1,0
128,128,127522,1,0
256,192,128022,12,0,129522
72,128,130022,5,0
120,272,130272,1,0
168,128,130522,1,0
216,272,130772,1,0
264,128,131022,1,0
312,272,131272,1,0
312,272,131397,1,0
312,272,131522,1,0
256,192,132022,12,0,133522
256,80,134022,5,0
320,304,134272,1,0
144,176,134522,1,0
376,176,134772,1,0
192,304,135022,1,0
256,80,135272,1,0
256,80,135397,1,0
256,80,135522,1,0
256,192,144022,12,0,144522
96,136,145022,5,0
96,160,145147,1,0
96,184,145272,1,0
96,208,145397,1,0
96,232,145522,1,0
256,127,146022,5,0
291,255,146272,1,0
191,182,146522,1,0
324,182,146772,1,0
219,255,147022,1,0
256,127,147272,1,0
256,127,147397,1,0
256,127,147522,1,0
256,111,148022,5,0
300,271,148272,1,0
175,179,148522,1,0
341,179,148772,1,0
210,271,149022,1,0
256,111,149272,1,0
256,111,149397,1,0
256,111,149522,1,0
256,91,150022,5,0
311,291,150272,1,0
155,176,150522,1,0
362,176,150772,1,0
198,291,151022,1,0
256,91,151272,1,0
256,91,151397,1,0
256,91,151522,1,0
256,66,152022,5,0
327,316,152272,1,0
130,173,152522,1,0
390,173,152772,1,0
183,316,153022,1,0
256,66,153272,1,0
256,66,153397,1,0
256,66,153522,1,0
256,35,154022,5,0
345,348,154272,1,0
99,169,154522,1,0
423,169,154772,1,0
166,348,155022,1,0
256,35,155272,1,0
256,35,155397,1,0
256,35,155522,1,0
256,0,156022,5,0
365,383,156272,1,0
64,164,156522,1,0
461,164,156772,1,0
148,378,157022,2,0,B|256:201,2,149.999995231629
256,192,158022,12,0,159522
256,192,160022,12,0,161522
256,192,162022,12,0,163522
256,192,164022,12,0,165522
256,192,166022,12,0,167522
256,192,168022,12,0,169522
256,192,170022,12,0,171522
104,192,172022,5,0
256,192,173022,1,0
408,192,174022,1,0
400,192,174147,1,0
392,192,174272,1,0
384,192,174397,1,0
376,192,174522,1,0
368,192,174647,1,0
360,192,174772,1,0
352,192,174897,1,0
344,192,175022,1,0
336,192,175147,1,0
328,192,175272,1,0
320,192,175397,1,0
312,192,175522,1,0
304,192,175647,1,0
296,192,175772,1,0
288,192,175897,1,0
280,192,176022,2,0,B|136:192|24:208|24:320|72:352|160:344|224:344|288:328|416:328,1,599.999980926514
