osu file format v9

[General]
AudioFilename: RadioFreeZerg_MixVer.mp3
AudioLeadIn: 0
PreviewTime: 0
Countdown: 1
SampleSet: Normal
StackLeniency: 0.3
Mode: 0
LetterboxInBreaks: 1

[Editor]
DistanceSpacing: 0.8
BeatDivisor: 4
GridSize: 8

[Metadata]
Title:Radio Free Zerg
Artist:Blizzard Entertainment
Creator:[CSGA]Ar3sgice
Version:Carrier Interceptor MIX
Source:StarCraft
Tags:zerg,starcraft,protoss,terran,hydralisk,diffs,demo,demonstration,omg,neta,ar3,ac3,evil,danmaku,game,sc,wtf,script,javascript,stars,asd,qwerty

[Difficulty]
HPDrainRate:3
CircleSize:4
OverallDifficulty:6
ApproachRate:7
SliderMultiplier:1.49999990463257
SliderTickRate:1

[Events]
//Background and Video events
0,0,"xterran2b.PNG"
//Break Periods
//Storyboard Layer 0 (Background)
//Storyboard Layer 1 (Fail)
//Storyboard Layer 2 (Pass)
//Storyboard Layer 3 (Foreground)
Sprite,Foreground,Centre,"MDI.PNG",320,240 S,0,22,,0.8240002 F,0,22,522,1 S,0,22,522,0.8240002,0.688 F,0,522,273908,1 F,0,273908,274408,1,0
//Storyboard Sound Samples
//Background Colour Transformations
3,100,163,162,255

[TimingPoints]
22,500,4,1,0,100,1,0
5500,342.857142857143,4,1,0,100,1,0
6522,500,4,1,0,100,1,0
8414,405.405405405405,4,1,0,100,1,0
11522,500,4,1,0,100,1,0
16522,-50,4,1,0,100,0,0
17522,-25,4,1,0,100,0,0
21772,-100,4,1,0,100,0,0
29147,276.640478034746,4,1,0,100,1,0
32044,500,4,1,0,100,1,0
33646,400,4,1,0,100,1,0
44169,500,4,1,0,100,1,0
48133,461.538461538462,4,1,0,100,1,0
51488,500,4,1,0,100,1,0
59444,500,4,1,0,100,1,0
62238,400,4,1,0,100,1,0
63738,500,4,1,0,100,1,0
71238,136.338847482276,4,1,0,100,1,0
94756,500,4,1,0,100,1,0
97522,500,4,1,0,100,1,0
110922,315.789473684211,4,1,0,100,1,0
126395,454.545454545455,4,1,0,100,1,0
140860,500,4,1,0,100,1,0
143388,342.857142857143,4,1,0,100,1,0
145959,500,4,1,0,100,1,0
148755,333.333333333333,4,1,0,100,1,0
148755,-80,4,1,0,100,0,0
154133,500,4,1,0,100,1,0
154847,300,4,1,0,100,1,0
160733,500,4,1,0,100,1,0
171983,333.333333333333,4,1,0,100,1,0
176983,500,4,1,0,100,1,0
183488,375,4,1,0,100,1,0
187858,500,4,1,0,100,1,0
205358,200,4,1,0,100,1,0
206858,500,4,1,0,100,1,0
213122,500,4,1,0,100,1,0
222144,500,4,1,0,100,1,0
232355,500,4,1,0,100,1,0
236230,357.142857142857,4,1,0,100,1,0
239176,357.142857142857,4,1,0,100,1,0
248908,500,4,1,0,100,1,0
250908,279.06976744186,4,1,0,100,1,0
253908,500,4,1,0,100,1,0
258908,454.545454545455,4,1,0,100,1,0
262908,500,4,1,0,100,1,0

[Colours]
Combo1 : 0,127,255
Combo2 : 11,251,251
Combo3 : 243,183,51
Combo4 : 211,75,107
Combo5 : 119,191,99
Combo6 : 7,115,235
Combo7 : 143,207,235
Combo8 : 247,127,247

[HitObjects]
88,64,1522,1,4
256,104,2897,5,4
360,176,4647,5,0
152,224,5500,5,2
152,224,5671,1,2
152,224,5842,1,2
152,224,6014,1,2
152,224,6185,1,2
408,80,6897,5,0
304,256,7772,1,0
104,152,8414,6,8,B|32:152|40:208|112:232|104:144,1,149.999990463257
344,160,10035,2,8,B|416:160|408:216|336:240|344:152,1,149.999990463257,0|0
264,144,10643,1,6
192,232,10846,1,4
120,168,11049,1,6
120,168,11251,1,6
304,112,12522,6,0,B|136:96,1,149.999990463257
72,200,13522,2,0,B|136:336,1,149.999990463257
232,256,14522,2,0,B|400:248,1,149.999990463257
256,192,16022,5,2
256,192,16084,1,2
256,192,16147,1,2
200,80,16522,2,4,B|80:72|80:344|248:288,1,299.999980926514
360,192,17522,2,4,B|512:192,2,149.999990463257
152,192,18272,2,4,B|0:192,2,149.999990463257
256,104,18772,1,14
360,24,19272,5,0
256,192,20022,1,0
192,128,20522,1,0
320,128,21022,1,0
320,256,21522,1,0
232,184,21772,2,0,B|232:240,2,37.4999976158143
96,184,22272,2,0,B|96:240,2,37.4999976158143
392,184,22772,2,0,B|392:240,2,37.4999976158143
256,272,23272,1,0
256,248,23334,1,0
256,224,23397,1,0
256,200,23459,1,0
256,176,23522,1,0
256,152,23584,1,0
256,128,23647,1,0
256,104,23709,1,0
256,80,23772,2,0,B|256:136,2,37.4999976158143
200,184,24272,2,0,B|200:240,2,37.4999976158143
336,184,24772,5,0
205,254,25272,5,0
247,112,25772,5,12
247,112,25897,1,0
112,192,26272,6,0,B|72:192,2,37.4999976158143
448,40,27272,5,8
448,128,27522,1,8
360,128,28522,5,0
232,64,29147,5,4
88,64,29561,2,0,B|168:64,1,74.9999952316285
88,176,29976,1,8
88,248,30115,1,0
104,280,30184,1,8
72,280,30253,1,0
256,192,30806,12,0,31360
200,216,32044,5,0
256,88,32544,1,0
320,216,33044,1,0
40,328,33646,5,0
40,264,34046,1,2
40,200,34446,1,8
40,136,34846,1,10
40,72,35246,1,4
104,72,35646,1,6
168,72,36046,1,12
232,72,36446,1,14
256,192,36846,12,0,38846
288,72,39346,5,4
352,72,39746,1,0
416,72,40146,1,6
480,72,40546,1,2
480,136,40946,1,12
480,200,41346,1,8
480,264,41746,1,14
480,328,42146,1,10
416,328,42546,1,8
352,328,42946,1,8
288,328,43346,1,8
224,328,43746,1,8
256,192,44169,5,0
184,192,44669,1,0
360,104,45169,2,0,B|384:80,3,18.7499988079071
360,192,45669,1,0
184,104,46169,2,0,B|104:104,1,74.9999952316285
248,104,46669,1,12
184,200,47169,2,0,B|104:200,1,74.9999952316285
248,200,47669,1,12
416,56,48133,5,0
416,88,48363,2,0,B|416:176,1,74.9999952316285
416,200,48825,1,0
416,240,49056,1,0
256,136,49517,5,8
304,176,49748,1,8
280,232,49979,1,8
232,232,50209,1,8
208,176,50440,1,8
256,136,50671,1,8
256,96,50902,2,0,B|256:16,1,74.9999952316285
256,96,51363,1,6
416,120,52488,5,0
80,192,53738,5,0
160,192,54238,1,0
232,192,54738,2,8,B|256:192,3,18.7499988079071
312,192,55238,1,0
360,24,55738,5,0
392,336,56238,1,0
392,336,56488,1,0
256,192,56988,1,0
120,192,57738,1,0
232,88,58238,1,0
400,168,58738,2,8,B|416:184|416:184|432:160|432:160|408:144|408:144,1,74.9999952316285
112,168,59694,5,0
328,312,60194,1,0
256,72,60694,1,0
184,312,61194,1,0
256,72,62238,6,12,B|248:160,1,74.9999952316285
249,146,62638,2,12,B|328:152,1,74.9999952316285
324,151,63038,2,12,B|312:224,1,74.9999952316285
311,225,63438,2,12,B|384:240,1,74.9999952316285
72,184,64238,5,0
72,184,64363,1,0
72,184,64488,1,0
224,264,64988,1,8
224,264,65113,1,8
224,264,65238,1,8
304,72,65738,5,0
408,272,66238,6,0,B|248:272,2,149.999990463257
112,152,68238,1,4
112,152,69238,1,4
176,152,69738,1,4
240,152,70238,1,12
304,152,70738,1,12
368,152,71238,6,0,B|368:304,1,149.999990463257
368,302,71647,2,0,B|208:304,1,149.999990463257
168,288,71919,1,0
136,248,72056,1,0
120,200,72192,1,0
112,144,72328,1,0
200,56,72874,5,0
216,104,72942,2,0,B|256:40,1,74.9999952316285
232,144,73078,2,0,B|272:80,1,74.9999952316285
248,184,73214,2,0,B|288:120,1,74.9999952316285
264,224,73350,2,0,B|304:160,1,74.9999952316285
280,264,73487,2,0,B|320:200,1,74.9999952316285
296,304,73623,2,0,B|336:240,1,74.9999952316285
336,304,73760,2,0,B|376:240,1,74.9999952316285
384,304,73896,2,0,B|424:240,1,74.9999952316285
424,304,74032,2,0,B|384:240,1,74.9999952316285
384,288,74169,2,0,B|344:224,1,74.9999952316285
336,272,74305,2,0,B|296:208,1,74.9999952316285
280,256,74441,2,0,B|240:192,1,74.9999952316285
224,240,74578,2,0,B|184:176,1,74.9999952316285
168,224,74714,2,0,B|128:160,1,74.9999952316285
112,208,74850,2,0,B|72:144,1,74.9999952316285
56,176,74987,2,0,B|96:112,1,74.9999952316285
112,144,75123,2,0,B|152:80,1,74.9999952316285
168,120,75259,2,2,B|208:56,2,74.9999952316285
216,104,75464,6,0,B|256:40,1,74.9999952316285
232,144,75600,2,0,B|272:80,1,74.9999952316285
248,184,75736,2,0,B|288:120,1,74.9999952316285
264,224,75872,2,0,B|304:160,1,74.9999952316285
280,264,76009,2,0,B|320:200,1,74.9999952316285
296,304,76145,2,0,B|336:240,1,74.9999952316285
336,304,76282,2,0,B|376:240,1,74.9999952316285
384,304,76418,2,0,B|424:240,1,74.9999952316285
424,304,76554,2,0,B|384:240,1,74.9999952316285
384,288,76691,2,0,B|344:224,1,74.9999952316285
336,272,76827,2,0,B|296:208,1,74.9999952316285
280,256,76963,2,0,B|240:192,1,74.9999952316285
224,240,77100,2,0,B|184:176,1,74.9999952316285
168,224,77236,2,0,B|128:160,1,74.9999952316285
112,208,77372,2,0,B|72:144,1,74.9999952316285
56,176,77509,2,2,B|96:112,1,74.9999952316285
112,144,77645,2,0,B|152:80,1,74.9999952316285
168,120,77781,2,2,B|208:56,2,74.9999952316285
224,144,77986,2,0,B|296:184,3,74.9999952316285
216,88,78259,2,0,B|286:45,3,74.9999952316285
272,112,78532,2,0,B|344:152,3,74.9999952316285
280,176,78804,2,0,B|350:133,3,74.9999952316285
328,136,79077,2,0,B|400:176,3,74.9999952316285
336,200,79349,2,0,B|406:157,3,74.9999952316285
384,168,79622,2,0,B|456:208,3,74.9999952316285
392,232,79894,2,0,B|462:189,3,74.9999952316285
336,200,80168,2,0,B|264:160,3,74.9999952316285
344,256,80440,2,2,B|273:298,3,74.9999952316285
248,256,80713,6,0,B|176:320|64:304|24:232|32:104|72:72,1,374.999976158143
96,112,81122,2,0,B|160:72,1,74.9999952316285
144,152,81258,2,0,B|208:112,1,74.9999952316285
192,192,81395,2,0,B|256:152,1,74.9999952316285
240,232,81531,2,0,B|304:192,1,74.9999952316285
288,272,81667,2,0,B|352:232,1,74.9999952316285
376,312,81804,2,8,B|344:224,1,74.9999952316285
432,248,81940,2,8,B|336:232,1,74.9999952316285
416,176,82076,2,0,B|352:232,1,74.9999952316285
376,136,82213,2,0,B|312:192,1,74.9999952316285
328,96,82349,2,0,B|264:152,1,74.9999952316285
280,56,82485,2,0,B|216:112,1,74.9999952316285
216,56,82622,2,0,B|152:112,1,74.9999952316285
152,56,82758,6,4,B|88:112,1,74.9999952316285,0|0
256,192,82963,12,0,84053
176,104,84258,6,8,B|96:56,2,74.9999952316285
216,104,84462,6,0,B|256:40,1,74.9999952316285
232,144,84598,2,0,B|272:80,1,74.9999952316285
248,184,84734,2,0,B|288:120,1,74.9999952316285
264,224,84870,2,0,B|304:160,1,74.9999952316285
280,264,85007,2,0,B|320:200,1,74.9999952316285
296,304,85143,2,0,B|336:240,1,74.9999952316285
336,304,85280,2,0,B|376:240,1,74.9999952316285
384,304,85416,2,0,B|424:240,1,74.9999952316285
424,304,85552,2,0,B|384:240,1,74.9999952316285
384,288,85689,2,0,B|344:224,1,74.9999952316285
336,272,85825,2,0,B|296:208,1,74.9999952316285
280,256,85961,2,0,B|240:192,1,74.9999952316285
224,240,86098,2,0,B|184:176,1,74.9999952316285
168,224,86234,2,0,B|128:160,1,74.9999952316285
112,208,86370,2,0,B|72:144,1,74.9999952316285
56,176,86507,2,2,B|96:112,1,74.9999952316285
112,144,86643,2,0,B|152:80,1,74.9999952316285
168,120,86780,2,2,B|208:56,2,74.9999952316285
216,104,86985,6,0,B|256:40,1,74.9999952316285
232,144,87121,2,0,B|272:80,1,74.9999952316285
248,184,87257,2,0,B|288:120,1,74.9999952316285
264,224,87393,2,0,B|304:160,1,74.9999952316285
280,264,87530,2,0,B|320:200,1,74.9999952316285
296,304,87666,2,0,B|336:240,1,74.9999952316285
336,304,87803,2,0,B|376:240,1,74.9999952316285
384,304,87939,2,0,B|424:240,1,74.9999952316285
424,304,88075,2,2,B|384:240,1,74.9999952316285
384,288,88212,2,0,B|344:224,1,74.9999952316285
336,272,88348,2,0,B|296:208,1,74.9999952316285
280,256,88484,2,0,B|240:192,1,74.9999952316285
224,240,88621,2,0,B|184:176,1,74.9999952316285
168,224,88757,2,0,B|128:160,1,74.9999952316285
112,208,88893,2,0,B|72:144,1,74.9999952316285
56,176,89030,2,0,B|96:112,1,74.9999952316285
112,144,89166,2,0,B|152:80,1,74.9999952316285
168,120,89302,2,8,B|208:56,2,74.9999952316285
224,144,89507,2,0,B|296:184,3,74.9999952316285
216,88,89780,2,0,B|286:45,3,74.9999952316285
272,112,90053,2,0,B|344:152,3,74.9999952316285
280,176,90325,2,0,B|350:133,3,74.9999952316285
328,136,90598,2,0,B|400:176,3,74.9999952316285
336,200,90870,2,0,B|406:157,3,74.9999952316285
384,168,91143,2,8,B|456:208,3,74.9999952316285
392,232,91415,2,8,B|462:189,3,74.9999952316285
336,200,91689,2,8,B|264:160,3,74.9999952316285
344,256,91961,2,8,B|273:298,3,74.9999952316285
248,256,92234,6,0,B|176:320|64:304|24:232|32:104|72:72,1,374.999976158143
96,112,92643,2,0,B|160:72,1,74.9999952316285
144,152,92779,2,0,B|208:112,1,74.9999952316285
192,192,92916,2,0,B|256:152,1,74.9999952316285
240,232,93052,2,0,B|304:192,1,74.9999952316285
288,272,93188,2,0,B|352:232,1,74.9999952316285
376,312,93325,2,0,B|344:224,1,74.9999952316285
432,248,93461,2,0,B|336:232,1,74.9999952316285
416,176,93597,2,0,B|352:232,1,74.9999952316285
376,136,93734,2,0,B|312:192,1,74.9999952316285
328,96,93870,2,8,B|264:152,1,74.9999952316285
280,56,94006,2,8,B|216:112,1,74.9999952316285
216,56,94143,2,8,B|152:112,1,74.9999952316285
152,56,94279,6,8,B|88:112,1,74.9999952316285,0|0
168,192,94756,5,12
272,192,95256,1,12
376,192,95756,1,12
480,192,96256,1,12
216,112,97522,5,0
336,128,98022,1,0
256,216,98522,1,0
232,232,98647,1,0
208,248,98772,1,0
160,280,99022,1,0
144,160,99522,1,0
248,112,100022,1,0
336,192,100522,1,0
360,208,100647,1,0
376,232,100772,1,0
416,280,101022,1,0
296,280,101522,1,0
176,288,102022,1,0
96,200,102522,1,0
104,168,102647,1,0
120,144,102772,1,0
168,104,103022,1,0
168,120,105522,5,0
232,120,106022,1,0
232,120,106147,1,0
232,120,106272,1,0
296,120,106522,1,0
232,224,107022,2,0,B|312:224,1,74.9999952316285
352,120,107522,2,0,B|400:120,2,37.4999976158143
304,160,108022,1,0
256,200,108522,1,0
208,240,109022,1,0
160,280,109522,1,0
160,224,110022,1,0
160,160,110522,1,0
256,280,110922,5,0
256,160,111237,1,8
216,104,111395,1,0
272,64,111553,1,0
312,120,111711,1,0
256,160,111869,1,8
200,200,112027,1,8
240,256,112185,1,8
296,216,112343,1,8
256,192,112816,12,8,115027
152,232,115185,5,0
104,280,115343,1,0
152,328,115500,1,0
200,280,115658,1,0
304,216,115974,1,2
408,160,116290,1,2
456,48,116606,1,2
280,48,116922,1,0
224,96,117079,1,0
272,152,117237,1,0
328,104,117395,1,0
136,192,117711,5,4
376,192,117869,5,12
256,192,118185,12,0,120079
280,304,120395,5,0
280,136,120711,1,8
224,104,120869,1,8
256,48,121027,1,8
312,80,121185,1,8
320,256,121500,1,0
368,112,121816,1,0
336,168,122132,2,0,B|336:256,1,74.9999952316285
176,192,122895,5,0
112,192,123395,1,0
48,192,123895,1,0
16,256,124395,2,8,B|488:256,1,449.999971389771
80,184,126395,5,0
80,264,126622,2,0,B|80:168,1,74.9999952316285
80,264,127076,1,0
160,184,127304,1,0
160,264,127531,2,0,B|160:168,1,74.9999952316285
160,264,127985,1,0
240,184,128213,1,0
240,264,128440,2,0,B|240:168,1,74.9999952316285
240,264,128894,1,0
240,112,129122,1,2
240,112,129235,1,2
240,112,129349,1,2
336,112,129576,2,0,B|336:192,2,74.9999952316285
336,112,130258,2,0,B|496:112,1,149.999990463257
486,112,130940,2,0,B|384:224,1,149.999990463257
352,216,131622,1,8
392,256,131849,1,8
72,184,132417,5,0
200,80,133213,5,0
200,144,133667,2,0,B|200:304,2,149.999990463257
304,80,135031,1,4
304,200,135485,1,0
264,240,135713,1,0
216,208,135940,1,0
112,152,136395,1,8
112,152,136508,1,8
112,152,136622,1,8
112,208,136849,1,0
112,208,136963,1,0
112,208,137076,1,0
112,272,137304,1,2
168,272,137531,2,0,B|408:272,3,224.999985694886
144,104,140860,5,0
168,216,141360,1,2
248,128,141860,1,2
312,232,142360,1,2
392,144,142860,1,0
88,96,143388,6,0,B|248:96,1,149.999990463257
256,96,143902,2,0,B|408:96,1,149.999990463257
96,192,144759,6,0,B|256:192,1,149.999990463257
264,192,145273,2,0,B|416:192,1,149.999990463257
416,72,145959,6,8,B|416:112,3,37.4999976158143
352,72,146459,1,0
216,72,146959,2,0,B|112:184|112:184|224:280|224:280|336:168|336:168,1,449.999971389771
312,160,148755,6,0,B|320:64|488:72,2,187.499985285104
392,167,149588,1,0
248,224,149755,2,0,B|248:320|112:320,1,187.499985285104
240,160,150255,2,0,B|208:64|80:80,1,187.499985285104
172,195,150755,1,2
251,225,150921,2,0,B|275:321|395:321,1,187.499985285104
315,194,151421,1,2
232,160,151588,2,0,B|240:64|384:72,1,187.499985285104
376,144,152088,1,0
376,224,152255,2,0,B|360:304|288:264,2,93.7499926425519
304,184,152755,1,12
152,192,154133,5,0
424,72,154847,5,0
380,113,154997,1,0
336,154,155147,1,0
288,190,155297,1,0
238,224,155447,2,0,B|180:277|67:247,1,149.999990463257
96,253,155897,1,0
96,253,156047,2,0,B|89:161|163:122,1,149.999990463257
209,95,156497,1,8
265,76,156647,2,8,B|343:78|358:187,1,149.999990463257
356,177,157097,2,8,B|359:226|305:223,1,74.9999952316285
251,233,157397,2,0,B|186:238|172:195,2,74.9999952316285
401,132,158147,2,0,B|386:56|331:123,2,74.9999952316285
297,193,158747,2,0,B|181:232|165:157,1,149.999990463257
117,130,159197,1,8
170,102,159347,1,8
166,161,159497,1,8
117,130,159647,1,8
256,192,159983,12,0,160283
352,80,160733,5,0
264,184,161233,1,0
400,208,161733,1,0
96,64,162233,1,0
96,176,162733,1,0
168,224,162983,2,0,B|144:240|144:272|168:288|168:288|184:272|184:232|168:216,1,149.999990463257
376,72,164233,5,12
368,272,164733,1,12
136,136,165233,1,0
128,320,165733,1,0
256,192,166233,12,0,166733
256,192,167233,12,0,167733
48,192,168233,5,0
69,171,168358,1,0
92,152,168483,1,0
119,140,168608,1,0
148,138,168733,1,0
173,152,168858,1,0
190,176,168983,1,0
208,199,169108,1,0
229,220,169233,1,0
248,242,169358,1,0
274,255,169483,1,0
303,250,169608,1,0
324,229,169733,1,0
341,204,169858,1,0
355,177,169983,1,0
358,147,170108,1,0
352,117,170233,1,0
336,91,170358,1,0
309,77,170483,1,0
279,79,170608,1,0
252,92,170733,1,0
229,111,170858,1,0
209,133,170983,1,0
194,159,171108,1,0
180,185,171233,1,0
178,214,171358,1,0
191,240,171483,1,0
214,258,171608,1,0
239,274,171733,1,0
267,282,171858,1,0
296,285,171983,5,0
296,285,172149,1,8
293,214,172316,1,0
292,214,172483,1,8
272,152,172649,1,0
272,152,172816,1,0
238,101,172983,1,8
238,101,173149,1,0
177,101,173316,1,8
57,102,173649,1,0
51,223,173983,1,0
172,220,174316,1,0
291,223,174649,1,0
291,223,174816,1,8
351,224,174983,1,0
351,224,175149,1,8
352,163,175316,1,0
352,163,175483,1,8
292,167,175649,1,0
292,167,175816,1,8
231,165,175983,1,0
111,163,176316,1,0
103,282,176649,1,0
183,278,176983,5,0
212,275,177108,1,0
241,272,177233,1,0
269,264,177358,1,0
296,250,177483,1,0
319,231,177608,1,0
339,208,177733,1,0
350,180,177858,1,0
356,150,177983,1,0
353,120,178108,1,0
336,95,178233,1,0
312,76,178358,1,0
285,62,178483,1,0
255,64,178608,1,0
229,79,178733,1,0
207,99,178858,1,0
193,125,178983,1,0
189,154,179108,1,0
189,184,179233,1,0
198,212,179358,1,4
214,237,179483,1,4
256,192,180733,12,0,181733
258,192,182483,5,0
84,78,183488,6,0,B|84:157|84:158,1,74.9999952316285
123,107,183863,2,0,B|126:189,1,74.9999952316285
168,223,184238,2,0,B|165:139,1,74.9999952316285
211,187,184613,2,8,B|216:339,1,149.999990463257
332,309,185363,1,0
332,307,185550,1,0
331,308,185738,1,0
379,272,185925,2,0,B|310:214|310:214,1,74.9999952316285
278,182,186300,2,0,B|204:229,1,74.9999952316285
159,247,186675,2,0,B|164:168,1,74.9999952316285
260,100,187238,1,10
344,184,187613,1,10
177,180,188358,5,0
287,133,188858,5,0
340,160,189108,1,0
344,184,189233,1,0
338,213,189358,1,0
218,214,189858,5,0
338,214,190358,1,0
218,214,190858,1,0
217,154,191108,1,8
233,128,191233,1,8
246,154,191358,1,8
365,139,191858,2,0,B|371:172,12,18.7499988079071
253,184,193108,1,8
237,209,193233,1,8
266,206,193358,1,8
385,210,193858,5,0
340,250,194108,1,0
301,204,194358,1,0
345,163,194608,1,0
390,123,194858,1,0
356,73,195108,1,0
328,60,195233,1,0
354,45,195358,1,0
256,192,195858,12,0,196108
256,192,197108,12,8,197358
99,144,197858,6,0,B|94:236,1,74.9999952316285
388,155,199358,2,8,B|385:246,1,74.9999952316285
160,144,199858,2,0,B|160:224,1,74.9999952316285
336,152,201358,1,8
192,152,201858,2,0,B|192:232,1,74.9999952316285
256,192,203358,12,8,203608
304,104,204608,6,0,B|192:216,1,149.999990463257
197,210,205358,5,2
197,210,205558,1,2
197,210,205658,1,2
197,210,205758,1,2
197,210,205858,1,2
197,210,206158,1,2
197,210,206358,1,2
197,210,206458,1,2
197,210,206558,1,2
197,210,206658,1,2
256,152,208358,5,0
256,232,208858,1,0
315,228,209108,1,0
328,254,209233,1,0
344,228,209358,1,0
353,168,209608,1,0
369,142,209733,1,0
372,82,209983,1,0
342,86,210108,1,0
359,61,210233,1,0
329,68,210358,1,0
210,87,210858,1,0
256,192,211108,12,0,211858
252,184,213122,5,0
256,192,214122,12,0,214372
256,192,216122,12,0,216372
256,192,218122,12,0,218372
256,192,219872,12,0,220122
127,191,222144,5,0
237,144,222644,1,0
356,129,223144,1,0
331,145,223269,1,0
337,174,223394,1,0
367,174,223519,1,0
381,147,223644,1,0
261,160,224144,5,0
102,245,224894,1,2
155,216,225144,1,2
155,276,225394,1,2
252,152,226019,1,0
308,214,226519,1,0
368,156,226894,1,0
335,105,227144,1,0
315,82,227269,1,0
286,74,227394,1,0
257,66,227519,1,0
227,68,227644,2,2,B|136:82,2,74.9999952316285
240,187,228519,2,8,B|144:209,2,74.9999952316285
256,192,230144,12,0,231644
134,111,232355,5,0
189,133,232605,1,0
216,144,232730,1,0
194,165,232855,1,0
138,271,233355,6,4,B|151:228|180:328|201:243,1,74.9999952316285
368,219,234355,2,4,B|388:244|388:244|399:217|399:217|370:219,1,74.9999952316285
209,180,235355,1,0
328,178,235855,1,0
101,296,236230,6,0,B|88:219,1,74.9999952316285
79,159,236587,2,0,B|135:99,1,74.9999952316285
187,122,236944,2,8,B|208:200,3,74.9999952316285
266,194,237658,1,0
295,194,237747,1,0
295,194,237837,1,0
345,119,238105,2,0,B|419:179|419:179|339:236|339:236|404:282,1,262.4999833107
248,247,239176,5,0
189,235,239354,1,0
137,204,239533,1,0
96,159,239711,1,0
102,218,239890,1,8
133,268,240068,1,8
178,307,240247,1,8
231,334,240426,1,8
290,326,240604,2,0,B|293:239|373:214|373:214|293:199|292:104,1,299.999980926514
84,137,241943,5,2
113,132,242033,1,2
142,128,242122,1,2
201,119,242301,1,0
260,111,242479,1,0
328,96,242658,1,0
406,78,242881,1,0
404,137,243104,1,8
404,197,243283,1,2
401,256,243461,1,2
344,280,243640,1,0
286,272,243818,1,0
227,286,243997,1,0
169,269,244176,1,0
113,291,244354,2,8,B|111:63,1,224.999985694886
111,66,244979,5,0
171,63,245158,1,0
206,111,245336,1,0
235,163,245515,1,0
283,127,245693,1,0
329,89,245872,2,2,B|343:166,1,74.9999952316285
404,161,246229,2,8,B|428:78,1,74.9999952316285
478,115,246586,1,0
460,172,246765,1,0
402,155,246943,1,0
421,97,247122,1,0
478,115,247301,2,4,B|484:309,1,187.499988079071
220,212,248908,6,0,B|159:198,2,37.4999976158143
228,165,249283,1,0
228,165,249408,1,0
234,122,249533,2,0,B|237:77,3,37.4999976158143
368,321,250908,6,0,B|404:291|375:239,1,74.9999952316285
324,244,251187,2,0,B|308:184|361:160,1,74.9999952316285
170,155,251605,5,8
93,116,251745,1,8
144,321,252024,6,0,B|108:291|137:239,1,74.9999952316285
188,244,252303,2,0,B|204:184|151:160,1,74.9999952316285
342,155,252721,5,8
419,116,252861,1,8
165,164,253908,5,0
264,214,254158,1,4
309,196,254283,1,4
306,243,254408,1,4
397,87,254908,6,0,B|454:80,1,37.4999976158143
398,213,255408,2,8,B|400:257,1,37.4999976158143
287,175,255908,2,0,B|235:179,1,37.4999976158143
191,300,256408,2,8,B|207:253,1,37.4999976158143
147,141,256908,2,0,B|145:206,1,37.4999976158143
261,108,257408,2,8,B|229:156,1,37.4999976158143
362,197,257908,2,0,B|390:164,1,37.4999976158143
391,33,258408,2,8,B|367:77,1,37.4999976158143
275,85,258908,6,0,B|211:98,3,37.4999976158143
213,110,259362,2,0,B|183:140,3,37.4999976158143
172,163,259817,2,0,B|166:202,3,37.4999976158143
170,229,260271,2,0,B|184:267,3,37.4999976158143
204,285,260726,2,0,B|244:313,3,37.4999976158143
264,310,261180,2,0,B|310:313,3,37.4999976158143
330,304,261635,2,0,B|366:284,3,37.4999976158143
383,264,262089,2,8,B|418:223,3,37.4999976158143
301,190,262908,5,0
61,192,263908,1,8
269,72,264908,1,0
243,88,265033,1,2
266,107,265158,1,2
269,72,265283,1,2
243,88,265408,1,0
266,107,265533,1,0
269,72,265658,1,0
243,88,265783,1,0
266,107,265908,1,0
269,72,266033,1,2
243,88,266158,1,0
266,107,266283,1,0
269,72,266408,1,0
271,101,266533,1,2
243,88,266658,1,0
269,72,266783,1,0
301,62,266908,6,0,B|309:76|309:76|299:78|299:78|308:82|308:82|300:85|300:85|309:92|309:92|301:93|301:93|309:99|309:99|298:101|298:101|311:111|311:111|297:111|297:111|311:119|311:119|300:122|300:122|311:128|311:128|299:128|299:128|310:137|310:137|299:139|299:139|308:146|308:146|298:147|298:147|308:154|308:154|297:157|297:157|308:166|308:166|297:171|297:171|310:179|310:179|298:183|298:183|309:187|309:187|298:189|298:189|311:197|311:197|298:203|298:203|311:210|311:210|301:212|301:212|310:216|310:216|303:218|303:218|310:221|310:221|300:222|300:222|309:224|309:224|301:224|301:224|313:235|313:235|304:235|304:235|309:242|309:242|302:243|302:243|310:243|310:243|300:244|300:244|309:244|309:244|302:245|302:245|311:266|311:266|303:267|303:267|312:273|312:273|306:273|306:273|311:293|311:293|309:292|309:292|311:298|311:301|311:301|306:301|306:301|313:306|313:306|306:306|306:306|315:313|315:313,2,599.999961853028
