osu file format v14

[General]
AudioFilename: Blink 182 - Online Songs Kinetic Typography.mp3
AudioLeadIn: 0
PreviewTime: -1
Countdown: 1
SampleSet: Normal
StackLeniency: 0.7
Mode: 0
LetterboxInBreaks: 1
WidescreenStoryboard: 1

[Editor]
DistanceSpacing: 1.8
BeatDivisor: 4
GridSize: 4
TimelineZoom: 2.599999

[Metadata]
Title:Online Songs
TitleUnicode:Online Songs
Artist:Blink 182
ArtistUnicode:Blink 182
Creator:DoomzNight
Version:Insane
Source:Youtube
Tags:Blink 182 Online Songs
BeatmapID:798916
BeatmapSetID:360077

[Difficulty]
HPDrainRate:5
CircleSize:4
OverallDifficulty:6
ApproachRate:10
SliderMultiplier:1.5
SliderTickRate:1

[Events]
//Background and Video events
Video,0,"Blink 182 - Online Songs Kinetic Typography(xvid).avi"
//Break Periods
//Storyboard Layer 0 (Background)
//Storyboard Layer 1 (Fail)
//Storyboard Layer 2 (Pass)
//Storyboard Layer 3 (Foreground)
//Storyboard Sound Samples

[TimingPoints]
-116,304.568527918782,4,1,0,100,1,0
18158,-181.818181818181,4,1,0,100,0,0
20584,292.682926829268,4,1,0,100,1,0
20584,-100,4,1,0,100,0,0
21754,306.122448979592,4,1,0,100,1,0
29254,-100,4,1,0,100,0,0
30325,304.568527918782,4,1,0,100,1,0
40071,303.030303030303,4,1,0,100,1,0
49767,306.122448979592,4,1,0,100,1,0
58338,292.682926829268,4,1,0,100,1,0
59508,307.692307692308,4,1,0,100,1,0
60738,-50,4,1,0,100,0,0
61969,304.568527918782,4,1,0,100,1,0
61969,-50,4,1,0,100,0,0
69268,303.030303030303,4,1,0,100,1,0
74116,307.692307692308,4,1,0,100,1,0
79039,304.568527918782,4,1,0,100,1,0
81475,303.030303030303,4,1,0,100,1,0
85565,-50,4,1,0,100,0,0
98492,303.030303030303,4,1,0,100,1,0
108188,304.568527918782,4,1,0,100,1,0
113061,306.122448979592,4,1,0,100,1,0
115509,303.030303030303,4,1,0,100,1,0
117478,-50,4,1,0,100,0,0
117933,304.568527918782,4,1,0,100,1,0
120369,-50,4,1,0,100,0,0

[HitObjects]
128,196,18158,6,0,L|92:108,1,82.5000025177003
252,136,18767,2,0,L|284:224,1,82.5000025177003
432,180,19376,2,0,L|396:88,1,82.5000025177003
248,136,19985,2,0,L|220:216,1,82.5000025177003
120,312,20584,6,0,L|88:236,1,75
76,100,20876,2,0,L|108:180,1,75
188,284,21169,2,0,L|284:296,1,75
128,348,21462,2,0,L|24:328,1,75
72,200,21754,6,2,L|32:120,1,75
160,204,22060,2,2,L|192:296,1,75
128,144,22366,2,2,L|160:40,1,75
64,184,22672,2,2,L|36:276,1,75
184,276,22978,6,0,L|288:256,1,75
384,196,23284,2,0,L|288:212,1,75
168,188,23590,2,0,L|148:96,1,75
112,252,23896,2,0,L|128:360,1,75
264,340,24202,6,0,L|360:344,1,75
196,340,24509,2,0,L|104:344,1,75
204,228,24815,2,0,L|176:140,1,75
304,228,25121,2,0,L|336:148,1,75
384,24,25427,6,0,L|396:120,1,75
428,236,25733,2,0,L|440:328,1,75
296,328,26039,2,0,L|192:312,1,75
116,220,26345,2,0,L|8:200,1,75
152,112,26651,6,0,L|132:28,1,75
248,124,26958,2,0,L|344:120,1,75
244,240,27264,2,0,L|240:344,1,75
132,224,27570,2,0,L|28:216,1,75
56,76,27876,5,0,0:0:0:0:
176,156,28029,1,0,0:0:0:0:
112,28,28182,1,0,0:0:0:0:
52,156,28335,1,0,0:0:0:0:
112,284,28488,2,0,L|144:372,1,75
176,216,28794,2,0,L|204:120,1,75
304,236,29100,5,0,0:0:0:0:
252,284,29254,6,0,L|176:296,1,75
296,220,29560,2,0,L|380:208,1,75
228,192,29866,2,0,L|152:168,1,75
276,248,30172,1,0,0:0:0:0:
316,112,30325,6,0,L|396:136,1,75
428,268,30629,1,0,0:0:0:0:
428,268,30705,1,0,0:0:0:0:
428,268,30781,1,0,0:0:0:0:
292,316,30934,2,0,L|216:312,1,75
84,256,31238,1,0,0:0:0:0:
84,256,31314,1,0,0:0:0:0:
84,256,31390,1,0,0:0:0:0:
228,252,31543,6,0,L|240:148,1,75
164,52,31847,1,0,0:0:0:0:
164,52,31923,1,0,0:0:0:0:
164,52,32000,1,0,0:0:0:0:
216,184,32152,2,0,L|312:144,1,75
416,96,32456,5,0,0:0:0:0:
416,96,32533,1,0,0:0:0:0:
416,96,32609,1,0,0:0:0:0:
440,236,32761,6,0,L|392:304,1,75
260,340,33066,1,0,0:0:0:0:
260,340,33142,1,0,0:0:0:0:
260,340,33218,1,0,0:0:0:0:
168,232,33370,2,0,L|128:336,1,75
40,204,33675,5,0,0:0:0:0:
40,204,33751,1,0,0:0:0:0:
40,204,33827,1,0,0:0:0:0:
180,180,33979,2,0,L|132:84,1,75
104,248,34284,2,0,L|84:344,1,75
96,180,34588,2,0,L|48:96,1,75
180,180,34893,6,0,L|236:252,1,75
344,324,35198,2,0,L|268:244,1,75
152,240,35502,1,0,0:0:0:0:
152,240,35578,1,0,0:0:0:0:
152,240,35654,1,0,0:0:0:0:
84,116,35807,6,0,L|184:128,1,75
292,72,36111,1,0,0:0:0:0:
292,72,36187,1,0,0:0:0:0:
292,72,36264,1,0,0:0:0:0:
384,180,36416,2,0,L|300:240,1,75
180,208,36720,5,0,0:0:0:0:
180,208,36797,1,0,0:0:0:0:
180,208,36873,1,0,0:0:0:0:
96,324,37025,2,0,L|176:360,1,75
264,252,37330,1,0,0:0:0:0:
264,252,37406,1,0,0:0:0:0:
264,252,37482,1,0,0:0:0:0:
128,212,37634,6,0,L|160:300,1,75
260,184,37939,1,0,0:0:0:0:
260,184,38015,1,0,0:0:0:0:
260,184,38091,1,0,0:0:0:0:
392,240,38243,2,0,L|416:160,1,75
284,108,38548,5,0,0:0:0:0:
284,108,38624,1,0,0:0:0:0:
284,108,38700,1,0,0:0:0:0:
212,222,38852,2,0,P|200:294|184:322,1,75
160,352,39081,5,0,0:0:0:0:
124,324,39157,1,0,0:0:0:0:
100,284,39233,1,0,0:0:0:0:
88,240,39309,1,0,0:0:0:0:
80,196,39385,1,0,0:0:0:0:
76,152,39462,1,0,0:0:0:0:
