osu file format v9

[General]
AudioFilename: 07-Shotgun Symphony.mp3
AudioLeadIn: 1004
PreviewTime: 234503
Countdown: 1
SampleSet: Normal
StackLeniency: 0.7
Mode: 0
LetterboxInBreaks: 1

[Editor]
DistanceSpacing: 0.9
BeatDivisor: 4
GridSize: 8

[Metadata]
Title:Shotgun Symphony+
Artist:Blind Stare
Creator:touko
Version:ver.touko
Source:Finland
Tags:Melodic Death Metal

[Difficulty]
HPDrainRate:6
CircleSize:6
OverallDifficulty:8
ApproachRate:8
SliderMultiplier:2.2
SliderTickRate:2

[Events]
//Background and Video events
0,0,"2005 - Symphony Of Delusions.jpg"
//Break Periods
2,75587,85241
2,128625,137949
2,169729,180711
2,213487,223142
2,265023,276172
//Storyboard Layer 0 (Background)
//Storyboard Layer 1 (Fail)
//Storyboard Layer 2 (Pass)
//Storyboard Layer 3 (Foreground)
//Storyboard Sound Samples
//Background Colour Transformations
3,100,162,161,254

[TimingPoints]
134,165.745856353591,4,1,0,100,1,0
1133,331.491712707182,4,1,0,100,1,0
96602,-100,4,1,0,100,0,1
96934,-100,4,1,0,100,0,0
149641,-100,4,1,0,100,0,1
170856,-100,4,1,0,100,0,0
254714,110.497237569061,4,2,0,100,1,0
255376,331.491712707182,4,1,0,100,1,0
255707,-100,4,1,0,100,0,1
266315,-100,4,1,0,100,0,0
276922,-100,4,1,0,100,0,1
278746,-100,4,1,0,100,0,0
279574,-100,4,1,0,100,0,1
286536,-100,4,1,0,100,0,0
298387,-100,4,1,0,95,0,0
298718,-100,4,1,0,90,0,0
299050,-100,4,1,0,85,0,0
299381,-100,4,1,0,80,0,0
299712,-100,4,1,0,76,0,0
300043,-100,4,1,0,70,0,0
300374,-100,4,1,0,66,0,0
300705,-100,4,1,0,60,0,0
301036,-100,4,1,0,56,0,0
301367,-100,4,1,0,50,0,0
301698,-100,4,1,0,46,0,0
302029,-100,4,1,0,40,0,0
302945,220.994475138122,4,1,0,15,1,0

[Colours]
Combo1 : 97,97,97
Combo2 : 151,0,0
Combo3 : 147,73,0
Combo4 : 255,0,0

[HitObjects]
144,144,134,2,0,C|368:144,2,220
112,272,1133,5,0
176,320,1298,1,0
184,240,1464,1,0
376,80,1795,1,0
304,48,1961,1,0
264,120,2127,1,0
336,160,2293,1,4
360,272,2624,5,0
360,272,2790,1,0
112,136,3121,1,0
160,232,3287,1,0
192,160,3453,1,0
88,208,3619,1,4
320,104,3950,5,0
320,104,4116,1,0
160,192,4447,1,0
160,112,4613,2,0,B|256:64|368:112,2,220
160,192,5442,1,4
128,304,5773,5,0
200,304,5939,1,0
272,304,6105,1,0
344,304,6271,1,0
232,192,6436,5,0
272,48,6768,1,0
432,160,7099,1,0
336,120,7265,1,2
432,160,7431,1,2
336,200,7597,1,2
256,272,7928,1,0
256,272,8094,5,0
93,192,8425,5,0
176,192,8591,1,2
256,192,8757,1,2
336,192,8923,1,2
448,288,9254,5,0
448,288,9420,2,0,C|224:288,1,220
224,288,9917,2,2,C|80:288,2,110
64,48,10580,1,0
128,112,10746,1,0
64,176,10912,1,0
128,112,11078,1,0
184,184,11243,1,0
128,112,11409,5,0
152,88,11492,1,0
184,72,11575,1,0
224,64,11658,1,0
256,64,11740,2,0,B|336:32|436:85|-152:176|672:272|184:272,1,440
120,280,12569,1,0
168,336,12735,1,0
192,272,12900,1,0
240,320,13066,6,0,B|464:368|496:240|295:226|253:226|187:228|174:143|280:111|368:144,1,440
368,152,13895,1,0
376,64,14061,1,0
280,48,14226,1,0
280,48,14392,6,0,B|240:24|128:32|72:88|48:160|48:160|80:216|160:240|160:240|184:304|144:312|112:328,1,440
208,328,15221,1,0
256,256,15387,1,0
165,254,15552,1,0
165,253,15718,6,0,B|166:168|198:165|214:181|272:168|272:168|368:352|424:40|424:40,1,440
344,40,16547,1,0
264,56,16713,1,0
232,48,16796,1,0
200,56,16879,1,0
176,80,16962,1,0
176,112,17044,2,0,B|166:160|198:157|214:173|184:312|184:312|333:245|440:352|440:352,1,440
432,248,17873,1,0
432,216,17956,1,0
432,184,18039,1,0
376,128,18204,1,0
368,96,18287,1,0
344,120,18370,6,4,B|232:240|121:120|86:73|120:25|56:352,1,440
160,320,19199,1,0
192,336,19282,1,0
216,320,19365,1,0
304,312,19530,1,0
336,288,19613,1,0
328,256,19696,6,4,B|416:56,2,220
256,96,20525,1,0
280,80,20608,1,0
304,64,20691,1,4
136,96,20856,1,0
104,88,20939,1,0
72,72,21022,1,4
192,192,21188,1,4
192,224,21271,1,4
192,256,21354,1,4
192,128,21685,1,0
192,128,21851,1,0
192,128,22016,1,0
296,64,22348,5,0
296,200,22514,2,0,B|384:120,1,110
448,200,22845,1,0
296,200,23011,1,0
296,200,23342,1,0
377,127,23508,2,0,B|377:239,1,110
296,200,23840,2,0,B|184:200,1,110
296,200,24171,1,0
296,304,24337,1,0
184,200,24668,1,0
184,200,25000,5,0
184,200,25166,2,0,B|184:312,1,110
184,136,25497,1,0
184,136,25663,2,0,B|288:48,1,110
267,64,25994,1,0
184,136,26160,2,0,B|24:136,1,110
184,136,26492,1,0
266,64,26657,2,0,B|352:144,1,110
346,138,26989,1,0
272,224,27321,1,0
272,224,27403,1,0
272,224,27486,1,0
272,224,27569,1,0
272,224,27652,5,0
152,256,27818,1,0
56,184,27983,1,0
256,96,28315,1,2
256,160,28481,1,2
408,96,28812,1,0
256,96,29144,2,0,B|120:96,1,110
384,192,29641,2,2,B|256:192,1,110
48,112,30138,6,0,B|48:272|144:336,1,220
224,256,30635,2,0,B|272:160|240:96|128:80,1,220,0|2
144,192,31132,2,0,B|352:96,1,220,2|0
424,104,31630,5,0
448,200,31795,1,0
352,176,31961,1,0
424,104,32127,1,0
448,200,32293,1,0
368,280,32458,1,0
272,240,32624,1,0
240,336,32790,1,0
240,336,32873,1,0
240,336,32956,6,0,B|48:368|0:256|184:208,1,330
170,212,33619,1,0
170,213,33784,1,0
112,40,34116,1,0
192,120,34282,1,0
192,40,34447,1,0
112,120,34613,1,0
272,120,34779,1,0
360,208,34945,1,0
192,208,35110,1,0
272,208,35276,1,0
112,208,35442,1,0
112,208,35525,1,0
112,208,35608,5,4
112,208,35773,2,0,B|112:264|112:264|184:264,1,110,0|0
168,264,36105,2,0,B|216:264|216:264|216:336,1,110
424,152,36602,1,0
336,56,36768,1,0
336,152,36934,1,0
248,152,37099,1,0
64,152,37265,1,0
160,152,37431,5,0
160,64,37597,1,0
160,248,37762,1,0
160,152,37928,2,0,B|240:240,1,110
240,240,38177,1,0
240,240,38260,5,4
240,328,38425,1,0
328,328,38591,1,0
328,240,38757,1,0
240,328,38923,1,0
328,240,39254,2,0,B|384:240|384:240|384:168,1,110
384,186,39586,2,0,B|384:122|384:122|320:122,1,110
338,123,39917,2,0,B|288:120|288:120|288:48,1,110
290,60,40249,1,0
192,64,40414,5,0
192,64,40497,1,0
192,64,40580,1,0
96,64,40746,1,0
96,64,40912,1,4
200,160,41077,6,0,B|90:160,1,110
152,216,41409,2,0,B|262:216,1,110
200,160,41906,1,0
152,216,42072,2,0,B|152:360,1,110
208,272,42403,2,0,B|96:272,1,110
304,272,42735,2,0,B|384:168,1,110
280,184,43066,1,2
288,152,43149,1,2
296,120,43232,1,2
232,120,43398,1,2
232,88,43481,1,2
232,56,43563,1,6
256,192,43605,12,0,44226
80,304,44558,5,0
416,304,44889,5,0
80,80,45221,5,0
256,88,45552,5,0
288,144,45718,2,0,B|352:256,1,110
224,144,46050,2,0,B|160:256,2,110
256,216,46547,1,0
256,216,46713,1,0
256,312,46878,5,4
120,56,47210,2,0,B|120:168,1,110
384,168,47873,2,0,B|384:58,1,110
256,192,48121,12,4,49199
256,360,49530,5,0
256,16,49862,5,0
256,72,50028,1,0
256,128,50193,1,0
256,184,50359,1,0
256,288,50691,1,0
224,344,50856,1,0
288,344,51022,1,0
48,64,51851,5,0
88,160,52016,1,0
128,64,52182,1,0
168,168,52348,2,0,B|224:280,2,110
208,64,52845,1,0
208,64,53011,1,0
256,160,53177,1,0
256,160,53342,1,0
304,64,53508,1,2
304,64,53674,1,2
392,64,53840,1,2
392,64,54005,1,2
440,160,54171,5,0
440,256,54337,1,0
344,256,54503,1,0
344,160,54668,1,0
440,160,54834,1,0
344,256,55000,1,0
440,256,55166,1,2
344,160,55331,1,2
392,208,55497,5,0
392,112,55663,1,0
296,112,55829,1,0
296,208,55994,1,0
392,208,56160,1,0
296,112,56326,1,0
392,112,56492,1,2
296,208,56657,1,2
248,160,56823,5,0
248,256,56989,1,0
344,256,57155,1,0
344,160,57320,2,0,B|344:40,1,110
344,160,57652,1,0
248,256,57818,1,2
192,208,57983,5,2
192,208,58066,1,0
192,208,58149,1,0
192,112,58315,1,0
288,112,58481,1,0
288,208,58646,1,0
192,112,58812,2,0,B|288:208,1,110
288,112,59144,2,0,B|208:192,1,110
48,112,59475,5,0
104,224,59641,1,0
104,112,59807,1,0
160,224,59972,1,0
104,224,60138,2,2,B|176:320,3,110
256,280,60801,5,0
368,224,60967,1,0
256,224,61132,1,0
368,168,61298,1,0
256,224,61464,2,2,B|256:96,3,110
168,48,62127,5,0
112,160,62293,1,0
112,48,62458,1,0
56,160,62624,1,0
168,48,62790,2,0,B|168:160,2,110
224,48,63287,1,0
336,48,63453,5,0
280,48,63619,1,0
392,48,63784,1,0
392,160,63950,1,0
392,104,64116,2,0,B|280:104,1,110
448,104,64447,5,0
448,104,64613,1,0
448,168,64779,6,4,B|448:280,1,110
160,176,65276,2,0,B|160:288,1,110
224,240,65608,2,0,B|144:224|96:128|16:80,1,220
104,32,66105,2,0,B|184:112|168:160,1,110
352,320,66602,2,0,B|272:288|160:320,1,110
144,320,66934,2,0,B|64:272|32:236|32:236|28:176|96:160,1,220
160,160,67431,1,0
256,160,67597,1,0
256,208,67762,5,0
256,112,68094,1,0
256,208,68425,1,0
256,160,68591,1,0
256,64,68923,1,0
256,112,69088,1,0
400,112,69420,5,0
304,112,69586,1,0
368,176,69751,1,0
272,176,69917,1,0
176,176,70083,5,4
432,176,70580,1,4
432,176,70746,1,4
256,48,71409,1,4
256,320,71906,1,4
256,320,72072,1,4
96,80,72569,5,0
144,160,72735,1,4
192,80,72900,1,0
96,80,73066,1,8
144,160,73232,1,0
200,240,73398,1,4
288,240,73563,1,0
248,160,73729,1,8
200,240,73895,1,0
288,240,74061,1,4
248,160,74226,1,0
192,80,74392,1,8
96,80,74558,1,0
144,160,74724,1,6
192,80,74889,1,2
296,80,75055,5,10
328,80,75138,1,2
360,80,75221,1,6
392,80,75304,1,6
424,80,75387,1,6
64,64,85994,6,0,B|137:106|224:112|224:112|256:112|304:64|400:64|400:64|432:64|480:96|412:212|344:139|240:177|432:288|432:288|464:320|416:368|272:320|276:199|81:258|53:356,1,1100
96,176,87983,1,0
256,176,88315,1,0
160,176,88481,1,0
128,176,88563,1,0
96,176,88646,6,0,B|98:20|160:32|160:32|192:32|224:96|248:218|334:268|334:268|400:288|448:224|392:160|328:136|328:136|276:120|257:72|320:16|432:80,1,880
464,304,90635,2,0,B|16:304,3,440
464,304,93287,2,0,B|448:112|348:-5|224:128|224:208,1,440
224,368,94282,1,0
224,200,94613,1,0
80,80,94945,5,0
192,80,95110,1,0
136,80,95276,1,0
248,80,95442,1,0
360,80,95608,1,0
360,192,95773,1,0
248,192,95939,1,0
144,192,96105,1,0
144,296,96271,1,0
248,296,96436,1,2
272,296,96519,1,0
296,296,96602,1,6
432,320,96934,1,0
432,320,97265,1,0
432,240,97431,1,0
432,160,97597,1,0
432,80,97762,1,0
256,240,98094,1,0
256,240,98260,1,0
96,96,98591,1,0
96,96,98923,5,2
96,96,99088,2,2,B|80:176|192:160|256:64|288:64|288:64|320:64|432:112|432:256|255:285|264:234|264:234|256:193|240:176|144:208|79:252|48:292|80:336|208:368,2,880
96,96,101906,1,6
256,48,102900,6,0,L|288:96|208:144|304:208|208:272|272:336,1,440
400,320,103895,2,0,L|432:288|400:256|432:224|384:176|432:128|368:64,1,330
256,192,104889,2,0,L|160:112|32:240|128:336,1,440
208,328,105718,5,0
280,328,105884,1,0
352,328,106050,1,0
424,328,106215,1,0
352,248,106381,1,0
352,176,106547,1,0
352,112,106713,1,0
352,48,106878,1,0
280,112,107044,1,0
208,112,107210,5,0
136,112,107376,1,0
104,112,107458,1,0
72,112,107541,1,0
136,208,107873,5,0
136,208,107956,1,0
136,208,108039,1,0
136,304,108370,1,0
240,304,108702,1,0
240,304,108784,1,0
240,304,108868,1,0
408,312,109199,1,0
384,312,109282,1,0
360,312,109365,1,0
408,208,109696,1,0
288,208,110028,1,0
288,208,110110,1,0
288,208,110194,1,0
160,208,110525,1,0
160,208,110608,1,0
160,208,110691,1,0
256,320,111022,6,0,L|256:96,1,220
256,72,111436,1,0
256,40,111519,1,0
120,96,111851,1,0
120,96,111934,1,0
120,96,112016,1,0
448,192,112348,2,0,L|400:336|304:336,1,220
331,336,112762,1,0
331,336,112845,1,0
80,336,113177,2,2,L|80:272,2,55
80,128,113674,1,0
192,48,114005,5,0
240,80,114088,1,0
288,112,114171,1,0
408,96,114503,1,0
400,152,114586,1,0
392,208,114669,1,0
384,264,114751,1,0
376,320,114834,1,0
224,256,115166,1,0
224,256,115249,1,0
192,296,115331,1,0
168,184,115663,1,0
168,184,115746,1,0
112,192,115829,1,0
264,88,116160,1,0
248,144,116243,1,0
272,192,116326,1,0
368,152,116657,1,0
376,208,116740,1,0
336,248,116823,1,0
104,56,117155,5,0
96,112,117237,1,0
96,168,117320,1,0
112,224,117403,1,0
152,264,117486,1,0
208,280,117569,1,0
264,280,117652,1,0
336,248,117818,5,4
336,248,117983,5,0
336,248,118149,1,4
416,80,118481,1,0
336,56,118646,1,0
256,96,118812,1,0
224,144,118895,1,0
192,192,118978,1,0
160,240,119061,1,0
128,288,119144,5,0
64,224,119309,1,0
64,224,119475,1,0
104,88,119807,1,0
104,88,119972,1,0
176,136,120138,1,0
224,168,120221,1,0
272,200,120304,1,0
320,232,120387,1,0
368,264,120470,5,0
432,200,120635,1,0
432,200,120801,1,0
408,64,121133,1,0
408,64,121298,1,0
336,112,121464,1,0
288,144,121547,1,0
240,176,121630,1,0
192,208,121713,1,0
144,240,121795,5,0
72,144,121961,1,0
72,144,122127,1,0
192,336,122459,1,0
192,240,122624,1,0
256,320,122790,1,0
256,224,122956,1,0
336,272,123121,1,0
448,288,123287,1,0
448,288,123453,1,0
400,144,123785,1,0
400,144,123950,1,0
327,170,124116,1,0
256,192,124282,1,0
256,96,124613,5,0
256,144,124779,1,0
256,192,124944,1,0
0,256,125442,2,0,L|112:256,1,110
110,256,125773,2,0,L|256:256,1,110
256,192,126768,1,4
256,192,127099,1,4
488,192,127597,1,0
24,192,128094,1,0
256,192,128425,5,4
24,24,139033,5,0
24,360,139365,5,0
488,360,139696,5,8
488,24,140028,5,8
256,360,140359,5,0
488,192,140691,5,0
256,24,141022,5,8
24,192,141353,5,8
144,80,141685,5,0
224,80,141851,1,0
144,152,142016,1,0
224,152,142182,1,0
224,80,142348,1,0
320,80,142514,1,0
416,80,142679,1,0
320,152,142845,1,0
320,80,143011,1,0
320,152,143177,1,0
416,152,143342,1,0
320,80,143508,1,0
320,80,143674,1,2
416,152,144005,1,2
368,240,144337,6,4,L|96:240,7,220,4|4|4|4|4|4|4|12
148,192,146989,2,4,L|368:192,7,220,4|4|4|4|4|4|4|12
256,360,149641,5,0
256,112,149972,5,0
256,192,150304,1,0
112,288,150635,1,0
208,288,150801,1,0
304,288,150967,1,0
400,288,151132,1,0
256,192,151464,1,0
256,48,151961,5,0
256,48,152293,2,0,B|176:64|96:128|178:164|216:196|291:208|320:272,1,330
384,128,153287,2,0,B|160:128,1,220
256,192,153702,12,4,154282
256,48,154945,5,0
208,96,155110,1,0
304,96,155276,1,2
256,144,155442,1,0
256,48,155608,1,0
256,144,155773,1,0
256,144,155939,1,2
256,232,156105,1,0
352,232,156271,1,0
352,144,156436,1,0
256,144,156602,1,2
256,232,156768,1,0
256,192,156809,12,0,157265
368,64,157597,5,0
320,128,157762,1,0
416,128,157928,1,0
368,192,158094,1,0
368,192,158260,5,0
416,256,158425,1,0
368,320,158591,1,0
320,256,158757,1,0
272,192,158923,5,0
320,256,159088,1,0
224,256,159254,1,2
272,320,159420,1,0
272,192,159586,1,2
272,192,159917,1,2
256,64,160249,5,0
336,64,160414,1,0
416,64,160580,1,0
336,64,160746,1,0
256,64,160912,1,0
176,64,161077,1,0
96,64,161243,1,0
176,64,161409,1,0
176,144,161574,1,2
256,144,161740,1,2
336,144,161906,1,2
256,144,162072,2,2,B|24:237|256:368,1,330
249,365,162900,5,0
169,365,163065,1,0
89,365,163231,1,0
169,365,163397,1,0
249,365,163563,1,0
329,365,163728,1,0
409,365,163894,1,0
329,365,164060,1,0
329,285,164225,1,2
249,285,164391,1,2
169,285,164557,1,2
249,285,164723,2,2,B|481:192|249:61,1,330
160,192,165552,5,0
224,192,165718,1,0
224,128,165884,1,4
160,128,166050,1,4
224,128,166215,1,0
224,64,166381,1,0
288,64,166547,1,4
288,128,166713,1,4
288,192,166878,1,0
224,192,167044,1,0
224,128,167210,1,4
288,128,167376,1,4
256,192,167417,12,0,167873
368,264,168204,5,4
144,264,168536,1,4
368,112,168867,2,4,B|128:112,2,220
256,80,181464,5,4
256,160,181630,1,0
344,160,181795,1,0
256,80,181961,1,0
344,80,182127,1,4
256,160,182293,1,0
256,160,182458,1,0
344,160,182624,2,4,B|344:272,1,110
344,160,182956,1,0
256,160,183121,1,0
256,256,183287,1,0
344,256,183453,1,4
256,256,183619,2,0,B|128:256,2,110
256,160,184116,5,2
160,160,184282,1,2
160,256,184447,1,2
256,256,184613,2,0,B|400:256,1,110
368,160,184945,2,0,B|256:160,1,110
160,160,185276,1,0
258,160,185442,1,2
368,160,185608,1,2
258,160,185773,1,2
256,256,185939,1,0
160,336,186105,1,0
160,256,186271,2,0,B|256:336,2,110
64,256,186768,6,0,B|64:128,1,110
16,208,187099,2,0,B|128:208,1,110
128,144,187431,2,0,B|224:240,1,110
208,144,187762,2,0,B|128:240,1,110
176,272,188094,2,0,B|176:112,1,110
224,80,188425,2,0,B|304:176,1,110
384,224,188757,2,0,B|288:160,2,110
398,128,189254,2,0,B|288:128,1,110
178,128,189586,2,0,B|288:128,1,110,0|0
288,16,190083,6,0,B|288:256,1,220
96,192,190746,1,2
192,192,190912,1,2
416,192,191409,1,2
320,192,191574,1,2
96,48,192072,6,0,B|336:48|403:113|400:160|400:160|400:212|304:272|255:185|237:152|237:152|224:96|48:128|128:288|256:304,1,880
246,302,193729,1,0
200,232,193895,1,0
248,184,194061,1,0
296,232,194226,1,0
384,96,194558,1,0
448,128,194724,1,0
384,160,194889,1,0
224,160,195221,1,0
160,128,195387,1,0
224,96,195552,1,0
320,128,195884,2,0,B|320:240,2,110
192,48,196547,1,0
144,112,196713,1,0
192,48,196878,1,0
272,48,197044,1,0
320,112,197210,1,0
296,136,197376,6,0,C|276:217|319:233|312:136,1,220
160,136,198039,5,0
160,288,198370,1,0
240,288,198536,1,0
199,289,198619,1,0
160,288,198702,1,0
64,192,199033,1,0
104,192,199116,1,0
144,192,199199,1,0
256,48,199696,5,4
400,160,200028,5,4
368,192,200110,1,0
400,192,200193,1,0
432,192,200276,1,0
400,224,200359,1,0
128,160,200691,5,4
128,192,200773,1,0
160,192,200856,1,0
128,224,200939,1,0
96,192,201022,1,0
256,160,201353,5,4
288,192,201436,1,0
256,192,201519,1,0
224,192,201602,1,0
256,224,201685,1,0
288,240,201768,1,0
256,264,201851,1,0
224,240,201934,1,0
256,224,202016,1,4
48,80,202679,6,0,B|48:192,3,110
112,192,203342,2,0,B|224:96,3,110
184,211,204005,2,0,B|264:136,2,110,0|0|0
264,136,204503,1,0
352,128,204668,2,0,B|352:256,1,110
416,240,205000,2,0,B|416:112,1,110
416,48,205331,5,0
336,48,205497,1,0
256,48,205663,2,0,B|128:48,1,110
256,48,205994,1,0
146,48,206160,1,0
144,128,206326,2,0,B|304:128,1,110
336,128,206657,5,0
416,128,206823,1,0
416,208,206989,1,0
336,208,207155,1,0
270,168,207320,2,2,B|410:168,3,110
380,168,207983,5,0
384,96,208315,2,0,B|160:96,1,220
64,96,208978,2,0,B|64:320,1,220,0|0
160,96,209641,1,0
160,96,209807,1,0
160,96,209890,1,0
160,96,209973,1,0
160,192,210138,1,0
160,192,210221,1,0
160,192,210304,1,0
240,144,210470,5,0
280,144,210552,1,0
240,144,210635,1,0
280,224,210801,1,0
240,224,210884,1,0
280,224,210967,1,0
240,304,211132,1,0
240,304,211215,1,0
280,304,211298,1,0
280,224,211464,1,0
280,224,211547,1,0
240,224,211630,1,0
240,144,211795,1,0
280,144,211878,1,0
240,144,211961,1,0
256,192,212003,12,4,213287
256,48,223895,5,0
256,112,224061,1,0
256,112,224144,1,0
256,112,224226,1,2
256,192,224392,1,0
256,192,224475,1,0
256,192,224558,1,2
256,272,224724,1,0
256,272,224807,1,0
256,272,224889,1,2
400,48,225221,5,0
400,112,225387,1,0
400,112,225470,1,0
400,112,225552,1,2
400,192,225718,1,0
400,192,225801,1,0
400,192,225884,1,2
400,272,226050,1,0
400,272,226133,1,0
400,272,226215,1,2
224,192,226547,5,0
144,192,226712,1,0
184,192,226795,1,0
224,192,226878,1,2
304,192,227044,1,0
264,192,227127,1,0
224,192,227210,1,2
224,192,227375,1,0
224,192,227458,1,0
224,192,227541,1,2
224,192,227873,5,0
224,112,228038,1,0
224,152,228121,1,0
224,192,228204,1,2
224,272,228370,1,0
224,232,228453,1,0
224,192,228536,1,2
224,192,228701,1,0
224,192,228784,1,0
224,192,228867,1,6
64,80,229199,5,0
64,176,229365,1,0
96,144,229447,1,0
128,112,229530,2,8,B|208:192,1,110
256,160,229779,1,0
288,128,229862,2,0,B|384:224,1,110,0|8
400,176,230110,1,0
432,144,230193,1,12
400,80,230525,5,0
400,176,230691,1,0
368,144,230773,1,0
336,112,230856,2,8,B|256:192,1,110
216,160,231105,1,0
176,128,231188,2,0,B|80:224,1,110,0|8
64,176,231436,1,0
32,144,231519,1,12
112,320,231851,5,0
112,232,232016,2,0,B|112:296,1,55
112,320,232182,2,8,B|240:304,1,110
224,264,232431,1,0
221,306,232514,2,0,B|368:288,1,110,0|8
320,240,232762,2,4,B|336:320,1,55,4|12
416,176,233177,5,0
416,96,233342,2,0,B|416:160,1,55
416,176,233508,2,8,B|288:160,1,110
312,120,233757,1,0
307,162,233840,2,0,B|160:144,1,110,0|8
208,96,234088,2,4,B|192:176,1,55,4|12
112,128,234503,6,2,B|452:129,1,330
256,192,235041,12,8,235497
152,176,235829,6,2,B|160:208|256:208|256:208|359:204|340:177|288:176|288:176|160:176,1,330
256,192,236367,12,8,236823
400,176,237155,6,2,B|397:305|420:336|420:336|449:305|450:164,1,330
256,192,237693,12,8,238149
352,176,238481,6,2,B|352:224|320:256|272:224,3,110
16,128,239475,5,4
96,128,239641,1,4
48,192,239807,6,0,B|288:192,1,220
336,192,240304,2,0,B|448:128|352:32|160:48,1,330,0|8
192,224,241132,2,0,B|256:336|384:336,1,220
416,240,241630,2,0,B|448:176|428:96|428:96|288:88|240:176,1,330,0|8
64,192,242458,2,0,B|320:192,1,220
211,240,242956,2,0,B|288:240|320:240|320:240|374:187|320:144|320:144|176:144,1,330,0|8
384,80,243784,5,0
304,80,243950,1,0
344,80,244033,1,0
304,80,244116,1,0
208,80,244282,2,4,B|-36:174|224:288,1,330
216,208,244945,1,4
256,272,245110,6,0,B|256:160,1,110
320,224,245442,2,0,B|320:96,1,110
384,176,245773,2,0,B|384:64,1,110
448,128,246105,2,0,B|448:16,1,110
384,64,246436,2,0,B|272:64,1,110
336,128,246768,2,0,B|224:128,1,110
288,192,247099,2,0,B|144:192,1,110
240,256,247431,2,0,B|128:256,1,110
48,304,247762,5,0
48,192,247928,1,0
112,256,248094,1,0
112,144,248260,1,0
176,208,248425,1,0
176,96,248591,1,0
240,160,248757,1,0
240,48,248923,1,0
144,96,249088,1,0
256,96,249254,1,0
192,144,249420,1,0
304,144,249586,1,0
240,192,249751,1,0
352,192,249917,1,0
288,240,250083,1,0
400,240,250249,1,0
304,192,250414,5,4
400,192,250580,1,0
400,96,250746,1,0
304,96,250912,1,0
352,144,251077,1,4
272,144,251243,1,0
312,144,251326,1,0
352,144,251409,1,0
272,144,251575,1,0
256,240,251740,1,4
168,240,251906,1,0
256,320,252072,1,0
168,320,252238,1,0
208,240,252403,1,4
256,320,252569,1,0
256,281,252652,1,0
256,240,252735,1,0
168,240,252901,1,0
112,160,253066,5,4
208,160,253232,1,0
160,160,253398,1,0
256,160,253564,1,0
208,160,253729,1,4
304,160,253895,1,0
344,160,253978,1,0
384,160,254061,1,0
384,160,254227,1,0
304,112,254392,1,2
208,112,254558,1,2
128,96,254934,6,0,B|304:240,1,220,8|0
288,256,255128,2,0,B|96:96,1,220,8|0
256,96,255707,5,0
256,288,256038,5,0
128,96,256370,6,0,B|352:96,1,220
288,176,256867,1,0
192,176,257033,1,0
288,176,257199,1,0
192,176,257530,5,0
192,320,258027,5,0
384,320,258358,2,2,B|384:208,1,110
336,112,258690,2,2,B|336:224,1,110
48,160,259353,1,2
128,160,259519,1,0
88,160,259602,1,0
48,160,259685,1,2
256,192,259768,12,4,260348
256,80,260928,5,0
256,80,261011,2,0,B|256:304,1,220
256,300,261674,1,0
448,256,262005,5,4
384,208,262171,1,0
320,256,262337,1,4
256,208,262503,1,0
448,256,262834,1,4
448,96,263331,6,0,B|176:96,1,220
80,192,263994,1,0
176,336,264326,1,0
216,336,264409,1,0
256,336,264492,1,0
256,192,264823,1,4
256,64,276922,5,0
256,64,277005,1,0
288,64,277088,1,0
320,64,277254,1,0
320,64,277337,1,0
352,64,277420,1,0
384,64,277585,1,0
384,64,277668,1,0
416,64,277751,1,0
416,96,277917,1,0
416,96,278000,1,0
384,96,278083,1,0
352,96,278248,1,2
352,96,278331,1,0
320,96,278414,1,2
288,96,278580,1,2
256,96,278746,1,2
48,96,279243,1,6
208,176,279574,5,0
208,176,279657,1,0
176,176,279740,1,0
144,176,279906,1,0
144,176,279989,1,0
112,176,280072,1,0
80,176,280237,1,0
80,176,280320,1,0
48,176,280403,1,0
48,208,280569,1,0
48,208,280652,1,0
80,208,280735,1,0
112,208,280900,1,2
112,208,280983,1,0
144,208,281066,1,2
176,208,281232,1,2
208,208,281398,1,2
416,208,281895,1,6
272,304,282226,6,0,B|328:276|384:311,2,110
272,304,282724,1,0
256,240,282889,2,0,B|201:202|122:252,2,110
256,240,283387,1,0
256,144,283552,2,0,B|309:116|366:148,1,110
360,103,283884,2,0,B|308:74|255:102,1,110
256,192,284132,12,4,284878
96,192,285541,5,0
192,192,285707,1,0
384,192,286038,1,4
352,80,287530,5,0
256,80,287696,1,0
160,80,287862,2,0,B|48:80,1,110
48,176,288193,1,0
144,176,288359,2,0,B|288:176,1,110
352,176,288690,1,0
352,272,288856,1,0
256,272,289022,1,0
281,240,289105,1,0
304,272,289188,1,0
256,304,289353,1,0
304,304,289436,1,0
280,334,289519,1,0
279,289,289851,5,4
128,304,290182,6,0,B|128:192,1,110
80,256,290514,1,0
176,256,290679,1,0
224,304,290845,2,0,B|224:192,1,110
176,256,291177,1,0
272,256,291342,1,0
224,194,291508,1,0
224,112,291674,1,0
224,152,291757,1,0
224,112,291840,1,4
224,194,292005,1,0
224,194,292171,1,4
224,112,292503,5,4
368,144,292751,5,0
368,144,292834,2,0,B|144:144,1,220
148,144,293331,1,0
112,240,293497,2,0,B|336:240,1,220
332,240,293994,1,0
256,192,294077,12,0,294823
368,80,295155,5,0
272,80,295320,1,0
176,80,295486,2,0,B|96:176,1,110
272,272,295983,2,0,B|368:176,2,110
112,160,296646,2,0,B|208:64,1,110
112,160,296978,1,0
272,272,297309,2,0,B|368:176,1,110
272,272,297641,1,0
349,194,297806,1,0
320,64,298138,6,0,B|192:64,1,110
160,64,298469,2,0,B|160:176,1,110
224,128,298801,2,0,B|96:128,1,110
80,176,299132,2,0,B|160:256,1,110
208,304,299464,2,0,B|208:192,1,110
112,224,299795,2,0,B|192:144,1,110
128,144,300127,2,0,B|272:144,1,110
240,240,300458,2,0,B|336:144,1,110
256,128,300790,2,0,B|384:128,1,110
368,240,301121,2,0,B|368:128,1,110
368,130,301453,2,0,B|288:32,1,110
208,48,301784,2,0,B|288:128,1,110
320,176,302116,2,0,B|208:176,2,110
273,35,303110,6,0,B|242:68|242:68|226:84|258:116|258:116|274:132|242:164|242:164|226:180|258:212|258:212|274:228|242:260|242:260|226:276|258:307|258:307|274:324|229:372|229:372,1,385
