osu file format v4

[General]
AudioFilename: 07-Shotgun Symphony.mp3
AudioLeadIn: 1000
AudioHash: 376bb41a415d0767c707140d8bd18657
PreviewTime: -1
SampleSet: Normal

[Metadata]
Title:Shotgun Symphony
Artist:Blind Stare
Creator:awp
Version:Insane

[Difficulty]
HPDrainRate:6
CircleSize:6
OverallDifficulty:7
SliderMultiplier: 2
SliderTickRate: 1

[Events]
0,0,"2005 - Symphony Of Delusions.jpg"
2,54503,59024
2,75479,84836
2,128592,138250
2,170525,180681
2,213454,223112
2,264999,275998
3,0,0,0,0

[TimingPoints]
1100,331.491712707182,4,1,0
254690,110.497237569061,4,1,0
255352,331.491712707182,4,1,0

[HitObjects]
224,160,105,5,0,
256,192,271,1,0,
288,224,437,1,0,
416,320,1100,5,0,
416,272,1265,1,0,
416,224,1431,1,0,
416,144,1762,1,0,
416,144,1928,2,0,L|416:144|208:144,1,200
176,144,2591,5,0,
128,144,2757,1,0,
48,144,3088,1,0,
48,144,3254,1,0,
80,224,3586,2,0,L|80:224|288:224,1,200
280,224,4083,1,0,
368,224,4414,1,0,
368,224,4580,1,0,
448,192,4912,6,0,C|448:192|469:245|414:289|464:336,1,200
463,335,5409,1,0,
320,320,5740,1,0,
320,320,5906,1,0,
256,192,6238,1,0,
256,80,6569,6,0,C|256:80|176:80,1,100
48,80,7066,2,0,C|48:80|48:160,1,100
48,336,7564,2,0,C|48:336|272:336,1,200
320,336,8061,2,0,C|320:336|320:112,1,200
320,136,8558,1,0,
160,96,8890,6,0,C|160:96|80:160|176:240,1,200
192,224,9387,2,0,C|192:224|416:224,1,200
392,224,9884,1,0,
352,352,10216,6,0,C|352:352|279:351|288:288|208:224,1,200
176,208,10713,2,0,C|176:208|336:48,1,200
317,66,11210,1,0,
416,64,11541,1,4,
256,128,11873,5,0,
192,128,12038,1,0,
64,128,12370,1,0,
64,192,12536,1,0,
192,192,12867,1,0,
320,192,13199,1,0,
384,192,13365,1,0,
384,320,13696,1,0,
320,320,13862,1,0,
176,320,14193,5,0,
48,320,14525,1,0,
48,256,14691,1,0,
48,128,15022,1,0,
48,64,15188,1,0,
224,64,15519,1,0,
368,64,15851,1,0,
432,64,16017,1,0,
432,176,16348,1,0,
368,176,16514,1,0,
256,176,16845,1,0,
96,176,17177,6,0,C|96:176|64:272,1,100
192,336,17674,2,0,C|192:336|272:336,1,100
448,336,18171,1,0,
448,176,18503,2,0,C|448:176|448:240,1,100
288,272,19000,2,0,C|288:272|288:176,1,100
288,16,19497,1,0,
128,16,19829,2,0,C|128:16|128:112,1,100
16,112,20326,2,0,C|16:112|16:48,1,100
16,192,20823,5,0,
176,192,21155,2,0,C|176:192|96:192,1,100
176,320,21652,2,0,C|176:320|96:320,1,100
176,256,22149,1,0,
320,320,22481,6,0,C|320:320|320:240,1,100
448,320,22978,2,0,C|448:320|448:224,1,100
448,64,23475,1,0,
288,64,23807,2,0,C|288:64|288:160,1,100
144,160,24304,2,0,C|144:160|144:96,1,100
144,224,24801,5,0,
304,224,25133,2,0,C|304:224|240:224,1,100
208,352,25630,2,0,C|208:352|304:352,1,100
464,352,26127,1,0,
464,192,26459,2,0,C|464:192|384:192,1,100
208,192,26956,2,0,C|208:192|304:192,1,100
256,192,27453,1,0,
256,192,27619,12,0,32591
256,192,32923,1,0,
336,192,33420,2,0,C|336:192|336:128,2,100
176,192,34083,2,0,C|176:192|176:128,2,100
256,320,34746,1,0,
256,272,34912,1,0,
256,224,35077,1,0,
256,176,35243,1,0,
256,128,35409,1,0,
208,80,35575,2,0,C|208:80|272:80,1,100
256,160,36072,5,0,
304,192,36238,2,0,C|304:192|256:192,1,100
256,240,36735,1,0,
208,288,36901,2,0,C|208:288|256:288,1,100
256,368,37398,1,0,
208,368,37564,1,0,
160,368,37729,1,0,
112,368,37895,1,0,
64,368,38061,1,0,
64,320,38227,1,0,
64,272,38392,1,0,
64,192,38724,5,0,
112,192,38890,1,0,
160,192,39055,1,0,
272,192,39387,1,0,
320,192,39553,1,0,
368,192,39718,1,0,
448,48,40050,1,0,
400,48,40216,1,0,
352,48,40381,1,0,
304,48,40547,1,0,
256,48,40713,1,0,
208,48,40879,1,0,
160,48,41044,1,0,
32,48,41376,5,0,
32,96,41542,1,0,
32,144,41707,1,0,
160,144,42039,1,0,
208,144,42204,1,0,
256,144,42370,1,0,
352,144,42702,2,0,C|352:144|448:144,5,100
416,256,43862,5,0,
256,256,44193,2,0,C|256:256|256:208|320:128,1,100
400,96,44691,1,0,
352,96,44856,1,0,
304,96,45022,1,0,
112,96,45519,1,0,
112,144,45685,1,0,
112,288,46017,2,0,C|112:288|160:320|272:224|384:320,1,300
368,304,46680,1,0,
400,336,46845,1,0,
432,304,47011,1,0,
464,272,47177,1,0,
432,240,47343,1,0,
304,80,47840,2,0,C|304:80|224:80,1,100
176,64,49166,6,0,C|176:64|89:101|48:208,2,200
288,64,50160,2,0,C|288:64|336:80|352:128,3,100
256,224,50989,1,0,
416,320,51818,1,0,
416,272,51984,1,0,
416,224,52149,2,0,C|416:224|192:224,1,200
216,179,52646,2,0,C|216:179|432:179,1,200
432,208,53144,1,0,
256,304,53475,1,0,
256,256,53641,1,0,
256,208,53807,1,0,
192,208,53972,2,0,C|192:208|261:137|320:224,1,200
80,64,59442,5,0,
112,96,59608,1,0,
144,64,59774,1,0,
176,96,59939,1,0,
208,64,60105,2,0,C|208:64|258:76|272:96,2,100
224,112,60602,1,0,
256,160,60768,1,0,
288,128,60934,1,0,
320,160,61099,1,0,
352,128,61265,1,0,
384,160,61431,2,0,C|384:160|432:128|400:80,2,100
416,192,61928,1,0,
384,224,62094,5,0,
352,256,62260,1,0,
320,224,62425,1,0,
288,256,62591,1,0,
256,224,62757,2,0,C|256:224|224:256|176:224,3,100
160,192,63420,1,0,
128,224,63586,1,0,
96,256,63751,1,0,
64,288,63917,1,0,
64,336,64083,2,0,C|64:336|176:336,3,100
208,336,64746,5,0,
256,336,64912,1,0,
304,336,65077,1,0,
352,336,65243,1,0,
400,336,65409,2,0,C|400:336|400:272,1,100
448,240,65740,2,0,C|448:240|448:320,1,100
496,336,66072,1,0,
496,288,66238,1,0,
496,240,66403,1,0,
496,192,66569,1,0,
496,144,66735,2,0,C|496:144|496:96,1,100
448,48,67066,2,0,C|448:48|448:128,1,100
400,144,67398,6,0,C|400:144|336:80,1,100
400,80,67729,2,0,C|400:80|336:144,1,100
288,144,68061,2,0,C|288:144|288:64,3,100
240,48,68724,2,0,C|240:48|176:112,1,100
240,128,69055,2,0,C|240:128|160:48,1,100
112,64,69387,2,0,C|112:64|112:144,3,100
112,272,70050,5,0,
160,272,70216,1,0,
288,272,70547,1,0,
320,240,70713,1,0,
352,272,70879,1,0,
432,144,71210,1,0,
464,112,71376,1,0,
432,80,71541,1,0,
288,80,71873,1,0,
256,48,72039,1,0,
224,80,72204,1,0,
80,80,72536,5,0,
48,112,72702,1,0,
80,144,72867,1,0,
80,288,73199,1,0,
112,320,73365,1,0,
80,352,73530,1,0,
224,320,73862,1,0,
256,352,74028,1,0,
288,320,74193,1,0,
432,336,74525,1,0,
400,304,74691,1,0,
368,272,74856,2,0,C|368:272|304:224,1,100
256,192,75188,1,0,
256,192,75354,1,0,
48,80,85961,6,0,C|48:80|96:128|176:80|256:144|336:80|416:160|496:80,1,600
496,144,87287,1,0,
496,240,87619,1,0,
400,240,87950,1,0,
304,240,88282,1,0,
208,240,88613,6,0,B|208:240|176:272|96:272|48:208|32:128|48:80|96:48|160:32|240:32|320:48|400:96|448:144|464:272|432:352|416:352,1,800
272,336,90271,1,0,
128,336,90602,2,0,B|128:336|80:288|128:208|464:304,2,400
272,336,92260,1,0,
400,336,92591,2,0,B|400:336|448:288|336:176|208:256|48:160|112:48|416:32,1,600
448,144,93917,2,0,B|448:144|464:192|400:288|192:352|64:336|0:176|64:32|352:32,1,800
336,64,95409,1,0,
336,112,95575,1,0,
336,160,95740,1,0,
336,208,95906,1,0,
336,256,96072,1,0,
336,304,96238,1,0,
336,352,96403,1,0,
256,192,96569,12,0,100547
256,192,101873,12,0,104525
384,80,105685,5,0,
352,112,105851,1,0,
320,144,106017,1,0,
288,176,106182,1,0,
256,192,106348,1,0,
224,160,106514,1,0,
192,128,106680,1,0,
160,96,106845,1,0,
128,64,107011,1,0,
112,96,107177,6,0,B|112:96|112:192,1,100
112,224,107508,1,0,
208,304,107840,1,0,
256,304,108006,1,0,
256,192,108337,2,0,B|256:192|400:336,1,200
432,336,108834,1,0,
464,224,109166,1,0,
464,176,109332,1,0,
448,32,109663,6,0,B|448:32|416:96|288:144|192:64,1,200
240,96,110160,1,0,
96,64,110492,1,0,
96,112,110658,1,0,
96,224,110989,2,0,B|96:224|160:240|128:288|64:320|32:240|208:176,1,200
192,192,111486,1,0,
320,192,111818,1,0,
368,192,111983,1,0,
256,192,112315,5,4,
208,64,112646,1,0,
208,112,112812,1,0,
208,256,113144,1,0,
208,208,113309,1,0,
304,160,113641,1,0,
400,256,113972,1,0,
368,224,114138,1,0,
416,96,114470,1,0,
384,128,114635,1,0,
256,192,114967,5,0,
112,192,115298,1,0,
160,192,115464,1,0,
160,336,115796,1,0,
160,288,115961,1,0,
304,288,116293,1,0,
448,288,116624,1,0,
400,288,116790,1,0,
400,144,117122,1,0,
400,192,117287,1,0,
256,192,117619,1,0,
256,192,117785,5,4,
112,192,118116,1,0,
112,336,118448,1,0,
352,336,118945,1,0,
368,128,119442,2,0,B|368:128|400:176|400:224|224:272,1,200
96,48,120437,2,0,B|96:48|208:16|320:64,2,200
96,96,121265,1,0,
96,240,121597,1,0,
128,272,121762,1,0,
256,288,122094,1,0,
160,144,123420,6,0,B|160:144|256:96|352:160,2,200
160,192,124249,2,0,C|160:192|176:256|224:192|256:272|304:192,1,300
304,192,124912,1,0,
256,32,125409,5,0,
256,80,125575,1,0,
256,128,125740,1,0,
256,176,125906,2,0,C|256:176|256:384,1,200
112,192,126735,5,0,
256,192,127066,2,0,C|256:192|256:272|338:272|338:194|288:194,1,300
256,16,128061,2,0,C|256:16|256:256,1,200
64,64,139000,5,0,
96,96,139166,1,0,
128,128,139332,1,0,
160,160,139497,1,0,
192,192,139663,1,0,
224,224,139829,1,0,
256,256,139995,1,0,
288,288,140160,1,0,
224,288,140326,1,0,
256,256,140492,1,0,
288,224,140658,1,0,
320,192,140823,1,0,
352,160,140989,1,0,
384,128,141155,1,0,
416,96,141320,1,0,
448,64,141486,1,0,
400,64,141652,6,0,C|400:64|304:64,1,100
256,64,141983,2,0,C|256:64|176:64,1,100
112,64,142315,2,0,C|112:64|112:128,1,100
112,208,142646,2,0,C|112:208|112:288,1,100
160,320,142978,2,0,C|160:320|240:320,1,100
304,320,143309,2,0,C|304:320|384:320,1,100
448,320,143641,2,0,C|448:320|448:224|336:144,1,200
256,192,144304,12,0,149608
176,192,149939,1,0,
336,192,150271,1,0,
336,48,150602,1,0,
304,80,150768,1,0,
272,112,150934,1,0,
304,144,151099,1,0,
400,256,151431,2,0,C|400:256|384:320|282:347|144:288,1,300
80,192,152260,1,0,
128,192,152425,2,0,C|128:192|160:240|224:112,1,200
256,48,153254,2,0,C|256:48|321:96|256:192,1,200
256,192,154249,1,0,
80,192,154912,6,0,C|80:192|284:281|448:192,3,400
256,192,157564,12,0,159884
160,96,160216,5,0,
192,128,160381,1,0,
224,160,160547,1,0,
256,192,160713,1,0,
304,192,160879,1,0,
336,160,161044,1,0,
368,128,161210,1,0,
400,96,161376,1,0,
448,96,161541,1,0,
448,144,161707,1,0,
448,192,161873,1,0,
448,240,162039,1,0,
256,240,162536,1,0,
144,336,162867,5,0,
144,288,163033,1,0,
144,240,163199,1,0,
144,192,163365,1,0,
144,144,163530,1,0,
144,96,163696,1,0,
144,48,163862,1,0,
144,0,164028,1,0,
192,0,164193,1,0,
240,0,164359,1,0,
288,0,164525,1,0,
336,0,164691,1,0,
256,192,165188,1,0,
144,272,165519,5,0,
176,304,165685,1,0,
208,272,165851,1,0,
320,272,166182,1,0,
352,304,166348,1,0,
384,272,166514,1,0,
416,192,166845,1,0,
448,160,167011,1,0,
416,128,167177,1,0,
288,96,167508,1,0,
256,64,167674,1,0,
224,96,167840,1,0,
256,128,168006,1,0,
256,176,168171,2,0,C|256:176|256:256,1,100
128,336,168669,5,0,
176,336,168834,2,0,C|176:336|224:336,1,100
416,336,169332,1,0,
416,288,169497,2,0,C|416:288|416:208,1,100
416,48,169995,1,0,
368,48,170160,2,0,C|368:48|320:48,1,100
256,192,181431,5,0,
304,192,181597,1,0,
304,144,181762,1,0,
256,144,181928,1,0,
208,144,182094,2,0,C|208:144|208:224,2,100
352,192,182757,5,0,
352,144,182923,1,0,
400,144,183088,1,0,
400,192,183254,1,0,
448,192,183420,2,0,C|448:192|448:112,2,100
448,288,184083,5,0,
448,336,184249,1,0,
400,336,184414,1,0,
400,288,184580,1,0,
352,288,184746,2,0,C|352:288|272:288,2,100
256,336,185409,5,0,
256,288,185575,1,0,
256,240,185740,1,0,
256,192,185906,1,0,
304,192,186072,2,0,C|304:192|304:256,2,100
256,64,186735,6,0,C|256:64|160:64,1,100
112,64,187066,2,0,C|112:64|112:160,1,100
112,208,187398,2,0,C|112:208|176:272,1,100
224,288,187729,2,0,C|224:288|368:128,1,200
368,96,188227,2,0,C|368:96|272:96,1,100
224,96,188558,2,0,C|224:96|304:192,1,100
336,176,188890,2,0,C|336:176|336:256,1,100
192,288,189387,6,0,C|192:288|96:288,1,100
48,288,189718,2,0,C|48:288|48:192,1,100
48,144,190050,2,0,C|48:144|144:144,2,100
192,144,190713,2,0,C|192:144|272:224,1,100
304,224,191044,2,0,C|304:224|368:160,1,100
368,112,191376,2,0,C|368:112|272:112,2,100
256,192,192039,5,0,
256,48,192370,1,0,
112,48,192702,1,0,
112,192,193033,1,0,
112,336,193365,1,0,
256,336,193696,1,0,
448,272,194359,5,0,
448,208,194525,1,0,
448,144,194691,1,0,
304,144,195022,1,0,
304,288,195354,1,0,
160,288,195685,1,0,
160,144,196017,1,0,
304,128,197343,6,0,C|304:128|284:209|327:225|325:137,1,200
208,240,198006,1,0,
64,240,198337,1,0,
64,96,198669,2,0,C|64:96|272:96,1,200
304,96,199166,1,0,
256,192,199663,6,0,C|256:192|400:336,1,200
256,336,200658,1,0,
256,192,200990,12,0,202647
112,192,202978,5,0,
112,336,203309,1,0,
256,336,203641,1,0,
400,336,203972,2,0,C|400:336|400:128,1,200
304,32,204635,1,0,
192,112,204967,1,0,
64,48,205298,2,0,C|64:48|64:256,1,200
192,320,205961,1,0,
256,192,206293,1,0,
352,288,206624,2,0,C|352:288|432:192|432:64,1,200
320,32,207287,1,0,
176,32,207619,1,0,
160,192,207950,6,0,C|160:192|400:192,7,200
176,192,210602,1,0,
336,192,210934,1,0,
176,192,211265,1,0,
336,192,211597,1,0,
256,64,211928,2,0,C|256:64|336:128|256:192|176:256|256:320,1,400
368,272,212923,1,0,
256,192,213254,1,0,
96,80,223862,5,0,
144,80,224028,1,0,
192,80,224193,1,0,
240,80,224359,2,0,C|240:80|304:80,1,100
384,80,224691,1,0,
432,80,224856,1,0,
432,192,225188,1,0,
384,192,225354,1,0,
336,192,225519,1,0,
288,192,225685,2,0,C|288:192|192:192,1,100
144,192,226017,1,0,
96,192,226182,1,0,
96,336,226514,5,0,
144,336,226680,1,0,
192,336,226845,1,0,
240,336,227011,2,0,C|240:336|352:336,1,100
384,336,227343,1,0,
432,336,227508,1,0,
432,192,227840,1,0,
384,192,228006,1,0,
336,192,228171,1,0,
288,192,228337,2,0,C|288:192|192:192,1,100
192,240,228669,1,0,
240,240,228834,1,0,
416,304,229166,5,0,
368,304,229332,1,0,
320,304,229497,1,0,
272,304,229663,2,0,C|272:304|208:304,1,100
128,304,229995,1,0,
80,304,230160,1,0,
80,192,230492,1,0,
128,192,230658,1,0,
176,192,230823,1,0,
224,192,230989,2,0,C|224:192|320:192,1,100
368,192,231321,1,0,
416,192,231486,1,0,
416,48,231818,5,0,
368,48,231984,1,0,
320,48,232149,1,0,
272,48,232315,2,0,C|272:48|160:48,1,100
128,48,232647,1,0,
80,48,232812,1,0,
80,192,233144,1,0,
128,192,233310,1,0,
176,192,233475,1,0,
224,192,233641,2,0,C|224:192|320:192,1,100
368,192,233973,1,0,
416,192,234138,1,0,
256,192,234470,12,2,235464
256,192,235796,12,2,236790
256,192,237122,12,2,238116
256,128,238448,1,0,
256,176,238613,1,0,
256,224,238779,1,0,
256,272,238945,1,4,
208,64,239442,2,0,C|208:64|336:64,1,100
352,64,239774,6,0,C|352:64|416:144|336:224,1,200
304,240,240271,2,0,C|304:240|221:130|341:16,1,300
336,128,241099,2,0,C|336:128|256:80|160:128,1,200
112,128,241597,2,0,C|112:128|160:192|256:128|320:192|384:128,1,300
336,89,242425,2,0,C|336:89|381:154|352:233|300:254,1,200
320,192,242923,2,0,C|320:192|251:161|227:256|348:308,1,300
416,192,243751,1,0,
368,192,243917,1,0,
320,192,244083,1,0,
272,192,244249,2,0,C|272:192|224:144|176:192|128:144|48:192,1,300
48,240,244912,1,0,
16,288,245077,6,0,C|16:288|96:288,1,100
96,240,245409,2,0,C|96:240|192:240,1,100
160,192,245740,2,0,C|160:192|224:192,1,100
224,144,246072,2,0,C|224:144|272:144,1,100
368,96,246403,2,0,C|368:96|368:160,1,100
320,144,246735,2,0,C|320:144|320:176,1,100
272,192,247066,2,0,C|272:192|272:240,1,100
224,240,247398,2,0,C|224:240|224:272,1,100
176,288,247729,2,0,C|176:288|176:208,1,100
128,240,248061,2,0,C|128:240|128:160,1,100
80,192,248392,2,0,C|80:192|80:128,1,100
32,144,248724,2,0,C|32:144|32:80,1,100
80,80,249055,2,0,C|80:80|144:80,1,100
128,128,249387,2,0,C|128:128|208:128,1,100
176,176,249718,2,0,C|176:176|256:176,1,100
320,176,250050,1,0,
432,144,250381,5,0,
400,144,250547,1,0,
368,144,250713,1,0,
336,144,250879,1,0,
336,176,251044,1,0,
304,176,251210,1,0,
272,176,251376,1,0,
240,176,251541,1,0,
240,208,251707,1,0,
208,208,251873,1,0,
176,208,252039,1,0,
144,208,252204,1,0,
144,240,252370,1,0,
112,240,252536,1,0,
80,240,252702,1,0,
48,240,252867,1,0,
48,192,253033,1,0,
80,192,253199,1,0,
112,192,253365,1,0,
144,192,253530,1,0,
176,192,253696,1,0,
208,192,253862,1,0,
240,192,254028,1,0,
272,192,254193,1,0,
256,240,254359,1,0,
256,240,254525,1,0,
176,112,254910,6,0,C|176:112|336:272,2,200
400,192,255683,5,0,
256,192,256014,1,0,
256,48,256346,1,0,
400,48,256677,1,0,
400,96,256843,1,0,
400,144,257009,1,0,
400,192,257175,1,0,
400,320,257506,1,0,
192,320,258003,1,0,
48,320,258335,5,0,
48,272,258501,1,0,
48,128,258832,2,0,C|48:128|368:128,1,300
448,208,259661,2,0,C|448:208|48:208,2,400
432,64,261318,5,0,
288,64,261650,1,0,
144,64,261981,1,0,
112,96,262147,1,0,
144,128,262313,1,0,
112,160,262478,1,0,
192,256,262810,1,0,
400,288,263307,2,0,C|400:288|400:80,1,200
96,240,264302,2,0,C|96:240|96:128,1,100
256,192,264799,1,0,
256,48,276898,5,0,
288,48,277064,1,0,
320,48,277230,1,0,
352,48,277396,1,0,
336,96,277561,1,0,
304,96,277727,1,0,
272,96,277893,1,0,
240,96,278059,1,0,
224,144,278224,1,0,
256,144,278390,1,0,
288,144,278556,1,0,
320,144,278722,2,0,L|320:144|375:144|375:191|177:192,1,300
128,320,279550,5,0,
160,320,279716,1,0,
192,320,279882,1,0,
224,320,280048,1,0,
240,276,280213,1,0,
208,276,280379,1,0,
176,276,280545,1,0,
144,276,280711,1,0,
160,240,280876,1,0,
192,240,281042,1,0,
224,240,281208,1,0,
256,240,281374,2,0,L|256:240|288:240|288:352|128:352,1,300
256,352,282202,5,0,
256,208,282534,1,0,
256,64,282865,1,0,
400,64,283197,1,0,
400,96,283363,1,0,
400,128,283528,1,0,
400,160,283694,1,0,
400,304,284026,2,0,L|400:304|304:304|304:192|160:192,1,300
208,336,284854,1,0,
32,192,285517,1,0,
64,192,285683,2,0,L|64:192|272:192,1,200
480,192,286512,1,0,
336,192,286843,1,0,
192,192,287175,1,0,
112,80,287506,5,0,
256,80,287838,1,0,
400,80,288169,1,0,
400,112,288335,1,0,
400,144,288501,1,0,
400,176,288666,1,0,
400,208,288832,1,0,
256,208,289164,1,2,
112,208,289495,1,0,
112,240,289661,1,0,
112,272,289827,1,0,
112,304,289992,1,0,
112,336,290158,1,0,
256,336,290490,1,4,
400,336,290821,5,0,
368,304,290987,1,0,
336,272,291153,1,0,
304,240,291318,1,0,
272,208,291484,1,0,
160,112,291816,1,2,
32,32,292147,1,0,
64,32,292313,1,0,
96,32,292479,1,0,
128,32,292644,1,0,
160,32,292810,1,0,
304,32,293142,1,4,
448,32,293473,5,0,
416,64,293639,1,0,
384,96,293805,1,0,
352,128,293970,1,0,
320,160,294136,2,2,L|320:160|320:278|256:278|256:160,1,300
256,32,295131,1,0,
256,64,295296,1,0,
256,96,295462,1,0,
256,240,295793,1,0,
320,112,296125,1,0,
176,112,296456,1,0,
256,192,296788,1,0,
256,192,296954,1,0,
256,192,297119,1,0,
256,192,297285,1,0,
256,192,297451,1,0,
256,192,297617,1,0,
256,192,297782,1,0,
256,192,298114,12,0,302423
256,16,303086,2,0,L|256:16|256:320,1,300
