osu file format v12

[General]
AudioFilename: ji guan qiang.mp3
AudioLeadIn: 1000
PreviewTime: -1
Countdown: 0
SampleSet: Normal
StackLeniency: 0.3
Mode: 0
LetterboxInBreaks: 1

[Editor]
Bookmarks: 8293,8981
DistanceSpacing: 0.8
BeatDivisor: 4
GridSize: 8

[Metadata]
Title:ji guan qiang
TitleUnicode:♂ji guan qiang♂
Artist:Bliiy
ArtistUnicode:Bliiy
Creator:lkx_Shore
Version:We
Source:
Tags:aniki
BeatmapID:257280
BeatmapSetID:95880

[Difficulty]
HPDrainRate:4
CircleSize:4
OverallDifficulty:5
ApproachRate:9
SliderMultiplier:1.6
SliderTickRate:4

[Events]
//Background and Video events
Video,0,"♂boy?.flv"
0,0,"ahhh.jpg",0,0
//Break Periods
//Storyboard Layer 0 (Background)
//Storyboard Layer 1 (Fail)
//Storyboard Layer 2 (Pass)
//Storyboard Layer 3 (Foreground)
//Storyboard Sound Samples
//Background Colour Transformations
3,100,163,162,255

[TimingPoints]
106,250,4,1,0,100,1,0
106,-100,4,1,1,100,0,0
8981,-100,4,1,2,100,0,0

[Colours]
Combo1 : 255,150,0
Combo2 : 5,240,5
Combo3 : 5,5,240
Combo4 : 0,128,192
Combo5 : 240,5,5

[HitObjects]
440,72,106,2,0,B|504:72,5,40
416,72,481,1,0,0:0:0:0:
392,72,543,1,0,0:0:0:0:
368,72,606,1,0,0:0:0:0:
344,72,668,1,0,0:0:0:0:
320,72,731,5,0,0:0:0:0:
296,72,793,1,0,0:0:0:0:
272,72,856,1,0,0:0:0:0:
248,72,918,1,0,0:0:0:0:
224,72,981,1,0,0:0:0:0:
200,72,1043,5,0,0:0:0:0:
176,72,1106,1,0,0:0:0:0:
152,72,1168,1,0,0:0:0:0:
128,72,1231,1,0,0:0:0:0:
104,80,1293,1,0,0:0:0:0:
80,96,1356,5,0,0:0:0:0:
64,112,1418,1,0,0:0:0:0:
56,136,1481,1,0,0:0:0:0:
56,160,1543,1,0,0:0:0:0:
56,184,1606,1,0,0:0:0:0:
64,208,1668,5,0,0:0:0:0:
80,224,1731,1,0,0:0:0:0:
104,240,1793,1,0,0:0:0:0:
128,248,1856,1,0,0:0:0:0:
152,248,1918,1,0,0:0:0:0:
176,248,1981,5,0,0:0:0:0:
200,248,2043,1,0,0:0:0:0:
224,248,2106,1,0,0:0:0:0:
248,248,2168,1,0,0:0:0:0:
272,248,2231,1,0,0:0:0:0:
296,248,2293,1,0,0:0:0:0:
328,248,2356,6,0,B|328:288,11,40
400,248,3106,6,0,B|432:288,15,40
440,192,4106,6,0,B|480:192,15,40
440,152,5106,5,0,0:0:0:0:
432,120,5168,1,0,0:0:0:0:
408,88,5231,1,0,0:0:0:0:
368,80,5293,1,0,0:0:0:0:
336,96,5356,1,0,0:0:0:0:
336,128,5418,5,0,0:0:0:0:
336,160,5481,1,0,0:0:0:0:
336,192,5543,1,0,0:0:0:0:
336,224,5606,5,0,0:0:0:0:
336,256,5668,1,0,0:0:0:0:
336,288,5731,1,0,0:0:0:0:
336,320,5793,1,0,0:0:0:0:
336,352,5856,6,0,B|392:352,19,40
304,352,7106,5,0,0:0:0:0:
272,328,7168,1,0,0:0:0:0:
248,296,7231,1,0,0:0:0:0:
232,264,7293,1,0,0:0:0:0:
224,224,7356,1,0,0:0:0:0:
224,192,7418,5,0,0:0:0:0:
224,160,7481,1,0,0:0:0:0:
224,128,7543,1,0,0:0:0:0:
224,96,7606,1,0,0:0:0:0:
224,64,7668,5,0,0:0:0:0:
224,32,7731,1,0,0:0:0:0:
224,0,7793,1,0,0:0:0:0:
256,0,7856,6,0,B|296:0,5,40
224,0,8231,6,2,B|144:0|144:0|144:80|144:80|112:120|112:120|176:120|176:120|144:160|144:160|144:344,1,480,0|12,0:0|0:0,0:0:0:0:
