osu file format v14

[General]
AudioFilename: blends.mp3
AudioLeadIn: 0
PreviewTime: 46764
Countdown: 0
SampleSet: Soft
StackLeniency: 0.7
Mode: 0
LetterboxInBreaks: 0
WidescreenStoryboard: 0

[Editor]
DistanceSpacing: 1.5
BeatDivisor: 4
GridSize: 4
TimelineZoom: 1

[Metadata]
Title:Bon Appetit S (TV Size ver)
TitleUnicode:ぼなぺてぃーと♡S (TVサイズver)
Artist:Blend A
ArtistUnicode:ブレンド・A
Creator:Underforest
Version:Super
Source:ブレンド・S
Tags:Blend Burendo S Ace Opening Appétit 和氣あず未 Azumi Waki 鬼頭明里 Akari Kitou 春野杏 Anzu Haruno y0c1e Hifumi, Inc. こだまさおり 一ノ瀬久 二家本亮介 菊地亮太 伊藤“三代”タカシ Kodama Saori Ichinose Hisa Niiemoto Ryousuke Kikuchi Ryouta Itou "Mitsuyo" Takashi Left Sekaii Sekai Sekai-nyan Ascendance
BeatmapID:1435281
BeatmapSetID:678593

[Difficulty]
HPDrainRate:5
CircleSize:4
OverallDifficulty:6
ApproachRate:7.5
SliderMultiplier:2
SliderTickRate:2

[Events]
//Background and Video events
0,0,"bg.jpg",0,0
Video,110,"video.avi"
//Break Periods
//Storyboard Layer 0 (Background)
//Storyboard Layer 1 (Fail)
//Storyboard Layer 2 (Pass)
//Storyboard Layer 3 (Foreground)
//Storyboard Sound Samples

[TimingPoints]
630,394.736842105263,4,2,2,65,1,0
630,-133.333333333333,4,2,2,65,0,0
5366,-100,4,2,2,40,0,0
6551,-100,4,2,2,65,0,0
6945,-100,4,2,2,70,0,0
19577,-133.333333333333,4,2,2,65,0,0
32208,-133.333333333333,4,2,1,65,0,0
38524,-100,4,2,2,65,0,0
41682,-133.333333333333,4,2,2,65,0,0
44840,-100,4,2,2,65,0,0
47603,-133.333333333333,4,2,2,65,0,0
47998,-100,4,2,2,80,0,1
57669,-100,4,2,2,80,0,1
59051,-100,4,2,2,80,0,1
60235,-100,4,2,2,80,0,0
60629,-100,4,2,2,80,0,1
65366,-100,4,2,2,80,0,1
66945,-133.333333333333,4,2,2,80,0,1
72472,-100,4,2,2,80,0,1
73261,-100,4,2,2,70,0,0
85893,-133.333333333333,4,2,2,70,0,0
87669,-100,4,2,2,70,0,0

[Colours]
Combo1 : 199,238,43
Combo2 : 240,9,119
Combo3 : 37,160,235
Combo4 : 241,206,10
Combo5 : 210,49,234
SliderTrackOverride : 30,30,30
SliderBorder : 255,255,250

[HitObjects]
53,97,630,6,0,P|101:106|141:97,1,75.000002861023,4|8,1:0|0:3,0:0:0:0:
166,73,926,2,0,P|214:64|254:73,1,75.000002861023,4|0,0:3|0:0,0:0:0:0:
282,91,1222,1,8,0:3:0:0:
376,66,1419,6,0,L|365:169,1,75.000002861023,0|8,1:0|0:3,0:0:0:0:
340,181,1715,2,0,L|351:284,1,75.000002861023,8|0,0:3|0:0,0:0:0:0:
358,303,2011,1,4,0:3:0:0:
261,288,2209,6,0,B|223:280|223:280|179:286,1,75.000002861023,8|0,0:3|1:0,0:0:0:0:
146,313,2505,2,0,B|108:321|108:321|64:315,1,75.000002861023,8|0,0:3|0:0,0:0:0:0:
39,279,2801,1,8,0:3:0:0:
29,182,2998,6,0,P|21:139|35:101,1,75.000002861023,0|8,1:0|0:3,0:0:0:0:
123,80,3393,2,0,P|132:116|123:152,1,75.000002861023,4|0,0:3|1:0,0:0:0:0:
212,192,3788,6,0,L|296:199,1,75.000002861023,8|0,0:3|1:0,0:0:0:0:
333,184,4084,2,0,L|417:177,1,75.000002861023,4|0,0:3|0:0,0:0:0:0:
453,195,4380,1,8,0:3:0:0:
443,291,4577,6,0,P|414:303|347:294,1,75.000002861023,0|8,1:0|0:3,0:0:0:0:
276,278,4972,1,4,0:3:0:0:
307,370,5169,1,0,1:0:0:0:
344,218,5367,1,6,0:0:0:0:
256,192,5465,12,2,6551,0:0:0:0:
297,153,6946,6,0,P|231:158|178:132,1,100,4|8,1:0|0:0,0:0:0:0:
295,31,7340,2,0,P|344:23|391:37,1,100,2|10,1:2|0:0,0:0:0:0:
486,153,7735,2,0,L|476:283,1,100,2|8,1:2|0:0,0:0:0:0:
437,316,8031,2,0,B|387:326|387:326|308:310,1,100,2|0,0:2|0:0,0:0:0:0:
279,270,8327,1,10,0:0:0:0:
139,188,8525,6,0,L|122:84,1,100,4|10,1:0|0:0,0:0:0:0:
263,36,8919,2,0,L|246:134,1,100,4|10,1:2|0:0,0:0:0:0:
372,216,9314,2,0,L|355:112,1,100,4|10,1:2|0:0,0:0:0:0:
489,47,9709,2,0,L|472:145,1,100,2|10,1:2|0:0,0:0:0:0:
464,295,10104,6,0,P|423:328|348:332,1,100,4|10,1:0|0:0,0:0:0:0:
311,303,10400,2,0,P|264:284|166:313,1,150,2|10,0:2|0:0,0:0:0:0:
135,327,10794,1,0,0:0:0:0:
101,348,10893,2,0,L|79:221,1,100,2|10,1:2|0:0,0:0:0:0:
43,186,11189,2,0,L|60:87,1,100,2|0,0:2|0:0,0:0:0:0:
99,23,11485,1,10,0:0:0:0:
232,89,11682,6,0,P|280:74|358:94,1,100,4|10,1:0|0:1,0:0:0:0:
437,183,12077,2,0,P|389:168|311:188,1,100,4|10,1:0|0:1,0:0:0:0:
264,303,12472,2,0,P|312:288|390:308,1,100,4|10,1:0|0:1,0:0:0:0:
395,313,12768,1,8,0:0:0:0:
432,329,12867,2,0,L|502:321,3,50,10|8|10|8,0:1|0:0|0:1|0:0,0:0:0:0:
480,248,13261,6,0,B|492:199|492:199|471:145,1,100,4|8,1:0|0:0,0:0:0:0:
337,90,13656,2,0,B|319:136|319:136|331:185,1,100,2|8,1:2|0:0,0:0:0:0:
344,221,13952,1,0,0:0:0:0:
355,260,14051,2,0,L|254:252,1,100,2|8,1:2|0:0,0:0:0:0:
180,256,14347,2,0,L|80:263,1,100,2|0,0:0|0:0,0:0:0:0:
5,267,14643,1,10,0:0:0:0:
62,128,14840,6,0,P|110:104|200:121,1,100,6|8,1:2|0:0,0:0:0:0:
227,123,15136,2,0,P|285:148|340:140,1,100,2|0,0:0|0:0,0:0:0:0:
390,116,15432,1,10,0:0:0:0:
466,245,15630,2,0,L|460:375,1,100,2|10,1:2|0:0,0:0:0:0:
311,351,16025,2,0,L|315:251,1,100,2|10,1:2|0:0,0:0:0:0:
261,97,16419,5,0,1:0:0:0:
261,97,16617,1,0,1:0:0:0:
261,97,16814,2,0,L|140:112,1,100,12|0,0:1|0:0,0:0:0:0:
70,228,17209,5,0,1:0:0:0:
70,228,17406,1,0,1:0:0:0:
70,228,17604,2,0,L|191:243,1,100,12|0,0:1|0:0,0:0:0:0:
169,240,18196,6,0,P|214:289|279:291,1,100,8|0,0:0|1:0,0:0:0:0:
243,221,18492,2,0,P|288:172|353:170,1,100,8|0,0:0|1:0,0:0:0:0:
369,109,18788,2,0,L|356:329,1,200,12|0,0:1|0:0,0:0:0:0:
135,353,19577,5,4,0:1:0:0:
138,345,21156,5,4,0:0:0:0:
141,337,22735,5,4,0:0:0:0:
144,331,24314,5,4,0:0:0:0:
295,145,25104,6,0,L|188:142,1,75.0000028610231,4|0,0:1|0:0,0:0:0:0:
173,158,25400,1,8,0:3:0:0:
173,157,25498,2,0,P|158:206|169:246,1,75.0000028610231,4|8,0:3|0:3,0:0:0:0:
185,271,25794,1,8,0:3:0:0:
185,271,25893,6,0,P|233:275|287:284,1,75.0000028610231,4|8,1:0|0:3,0:0:0:0:
351,311,26288,2,0,P|399:307|453:298,1,75.0000028610231,0|8,1:0|0:3,0:0:0:0:
462,270,26584,1,0,0:0:0:0:
462,270,26682,2,0,L|474:180,1,75.0000028610231,8|4,0:3|0:3,0:0:0:0:
401,127,27077,2,0,L|391:52,1,75.0000028610231,8|0,0:3|1:0,0:0:0:0:
293,46,27472,6,0,P|247:60|124:27,1,150.000005722046,4|8,1:2|0:3,0:0:0:0:
71,103,28064,1,4,0:3:0:0:
71,103,28163,1,4,0:3:0:0:
71,103,28261,2,0,L|54:202,1,75.0000028610231,8|4,0:3|0:3,0:0:0:0:
92,269,28656,2,0,L|104:342,1,75.0000028610231,8|4,0:3|0:3,0:0:0:0:
202,342,29051,6,0,P|252:321|296:325,1,75.0000028610231,4|8,1:2|0:3,0:0:0:0:
369,317,29446,2,0,L|360:384,2,37.5000014305115,0|0|8,1:0|0:0|0:3,0:0:0:0:
403,225,29840,2,0,P|446:214|518:239,2,112.500004291535,8|0|8,0:3|0:0|0:0,0:0:0:0:
253,237,30630,5,12,0:0:0:0:
253,237,31419,2,0,L|263:117,2,112.500004291535,4|8|4,1:2|0:3|0:3,0:0:0:0:
335,185,32209,6,0,L|345:63,1,112.500004291535,4|0,0:1|0:0,0:0:0:0:
304,43,32604,2,0,P|266:28|209:41,1,75.0000028610231,8|0,0:0|0:0,0:0:0:0:
164,101,32998,2,0,P|132:107|55:64,1,112.500004291535,2|0,0:0|0:0,0:0:0:0:
16,56,33393,2,0,L|6:157,1,75.0000028610231,8|0,0:0|0:0,0:0:0:0:
61,212,33788,6,0,L|68:286,1,75.0000028610231,2|0,0:0|0:0,0:0:0:0:
134,358,34182,1,8,0:0:0:0:
214,302,34380,1,0,0:0:0:0:
294,356,34577,2,0,P|331:363|389:346,1,75.0000028610231,2|8,0:0|0:0,0:0:0:0:
406,327,34873,1,0,0:0:0:0:
406,327,34972,2,0,L|415:245,1,75.0000028610231,8|0,0:0|0:0,0:0:0:0:
373,163,35367,6,0,L|362:47,1,112.500004291535,6|0,0:0|0:0,0:0:0:0:
318,29,35761,2,0,P|281:38|230:27,1,75.0000028610231,8|0,0:0|0:0,0:0:0:0:
150,58,36156,2,0,P|108:46|30:61,1,112.500004291535,2|0,0:0|0:0,0:0:0:0:
24,101,36551,2,0,L|16:202,1,75.0000028610231,8|0,0:0|0:0,0:0:0:0:
49,267,36946,6,0,P|91:277|143:263,1,75.0000028610231,2|0,0:0|0:0,0:0:0:0:
215,243,37340,1,8,0:0:0:0:
253,332,37538,1,0,0:0:0:0:
346,302,37735,1,2,0:3:0:0:
360,297,38130,1,2,0:3:0:0:
372,292,38525,6,0,L|380:181,1,100,4|8,1:0|0:0,0:0:0:0:
251,114,38919,2,0,L|258:213,1,100,0|8,1:0|0:0,0:0:0:0:
159,327,39314,2,0,P|108:337|46:314,1,100,4|8,1:2|0:0,0:0:0:0:
57,174,39709,2,0,P|104:161|153:171,1,100,0|10,1:0|0:0,0:0:0:0:
286,101,40104,5,2,1:2:0:0:
403,193,40301,1,10,0:0:0:0:
286,101,40498,2,0,L|281:223,1,100,0|10,1:0|0:0,0:0:0:0:
399,292,40893,2,0,L|403:192,1,100,0|8,1:0|0:0,0:0:0:0:
402,151,41189,1,8,0:0:0:0:
399,111,41288,2,0,L|428:69,3,50,8|8|8|8,0:0|0:0|0:3|0:3,0:0:0:0:
343,51,41682,6,0,P|258:27|183:48,1,150.000005722046,4|8,1:0|0:0,0:0:0:0:
199,39,42472,2,0,L|185:213,1,150.000005722046,0|8,1:0|0:0,0:0:0:0:
256,257,43064,6,0,P|190:286|110:251,1,150.000005722046,4|0,1:2|1:0,0:0:0:0:
186,188,43656,2,0,P|154:167|87:171,1,75.0000028610231,8|0,0:0|0:0,0:0:0:0:
34,213,44051,2,0,L|23:347,2,112.500004291535,8|8|0,0:3|0:3|1:0,0:0:0:0:
42,84,44840,6,0,L|142:93,1,100,4|0,1:0|1:0,0:0:0:0:
281,36,45235,1,8,0:0:0:0:
281,36,45334,1,8,0:3:0:0:
281,36,45432,1,4,0:3:0:0:
348,170,45630,2,0,P|407:151|490:210,2,150,4|4|4,1:0|1:2|1:2,0:0:0:0:
212,233,46419,5,12,0:1:0:0:
212,233,47604,2,0,P|203:182|273:158,1,112.500004291535,2|0,0:3|0:0,0:0:0:0:
278,158,47998,6,0,P|344:163|397:137,1,100,6|8,1:1|0:0,0:0:0:0:
270,43,48393,2,0,P|221:35|174:49,1,100,0|10,1:0|0:0,0:0:0:0:
53,140,48788,2,0,L|63:270,1,100,2|8,1:2|0:0,0:0:0:0:
86,310,49084,2,0,B|138:320|138:320|215:304,1,100,2|0,0:0|0:0,0:0:0:0:
254,283,49380,1,10,0:0:0:0:
370,188,49577,6,0,L|387:84,1,100,4|10,1:2|0:0,0:0:0:0:
247,30,49972,2,0,L|264:128,1,100,4|10,1:2|0:0,0:0:0:0:
139,212,50367,2,0,L|156:108,1,100,4|10,1:2|0:0,0:0:0:0:
24,40,50761,2,0,L|41:138,1,100,4|10,1:2|0:0,0:0:0:0:
44,293,51156,6,0,P|85:326|160:330,1,100,4|10,1:0|0:0,0:0:0:0:
199,305,51452,2,0,P|246:286|344:315,1,150,2|10,0:0|0:0,0:0:0:0:
377,327,51847,1,0,0:0:0:0:
411,348,51946,2,0,L|433:221,1,100,2|8,1:2|0:0,0:0:0:0:
471,188,52242,2,0,L|454:89,1,100,2|0,0:0|0:0,0:0:0:0:
400,36,52538,1,8,0:0:0:0:
263,97,52735,6,0,P|215:82|137:102,1,100,4|10,1:0|0:1,0:0:0:0:
60,194,53130,2,0,P|108:179|186:199,1,100,4|10,1:0|0:1,0:0:0:0:
251,301,53525,2,0,P|203:286|125:306,1,100,4|10,1:0|0:1,0:0:0:0:
120,311,53821,1,8,0:0:0:0:
83,327,53919,2,0,L|13:319,3,50,10|8|10|8,0:1|0:0|0:1|0:0,0:0:0:0:
60,251,54314,6,0,B|48:202|48:202|69:148,1,100,4|10,1:0|0:0,0:0:0:0:
210,115,54709,2,0,B|228:161|228:161|216:210,1,100,2|8,1:2|0:0,0:0:0:0:
211,250,55005,1,0,0:0:0:0:
200,289,55104,2,0,L|301:281,1,100,0|10,1:0|0:0,0:0:0:0:
413,183,55498,2,0,L|313:176,1,100,0|10,1:0|0:0,0:0:0:0:
195,82,55893,6,0,P|147:58|57:75,1,100,4|10,1:2|0:0,0:0:0:0:
23,185,56288,2,0,P|25:234|48:278,1,100,2|8,1:2|0:0,0:0:0:0:
74,309,56584,1,0,0:0:0:0:
103,336,56682,2,0,L|220:342,1,100,2|10,1:2|0:2,0:0:0:0:
333,265,57077,2,0,L|432:259,1,100,0|10,1:0|0:2,0:0:0:0:
339,129,57472,5,0,1:0:0:0:
339,129,57670,1,0,1:0:0:0:
339,129,57867,2,0,L|218:144,1,100,12|0,0:1|0:0,0:0:0:0:
120,224,58262,5,0,1:0:0:0:
120,224,58459,1,0,1:0:0:0:
120,224,58657,2,0,L|241:239,1,100,12|0,0:1|0:0,0:0:0:0:
337,343,59051,6,0,P|409:351|492:317,2,150,12|4|10,0:1|0:3|0:0,0:0:0:0:
189,320,59840,2,0,L|161:275,3,50,2|0|2|8,1:0|0:0|0:0|0:3,0:0:0:0:
136,246,60235,2,0,L|126:189,3,50,2|2|10|2,1:0|0:0|0:1|0:0,0:0:0:0:
127,156,60630,6,0,P|177:146|243:137,1,100,6|8,1:1|0:0,0:0:0:0:
345,229,61025,2,0,P|295:236|246:246,1,100,0|10,1:0|0:0,0:0:0:0:
207,254,61321,1,0,0:0:0:0:
168,264,61419,2,0,L|161:380,1,100,2|8,1:2|0:0,0:0:0:0:
236,372,61715,2,0,P|294:353|360:366,1,100,2|0,0:0|0:0,0:0:0:0:
406,366,62011,1,10,0:2:0:0:
433,218,62209,6,0,P|449:157|411:85,1,100,4|10,1:2|0:0,0:0:0:0:
297,73,62604,2,0,P|285:120|299:168,1,100,4|10,1:2|0:0,0:0:0:0:
179,258,62998,2,0,P|126:272|54:234,1,100,4|10,1:2|0:0,0:0:0:0:
27,120,63393,2,0,P|74:108|122:122,1,100,4|10,1:2|0:0,0:0:0:0:
265,169,63788,6,0,L|388:176,1,100,4|8,1:0|0:0,0:0:0:0:
431,139,64084,2,0,B|451:188|451:188|428:287,1,150,2|10,0:0|0:0,0:0:0:0:
420,321,64479,1,0,0:0:0:0:
405,358,64577,2,0,P|346:366|298:351,1,100,0|8,1:0|0:0,0:0:0:0:
271,337,64873,1,4,0:3:0:0:
235,317,64972,2,0,L|168:322,3,50,8|8|8|8,0:0|2:0|0:0|0:0,0:0:0:0:
114,283,65367,6,0,L|88:64,1,200,12|12,0:1|0:1,0:0:0:0:
109,76,66156,2,0,L|132:274,1,200,12|12,0:1|0:1,0:0:0:0:
131,295,66946,6,0,P|173:281|227:289,1,75.0000028610231,4|2,1:0|0:0,0:0:0:0:
296,310,67340,2,0,L|307:186,1,112.500004291535,10|0,0:0|0:0,0:0:0:0:
298,149,67735,2,0,P|249:158|205:146,1,75.0000028610231,2|2,1:2|1:0,0:0:0:0:
153,86,68130,1,10,0:1:0:0:
153,86,68327,1,2,0:1:0:0:
99,166,68525,6,0,L|104:267,1,75.0000028610231,4|2,1:2|0:0,0:0:0:0:
155,323,68919,2,0,B|196:339|196:339|272:320,1,112.500004291535,10|0,0:0|0:0,0:0:0:0:
309,309,69314,2,0,P|316:264|306:218,1,75.0000028610231,2|2,1:2|1:0,0:0:0:0:
259,153,69709,1,10,0:1:0:0:
259,153,69906,1,2,0:1:0:0:
189,220,70104,6,0,L|24:200,2,150.000005722046,12|8|12,0:1|0:0|0:0,0:0:0:0:
357,149,71189,1,4,0:3:0:0:
183,90,71485,1,4,1:0:0:0:
183,90,72077,6,0,P|262:125|274:148,1,112.500004291535,10|2,0:0|0:0,0:0:0:0:
261,218,72472,2,0,L|215:265,3,50,0|4|8|8,1:0|0:3|0:3|0:3,0:0:0:0:
192,275,72866,2,0,L|136:282,3,50,8|8|8|8,0:0|0:0|0:0|0:0,0:0:0:0:
108,264,73261,6,0,L|100:153,1,100,4|8,1:0|0:0,0:0:0:0:
242,114,73656,2,0,L|235:213,1,100,0|10,1:0|0:0,0:0:0:0:
272,359,74051,2,0,P|223:364|171:342,1,100,2|8,1:2|0:0,0:0:0:0:
139,201,74446,2,0,P|188:196|234:213,1,100,0|10,1:0|0:0,0:0:0:0:
363,289,74840,6,0,L|488:278,1,100,2|8,1:2|0:0,0:0:0:0:
445,206,75136,2,0,P|458:148|440:98,1,100,2|0,0:0|0:0,0:0:0:0:
379,76,75432,1,8,0:0:0:0:
233,114,75630,2,0,B|195:102|195:102|117:118,1,100,2|10,1:2|0:0,0:0:0:0:
46,234,76025,1,10,0:0:0:0:
194,252,76222,1,10,0:0:0:0:
342,268,76419,6,0,P|395:311|485:287,2,150,4|4|12,1:0|1:0|0:1,0:0:0:0:
342,268,77406,1,10,0:0:0:0:
195,303,77604,1,10,0:0:0:0:
254,165,77801,1,10,0:0:0:0:
195,303,77998,6,0,P|142:260|52:284,2,150,4|4|12,1:0|1:0|0:1,0:0:0:0:
345,298,78788,2,0,P|398:341|488:317,2,150,0|0|10,0:0|0:0|0:0,0:0:0:0:
250,182,79577,6,0,L|213:41,1,100,4|8,1:0|0:0,0:0:0:0:
374,67,79972,2,0,L|399:163,1,100,0|10,1:0|0:0,0:0:0:0:
359,308,80367,2,0,L|322:167,1,100,2|8,1:2|0:2,0:0:0:0:
479,179,80761,2,0,L|504:275,1,100,2|10,1:2|0:2,0:0:0:0:
359,308,81156,6,0,P|297:291|238:307,1,100,2|8,1:2|0:0,0:0:0:0:
187,302,81452,2,0,L|171:200,1,100,2|0,0:0|0:0,0:0:0:0:
162,128,81748,1,8,0:0:0:0:
312,119,81946,2,0,L|419:103,1,100,2|8,1:2|0:0,0:0:0:0:
450,110,82242,1,8,0:3:0:0:
489,118,82340,2,0,P|496:157|490:191,3,50,8|4|4|0,0:3|0:3|0:3|1:0,0:0:0:0:
463,235,82735,6,0,P|407:264|284:213,1,200,4|8,1:0|0:0,0:0:0:0:
154,145,83327,1,8,0:3:0:0:
154,145,83426,1,8,0:3:0:0:
154,145,83525,2,0,B|209:107|223:51|223:51|252:95|314:78,1,200,4|8,1:0|0:0,0:0:0:0:
441,59,84117,1,8,0:3:0:0:
441,59,84215,1,4,0:3:0:0:
441,59,84314,6,0,L|457:164,1,100,2|10,1:2|0:0,0:0:0:0:
449,232,84610,2,0,P|410:263|313:250,1,150,8|4,0:0|0:3,0:0:0:0:
202,152,85104,2,0,P|145:140|98:148,1,100,0|2,1:0|1:2,0:0:0:0:
47,284,85498,1,10,0:0:0:0:
197,287,85696,1,8,0:0:0:0:
197,287,85794,1,8,0:0:0:0:
197,287,85893,6,0,B|247:282|247:282|291:302|291:302|359:292,2,150.000005722046,4|12|8,1:0|0:0|0:2,0:0:0:0:
270,74,87077,2,0,L|419:87,1,150.000005722046,12|8,0:0|0:2,0:0:0:0:
453,233,87669,6,0,P|473:279|451:342,1,100,12|0,0:0|0:0,0:0:0:0:
397,362,87965,2,0,P|353:370|296:346,1,100,12|0,0:0|0:0,0:0:0:0:
256,292,88261,1,12,0:1:0:0:
