osu file format v14

[General]
AudioFilename: blends.mp3
AudioLeadIn: 0
PreviewTime: 46764
Countdown: 0
SampleSet: Soft
StackLeniency: 0.7
Mode: 0
LetterboxInBreaks: 0
WidescreenStoryboard: 0

[Editor]
DistanceSpacing: 1.3
BeatDivisor: 4
GridSize: 8
TimelineZoom: 1.8

[Metadata]
Title:Bon Appetit S (TV Size ver)
TitleUnicode:ぼなぺてぃーと♡S (TVサイズver)
Artist:Blend A
ArtistUnicode:ブレンド・A
Creator:Underforest
Version:Special
Source:ブレンド・S
Tags:Blend Burendo S Ace Opening Appétit 和氣あず未 Azumi Waki 鬼頭明里 Akari Kitou 春野杏 Anzu Haruno y0c1e Hifumi, Inc. こだまさおり 一ノ瀬久 二家本亮介 菊地亮太 伊藤“三代”タカシ Kodama Saori Ichinose Hisa Niiemoto Ryousuke Kikuchi Ryouta Itou "Mitsuyo" Takashi Left Sekaii Sekai Sekai-nyan Ascendance
BeatmapID:1435895
BeatmapSetID:678593

[Difficulty]
HPDrainRate:6
CircleSize:4
OverallDifficulty:7.8
ApproachRate:9
SliderMultiplier:2.8
SliderTickRate:2

[Events]
//Background and Video events
0,0,"bg.jpg",0,0
Video,110,"video.avi"
//Break Periods
//Storyboard Layer 0 (Background)
//Storyboard Layer 1 (Fail)
//Storyboard Layer 2 (Pass)
//Storyboard Layer 3 (Foreground)
//Storyboard Sound Samples

[TimingPoints]
630,394.736842105263,4,2,2,65,1,0
630,-133.333333333333,4,2,2,65,0,0
5366,-133.333333333333,4,2,2,40,0,0
6551,-133.333333333333,4,2,2,65,0,0
6945,-100,4,2,2,70,0,0
16419,-133.333333333333,4,2,2,70,0,0
18195,-100,4,2,2,70,0,0
18787,-133.333333333333,4,2,2,70,0,0
19577,-133.333333333333,4,2,2,65,0,0
32208,-133.333333333333,4,2,1,65,0,0
38524,-100,4,2,2,65,0,0
41682,-133.333333333333,4,2,2,65,0,0
44840,-100,4,2,2,65,0,0
45926,-133.333333333333,4,2,2,65,0,0
46419,-100,4,2,2,65,0,0
47603,-133.333333333333,4,2,2,65,0,0
47998,-100,4,2,2,80,0,1
57669,-133.333333333333,4,2,2,80,0,1
59051,-100,4,2,2,80,0,1
60235,-100,4,2,2,80,0,0
60629,-100,4,2,2,80,0,1
65366,-133.333333333333,4,2,2,80,0,1
71485,-200,4,2,2,80,0,1
72472,-100,4,2,2,80,0,1
73261,-100,4,2,2,70,0,0
82735,-133.333333333333,4,2,2,70,0,0
87669,-100,4,2,2,70,0,0
88261,-200,4,2,2,70,0,0
88656,-200,4,2,2,5,0,0

[Colours]
Combo1 : 199,238,43
Combo2 : 240,9,119
Combo3 : 37,160,235
Combo4 : 241,206,10
Combo5 : 210,49,234
SliderTrackOverride : 30,30,30
SliderBorder : 255,255,250

[HitObjects]
200,115,630,6,0,P|174:126|91:82,1,105.000004005432,4|8,1:0|0:3,0:0:0:0:
76,106,926,1,4,0:3:0:0:
76,106,1025,2,0,L|68:191,1,52.5000020027161,0|0,1:0|0:0,0:0:0:0:
112,240,1222,2,0,L|107:292,1,52.5000020027161,8|0,0:3|0:0,0:0:0:0:
193,337,1420,6,0,P|219:326|302:370,1,105.000004005432,0|8,1:0|0:3,0:0:0:0:
317,346,1716,1,8,0:3:0:0:
317,346,1814,2,0,L|325:261,1,52.5000020027161,8|0,0:3|0:0,0:0:0:0:
281,212,2012,2,0,L|286:160,1,52.5000020027161,4|0,0:3|1:0,0:0:0:0:
345,85,2209,6,0,B|396:73|396:73|470:90,1,105.000004005432,8|0,0:3|1:0,0:0:0:0:
474,100,2505,1,8,0:3:0:0:
474,100,2604,2,0,L|482:185,1,52.5000020027161,8|0,0:3|0:0,0:0:0:0:
463,245,2801,2,0,L|468:297,1,52.5000020027161,8|0,0:3|0:0,0:0:0:0:
416,379,2999,5,0,1:0:0:0:
372,288,3196,1,8,0:3:0:0:
498,375,3393,1,4,0:3:0:0:
258,333,3788,6,0,L|151:327,1,105.000004005432,8|0,0:3|1:0,0:0:0:0:
130,326,4084,1,4,0:3:0:0:
130,326,4183,2,0,P|124:294|132:248,1,52.5000020027161,8|0,0:3|0:0,0:0:0:0:
175,193,4380,2,0,P|175:166|169:141,1,52.5000020027161,8|0,0:3|0:0,0:0:0:0:
101,62,4578,5,0,1:0:0:0:
101,62,4676,1,8,0:3:0:0:
101,62,4775,1,8,0:3:0:0:
45,273,4972,1,4,0:3:0:0:
270,199,5170,2,0,L|337:190,1,52.5000020027161,0|0,1:0|0:0,0:0:0:0:
420,151,5366,6,0,P|379:68|474:12,1,210.000008010865,6|2,0:0|0:0,0:0:0:0:
435,155,6156,2,0,P|476:238|428:285,1,157.500006008148,2|0,0:0|0:0,0:0:0:0:
414,285,6551,2,0,L|409:338,3,52.5000020027161,2|0|0|0,0:0|0:0|0:0|0:0,0:0:0:0:
391,266,6946,6,0,L|215:284,1,140,4|8,1:0|0:0,0:0:0:0:
176,330,7242,1,0,0:0:0:0:
176,330,7341,2,0,P|166:269|178:230,1,70,2|0,1:2|0:0,0:0:0:0:
216,189,7538,2,0,P|226:128|214:89,1,70,10|0,0:0|0:0,0:0:0:0:
161,54,7735,6,0,P|243:32|321:94,1,140,2|8,1:2|0:0,0:0:0:0:
350,124,8031,2,0,P|432:146|510:84,1,140,2|0,0:2|0:0,0:0:0:0:
416,49,8328,1,10,0:0:0:0:
183,145,8525,6,0,L|186:40,1,70,4|0,1:0|0:0,0:0:0:0:
36,25,8722,2,0,L|35:94,1,70,10|0,0:0|0:0,0:0:0:0:
172,140,8920,6,0,L|175:35,1,70,4|0,1:2|0:0,0:0:0:0:
47,32,9117,2,0,L|46:101,1,70,10|0,0:0|0:0,0:0:0:0:
163,135,9314,6,0,L|166:30,1,70,4|0,1:2|0:0,0:0:0:0:
58,40,9512,2,0,L|57:109,1,70,10|0,0:0|0:0,0:0:0:0:
153,128,9709,6,0,L|156:23,1,70,2|0,1:2|0:0,0:0:0:0:
68,48,9907,2,0,L|67:117,1,70,10|0,0:0|0:0,0:0:0:0:
133,234,10104,6,0,B|213:259|195:196|284:231,1,140,4|10,1:0|0:0,0:0:0:0:
321,304,10399,2,0,P|355:265|337:160,1,140,2|0,0:2|0:0,0:0:0:0:
329,95,10695,2,0,L|257:140,1,70,10|0,0:0|0:0,0:0:0:0:
269,225,10893,6,0,L|260:383,1,140,2|10,1:2|0:0,0:0:0:0:
186,306,11189,2,0,L|194:166,1,140,2|0,0:2|0:0,0:0:0:0:
150,79,11485,2,0,P|116:72|63:80,1,70,10|0,0:0|0:0,0:0:0:0:
241,51,11683,6,0,L|353:33,1,70,4|0,1:0|0:0,0:0:0:0:
431,113,11880,2,0,L|362:124,1,70,10|0,0:1|0:0,0:0:0:0:
265,172,12078,2,0,P|257:206|268:258,1,70,4|0,1:0|0:0,0:0:0:0:
386,282,12275,2,0,P|394:248|383:196,1,70,10|0,0:1|0:0,0:0:0:0:
318,334,12472,6,0,P|368:368|464:318,1,140,4|10,1:0|0:1,0:0:0:0:
465,268,12768,1,8,0:0:0:0:
451,165,12867,2,0,P|416:143|371:133,1,70,10|8,0:1|0:0,0:0:0:0:
306,120,13064,2,0,P|271:142|226:152,1,70,10|8,0:1|0:0,0:0:0:0:
159,150,13262,6,0,P|103:173|119:299,1,140,4|8,1:0|0:0,0:0:0:0:
123,323,13558,1,0,0:0:0:0:
123,323,13657,2,0,L|218:340,1,70,2|0,1:2|0:0,0:0:0:0:
280,301,13854,2,0,L|349:288,1,70,8|0,0:0|0:0,0:0:0:0:
422,227,14051,6,0,P|438:168|384:111,1,140,2|8,1:2|0:0,0:0:0:0:
296,118,14347,2,0,P|243:130|212:121,2,70,2|0|0,0:0|1:0|0:0,0:0:0:0:
255,42,14643,2,0,P|202:30|171:39,1,70,10|0,0:0|0:0,0:0:0:0:
213,139,14841,6,0,P|208:211|301:239,1,140,6|8,1:2|0:0,0:0:0:0:
355,230,15137,1,2,0:0:0:0:
355,230,15235,2,0,P|386:233|439:217,1,70,0|0,1:0|0:0,0:0:0:0:
417,129,15433,2,0,P|386:126|333:142,1,70,10|0,0:0|0:0,0:0:0:0:
274,178,15630,6,0,L|266:92,1,70,2|0,1:2|0:0,0:0:0:0:
172,78,15828,2,0,L|179:147,1,70,10|0,0:0|0:0,0:0:0:0:
203,297,16025,2,0,L|195:211,1,70,2|0,1:2|0:0,0:0:0:0:
108,194,16222,2,0,L|115:263,1,70,10|0,0:0|0:0,0:0:0:0:
254,370,16420,5,0,1:0:0:0:
254,370,16617,1,0,1:0:0:0:
344,249,16814,2,0,P|393:239|468:258,1,105.000004005432,12|0,0:1|0:0,0:0:0:0:
251,75,17209,5,0,1:0:0:0:
251,75,17407,1,0,1:0:0:0:
161,196,17604,2,0,P|112:206|37:187,1,105.000004005432,12|0,0:1|0:0,0:0:0:0:
58,197,17899,1,8,0:3:0:0:
58,197,17998,1,4,0:3:0:0:
244,156,18196,6,0,L|233:297,1,140,8|0,0:0|1:0,0:0:0:0:
341,217,18492,2,0,L|352:358,1,140,8|0,0:0|1:0,0:0:0:0:
437,236,18788,2,0,P|419:146|290:132,1,210.000008010865,12|0,0:1|0:0,0:0:0:0:
120,352,19578,5,4,0:1:0:0:
392,352,21157,5,4,0:0:0:0:
392,32,22735,5,4,0:0:0:0:
120,32,24314,5,4,0:0:0:0:
120,32,25104,6,0,L|137:182,1,105.000004005432,4|0,0:1|0:0,0:0:0:0:
131,136,25400,1,8,0:3:0:0:
131,136,25499,1,4,0:3:0:0:
265,181,25696,2,0,L|356:173,1,52.5000020027161,8|8,0:3|0:3,0:0:0:0:
438,204,25893,1,4,1:0:0:0:
438,204,26091,6,0,L|453:148,1,52.5000020027161,8|4,0:3|0:3,0:0:0:0:
382,78,26288,2,0,L|367:22,1,52.5000020027161,0|8,1:0|0:3,0:0:0:0:
470,51,26485,1,8,0:3:0:0:
350,195,26683,6,0,P|313:222|267:228,1,52.5000020027161,8|8,0:3|0:3,0:0:0:0:
230,159,26880,2,0,P|193:132|147:126,1,52.5000020027161,4|8,0:3|0:3,0:0:0:0:
88,176,27078,1,8,0:3:0:0:
167,335,27275,2,0,L|229:339,1,52.5000020027161,0|0,1:0|1:0,0:0:0:0:
318,346,27472,5,4,1:2:0:0:
438,261,27670,2,0,L|449:226,4,26.2500010013581,8|0|8|0|8,0:3|0:0|0:3|0:0|0:3,0:0:0:0:
357,125,28064,1,4,0:3:0:0:
357,125,28163,1,4,0:3:0:0:
357,125,28262,6,0,L|285:130,1,52.5000020027161,8|8,0:3|0:3,0:0:0:0:
196,163,28459,1,4,0:3:0:0:
196,163,28657,2,0,L|203:221,1,52.5000020027161,8|8,0:3|0:3,0:0:0:0:
308,278,28854,2,0,L|301:210,1,52.5000020027161,4|4,0:3|0:3,0:0:0:0:
304,128,29051,5,4,1:2:0:0:
121,83,29249,1,8,0:3:0:0:
121,83,29347,1,4,0:3:0:0:
121,83,29446,2,0,L|130:17,1,52.5000020027161,0|0,1:0|0:0,0:0:0:0:
190,156,29643,2,0,L|182:208,1,52.5000020027161,8|8,0:3|0:3,0:0:0:0:
266,97,29841,6,0,L|273:44,1,52.5000020027161,8|8,0:3|0:3,0:0:0:0:
335,169,30038,1,8,0:3:0:0:
335,169,30235,2,0,P|296:193|257:191,1,52.5000020027161,8|8,0:0|0:0,0:0:0:0:
190,156,30433,2,0,P|151:132|112:134,1,52.5000020027161,8|8,0:0|0:0,0:0:0:0:
92,243,30630,5,12,0:0:0:0:
92,243,31420,6,0,L|106:75,1,157.500006008148,4|8,1:2|0:3,0:0:0:0:
181,120,31814,2,0,L|171:236,1,105.000004005432,4|4,0:3|0:3,0:0:0:0:
366,312,32209,6,0,P|319:338|209:288,1,157.500006008148,4|0,0:1|0:0,0:0:0:0:
297,243,32604,2,0,P|341:219|404:224,1,105.000004005432,8|0,0:0|0:0,0:0:0:0:
299,102,32999,2,0,P|325:148|275:258,1,157.500006008148,2|0,0:0|0:0,0:0:0:0:
230,170,33393,2,0,P|206:126|211:63,1,105.000004005432,8|0,0:0|0:0,0:0:0:0:
340,12,33788,5,2,0:0:0:0:
340,12,33985,1,0,0:0:0:0:
416,191,34183,1,8,0:0:0:0:
416,191,34380,1,0,0:0:0:0:
230,170,34578,2,0,L|105:162,1,105.000004005432,2|8,0:0|0:0,0:0:0:0:
74,231,34874,1,0,0:0:0:0:
74,231,34972,2,0,P|57:283|84:351,1,105.000004005432,8|0,0:0|0:0,0:0:0:0:
141,166,35366,6,0,P|81:136|33:145,1,105.000004005432,6|0,0:0|0:0,0:0:0:0:
74,231,35662,1,0,0:0:0:0:
74,231,35761,2,0,P|136:264|206:237,1,105.000004005432,8|0,0:0|0:0,0:0:0:0:
318,151,36156,2,0,P|348:91|339:42,1,105.000004005432,2|0,0:0|0:0,0:0:0:0:
252,83,36452,1,0,0:0:0:0:
252,83,36551,2,0,P|219:145|246:215,1,105.000004005432,8|0,0:0|0:0,0:0:0:0:
226,360,36946,5,2,0:0:0:0:
322,243,37143,1,0,0:0:0:0:
322,243,37242,1,0,0:0:0:0:
322,243,37341,1,8,0:0:0:0:
168,280,37538,1,0,0:0:0:0:
401,324,37735,1,2,0:3:0:0:
422,319,38130,1,2,0:3:0:0:
445,313,38525,6,0,L|453:228,1,70,4|0,1:0|0:0,0:0:0:0:
409,158,38722,2,0,L|401:73,1,70,8|0,0:0|0:0,0:0:0:0:
319,55,38920,2,0,P|274:48|228:62,1,70,0|0,1:0|0:0,0:0:0:0:
214,140,39117,2,0,P|248:144|282:137,1,70,8|0,0:0|0:0,0:0:0:0:
153,88,39314,6,0,L|159:18,1,70,4|0,1:2|0:0,0:0:0:0:
75,48,39512,2,0,L|68:117,1,70,8|0,0:0|0:0,0:0:0:0:
132,233,39709,2,0,L|138:163,1,70,0|0,1:0|0:0,0:0:0:0:
222,133,39907,2,0,L|215:202,1,70,10|0,0:0|0:0,0:0:0:0:
247,289,40104,6,0,B|283:294|283:294|328:288,1,70,2|0,1:2|0:0,0:0:0:0:
390,189,40301,2,0,B|356:184|356:184|320:189,1,70,10|0,0:0|0:0,0:0:0:0:
241,299,40499,6,0,B|277:304|277:304|322:298,1,70,0|0,1:0|0:0,0:0:0:0:
398,181,40696,2,0,B|364:176|364:176|328:181,1,70,10|0,0:0|0:0,0:0:0:0:
233,307,40893,5,0,1:0:0:0:
122,144,41091,1,8,0:0:0:0:
122,144,41189,1,8,0:0:0:0:
122,144,41288,2,0,L|118:221,1,70,8|8,0:0|0:0,0:0:0:0:
85,293,41485,2,0,L|81:370,1,70,8|8,0:3|0:3,0:0:0:0:
159,347,41683,6,0,B|261:366|261:366|318:371|372:324,1,210.000008010865,4|8,1:0|0:0,0:0:0:0:
432,98,42472,2,0,P|365:65|280:101,1,157.500006008148,0|0,1:0|1:0,0:0:0:0:
265,124,42867,1,8,0:0:0:0:
316,283,43064,6,0,B|334:283|358:308|358:308|396:219|341:109,1,210.000008010865,4|0,1:2|1:0,0:0:0:0:
218,57,43657,2,0,L|92:48,1,105.000004005432,8|0,0:0|0:0,0:0:0:0:
76,176,44051,2,0,L|255:186,1,157.500006008148,8|8,0:3|0:3,0:0:0:0:
275,186,44446,1,4,0:3:0:0:
443,162,44643,1,0,1:0:0:0:
335,51,44841,5,4,1:0:0:0:
386,244,45038,1,0,1:0:0:0:
455,84,45235,1,8,0:0:0:0:
455,84,45334,1,8,0:3:0:0:
455,84,45433,1,4,0:3:0:0:
273,165,45630,6,0,L|137:135,1,140,4|0,1:0|0:0,0:0:0:0:
144,124,45926,6,0,L|272:100,1,105.000004005432,4|0,1:2|0:0,0:0:0:0:
250,93,46222,6,0,L|184:77,1,52.5000020027161,4|0,1:2|0:0,0:0:0:0:
87,52,46420,5,12,0:1:0:0:
87,52,47604,6,0,P|34:118|82:165,1,157.500006008148,2|0,0:3|0:0,0:0:0:0:
104,174,47999,6,0,L|86:350,1,140,6|8,1:1|0:0,0:0:0:0:
168,352,48295,1,0,0:0:0:0:
172,355,48393,2,0,P|233:365|272:353,1,70,0|0,1:0|0:0,0:0:0:0:
309,312,48591,2,0,P|370:302|409:314,1,70,10|0,0:0|0:0,0:0:0:0:
408,227,48788,6,0,P|325:216|236:260,1,140,2|8,1:2|0:0,0:0:0:0:
190,217,49084,2,0,P|107:228|18:184,1,140,2|0,0:0|0:0,0:0:0:0:
21,131,49380,1,10,0:0:0:0:
329,145,49578,6,0,L|326:40,1,70,4|0,1:2|0:0,0:0:0:0:
476,25,49775,2,0,L|477:94,1,70,10|0,0:0|0:0,0:0:0:0:
340,140,49972,6,0,L|337:35,1,70,4|0,1:2|0:0,0:0:0:0:
465,32,50170,2,0,L|466:101,1,70,10|0,0:0|0:0,0:0:0:0:
349,135,50367,6,0,L|346:30,1,70,4|0,1:2|0:0,0:0:0:0:
454,40,50564,2,0,L|455:109,1,70,10|0,0:0|0:0,0:0:0:0:
359,128,50762,6,0,L|356:23,1,70,4|0,1:2|0:0,0:0:0:0:
444,48,50959,2,0,L|445:117,1,70,10|0,0:0|0:0,0:0:0:0:
379,234,51157,6,0,B|299:259|317:196|228:231,1,140,4|10,1:0|0:0,0:0:0:0:
191,304,51453,2,0,P|157:265|175:160,1,140,2|0,0:0|0:0,0:0:0:0:
183,95,51748,2,0,L|255:140,1,70,10|0,0:0|0:0,0:0:0:0:
243,225,51946,6,0,L|252:383,1,140,2|8,1:2|0:0,0:0:0:0:
326,306,52242,2,0,L|318:166,1,140,2|0,0:0|0:0,0:0:0:0:
362,79,52538,2,0,P|396:72|449:80,1,70,8|0,0:0|0:0,0:0:0:0:
271,51,52735,6,0,L|159:33,1,70,4|0,1:0|0:0,0:0:0:0:
81,113,52933,2,0,L|150:124,1,70,10|0,0:1|0:0,0:0:0:0:
247,172,53130,2,0,P|255:206|244:258,1,70,4|0,1:0|0:0,0:0:0:0:
126,282,53328,2,0,P|118:248|129:196,1,70,10|0,0:1|0:0,0:0:0:0:
194,334,53525,6,0,P|144:368|48:318,1,140,4|10,1:0|0:1,0:0:0:0:
47,268,53821,1,8,0:0:0:0:
61,165,53920,2,0,P|96:143|141:133,1,70,10|8,0:1|0:0,0:0:0:0:
206,120,54117,2,0,P|241:142|286:152,1,70,10|8,0:1|0:0,0:0:0:0:
352,163,54314,6,0,P|408:186|392:312,1,140,4|10,1:0|0:0,0:0:0:0:
379,324,54610,1,0,0:0:0:0:
379,324,54709,2,0,L|284:341,1,70,2|0,1:2|0:0,0:0:0:0:
232,301,54907,2,0,L|163:288,1,70,8|0,0:0|0:0,0:0:0:0:
90,227,55104,6,0,P|74:168|83:137,1,70,0|0,1:0|0:0,0:0:0:0:
151,75,55301,2,0,P|167:134|158:165,1,70,10|0,0:0|0:0,0:0:0:0:
272,214,55499,2,0,P|256:155|265:124,1,70,0|0,1:0|0:0,0:0:0:0:
333,62,55696,2,0,P|349:121|340:152,1,70,10|0,0:0|0:0,0:0:0:0:
351,256,55893,6,0,P|305:294|191:255,1,140,4|10,1:2|0:0,0:0:0:0:
157,230,56189,1,0,0:0:0:0:
157,230,56288,2,0,P|126:233|73:217,1,70,2|0,1:2|0:0,0:0:0:0:
95,129,56485,2,0,P|126:126|179:142,1,70,8|0,0:0|0:0,0:0:0:0:
247,181,56683,6,0,L|255:95,1,70,2|0,1:2|0:0,0:0:0:0:
342,78,56880,2,0,L|335:147,1,70,10|0,0:2|0:0,0:0:0:0:
309,297,57078,2,0,L|317:211,1,70,0|0,1:0|0:0,0:0:0:0:
404,194,57275,2,0,L|397:263,1,70,10|0,0:2|0:0,0:0:0:0:
314,381,57472,5,0,1:0:0:0:
314,381,57670,1,0,1:0:0:0:
137,309,57867,2,0,L|-8:294,1,105.000004005432,12|0,0:1|0:0,0:0:0:0:
221,208,58262,5,0,1:0:0:0:
221,208,58459,1,0,1:0:0:0:
398,136,58657,2,0,L|543:121,1,105.000004005432,12|0,0:1|0:0,0:0:0:0:
410,264,59051,6,0,B|352:287|352:287|271:265,1,140,12|0,0:1|0:0,0:0:0:0:
191,203,59347,2,0,L|178:346,1,140,4|0,0:3|0:0,0:0:0:0:
101,212,59643,2,0,L|112:121,1,70,10|0,0:0|0:0,0:0:0:0:
203,102,59841,5,2,1:0:0:0:
220,89,59939,1,0,0:0:0:0:
239,82,60038,1,2,0:0:0:0:
260,79,60137,1,8,0:3:0:0:
282,80,60235,5,2,1:0:0:0:
352,108,60334,1,2,0:0:0:0:
395,172,60433,1,10,0:1:0:0:
388,248,60532,1,2,0:0:0:0:
327,297,60630,6,0,B|303:287|277:306|277:306|286:251|243:221,1,140,6|8,1:1|0:0,0:0:0:0:
190,171,60926,1,0,0:0:0:0:
190,171,61025,2,0,L|99:181,1,70,0|0,1:0|0:0,0:0:0:0:
82,93,61222,2,0,L|151:85,1,70,10|0,0:0|0:0,0:0:0:0:
120,178,61420,6,0,P|95:231|129:315,1,140,2|8,1:2|0:0,0:0:0:0:
182,241,61716,2,0,L|332:255,1,140,2|0,0:0|0:0,0:0:0:0:
411,262,62012,1,10,0:2:0:0:
202,142,62209,6,0,P|219:84|205:45,1,70,4|0,1:2|0:0,0:0:0:0:
64,47,62407,2,0,P|47:105|61:144,1,70,10|0,0:0|0:0,0:0:0:0:
190,148,62604,6,0,P|207:90|193:51,1,70,4|0,1:2|0:0,0:0:0:0:
71,59,62801,2,0,P|54:117|68:156,1,70,10|0,0:0|0:0,0:0:0:0:
179,152,62999,6,0,P|196:94|182:55,1,70,4|0,1:2|0:0,0:0:0:0:
77,69,63196,2,0,P|60:127|74:166,1,70,10|0,0:0|0:0,0:0:0:0:
164,159,63393,6,0,P|181:101|167:62,1,70,4|0,1:2|0:0,0:0:0:0:
86,80,63591,2,0,P|69:138|83:177,1,70,10|0,0:0|0:0,0:0:0:0:
162,253,63788,6,0,L|340:243,1,140,4|8,1:0|0:0,0:0:0:0:
357,174,64084,2,0,P|387:221|352:320,1,140,2|0,0:0|0:0,0:0:0:0:
287,334,64379,2,0,L|211:341,1,70,10|0,0:0|0:0,0:0:0:0:
162,253,64578,6,0,P|107:251|53:156,1,140,0|8,1:0|0:0,0:0:0:0:
139,170,64874,1,4,0:3:0:0:
224,153,64972,2,0,L|294:151,1,70,8|8,0:0|2:0,0:0:0:0:
402,51,65170,2,0,L|332:49,1,70,8|8,0:0|0:0,0:0:0:0:
457,156,65366,5,12,0:1:0:0:
457,156,65761,1,12,0:1:0:0:
256,364,66156,5,12,0:1:0:0:
256,364,66551,1,12,0:1:0:0:
54,155,66946,6,0,P|108:135|188:156,1,105.000004005432,4|2,1:0|0:0,0:0:0:0:
303,112,67341,2,0,L|295:286,1,157.500006008148,10|0,0:0|0:0,0:0:0:0:
309,309,67735,2,0,P|360:320|428:296,1,105.000004005432,2|2,1:2|1:0,0:0:0:0:
501,206,68130,1,10,0:1:0:0:
371,237,68328,1,2,0:1:0:0:
501,206,68525,6,0,P|492:125|487:92,1,105.000004005432,4|2,1:2|0:0,0:0:0:0:
356,34,68920,2,0,L|336:196,1,157.500006008148,10|0,0:0|0:0,0:0:0:0:
321,228,69314,2,0,P|277:237|202:217,1,105.000004005432,2|2,1:2|1:0,0:0:0:0:
123,135,69709,1,10,0:1:0:0:
269,152,69907,1,2,0:1:0:0:
99,234,70104,5,12,0:1:0:0:
105,254,70499,1,8,0:0:0:0:
112,274,70893,1,12,0:0:0:0:
189,136,71189,1,4,0:3:0:0:
194,140,71485,6,0,B|237:132|237:132|285:152|285:152|333:142,1,140,4|0,1:0|1:0,0:0:0:0:
440,274,72078,2,0,P|414:300|323:318,1,105,10|2,0:0|0:0,0:0:0:0:
317,327,72472,5,0,1:0:0:0:
303,331,72571,1,4,0:3:0:0:
290,334,72670,1,8,0:3:0:0:
276,336,72768,1,8,0:3:0:0:
262,338,72867,5,8,0:0:0:0:
179,347,72966,1,8,0:0:0:0:
106,310,73064,1,8,0:0:0:0:
65,237,73163,1,8,0:0:0:0:
72,155,73262,6,0,P|112:151|194:137,1,70,4|0,1:0|0:0,0:0:0:0:
215,78,73459,2,0,P|249:82|284:86,1,70,8|0,0:0|0:0,0:0:0:0:
352,163,73657,2,0,P|392:159|474:145,1,70,0|0,1:0|0:0,0:0:0:0:
492,71,73854,2,0,P|452:67|370:53,1,70,10|0,0:0|0:0,0:0:0:0:
421,154,74051,6,0,P|428:193|410:246,1,70,2|0,1:2|0:0,0:0:0:0:
332,297,74249,2,0,P|325:258|343:205,1,70,8|0,0:0|0:0,0:0:0:0:
225,178,74446,2,0,P|232:217|214:270,1,70,0|0,1:0|0:0,0:0:0:0:
158,310,74643,2,0,P|152:344|159:378,1,70,10|0,0:0|0:0,0:0:0:0:
247,338,74841,6,0,P|281:375|390:369,1,140,2|8,1:2|0:0,0:0:0:0:
413,312,75137,1,2,0:0:0:0:
413,312,75235,2,0,L|427:237,1,70,0|0,1:0|0:0,0:0:0:0:
383,165,75433,2,0,L|369:90,1,70,8|0,0:0|0:0,0:0:0:0:
428,37,75630,6,0,P|363:65|263:30,1,140,2|10,1:2|0:0,0:0:0:0:
215,38,75926,1,0,0:0:0:0:
215,38,76025,2,0,L|210:147,1,70,10|0,0:0|0:0,0:0:0:0:
198,195,76222,1,10,0:0:0:0:
210,212,76321,1,0,0:0:0:0:
224,224,76420,6,0,P|223:268|301:325,1,140,4|0,1:0|0:0,0:0:0:0:
299,246,76716,2,0,L|439:233,1,140,4|0,1:0|0:0,0:0:0:0:
357,152,77011,1,12,0:1:0:0:
134,118,77407,6,0,P|90:111|37:107,1,70,10|0,0:0|0:0,0:0:0:0:
205,187,77604,2,0,P|249:180|302:176,1,70,10|0,0:0|0:0,0:0:0:0:
120,237,77801,2,0,P|76:230|23:226,1,70,10|0,0:0|0:0,0:0:0:0:
218,287,77999,6,0,B|278:319|278:319|361:283,1,140,4|0,1:0|0:0,0:0:0:0:
407,180,78295,2,0,B|340:151|340:151|280:183,1,140,4|0,1:0|0:0,0:0:0:0:
409,252,78591,1,12,0:1:0:0:
285,361,78788,6,0,P|228:381|148:330,1,140,0|10,0:0|0:0,0:0:0:0:
229,293,79084,1,0,0:0:0:0:
229,293,79183,2,0,L|316:279,1,70,2|0,1:2|0:0,0:0:0:0:
380,242,79380,2,0,L|471:249,1,70,10|0,0:0|0:0,0:0:0:0:
440,155,79577,6,0,P|400:151|318:137,1,70,4|0,1:0|0:0,0:0:0:0:
297,78,79774,2,0,L|262:82|227:86,1,70,8|0,0:0|0:0,0:0:0:0:
160,163,79971,2,0,P|120:159|38:145,1,70,0|0,1:0|0:0,0:0:0:0:
20,71,80169,2,0,P|60:67|142:53,1,70,10|0,0:0|0:0,0:0:0:0:
91,154,80366,6,0,P|84:193|102:246,1,70,2|0,1:2|0:0,0:0:0:0:
180,297,80563,2,0,P|187:258|169:205,1,70,8|0,0:2|0:0,0:0:0:0:
287,178,80761,2,0,P|280:217|298:270,1,70,2|0,1:2|0:0,0:0:0:0:
354,310,80958,2,0,P|359:344|352:378,1,70,10|0,0:2|0:0,0:0:0:0:
265,338,81155,6,0,P|231:375|122:369,1,140,2|8,1:2|0:0,0:0:0:0:
99,312,81452,1,2,0:0:0:0:
99,312,81550,2,0,L|85:237,1,70,0|0,1:0|0:0,0:0:0:0:
129,165,81748,2,0,L|143:90,1,70,8|0,0:0|0:0,0:0:0:0:
84,37,81946,6,0,P|149:65|249:30,1,140,2|8,1:2|0:0,0:0:0:0:
300,36,82242,1,8,0:3:0:0:
379,64,82341,1,8,0:3:0:0:
429,130,82439,1,4,0:3:0:0:
399,207,82537,2,0,L|383:283,1,70,4|0,0:3|1:0,0:0:0:0:
457,344,82735,6,0,P|380:376|287:293,1,210.000008010865,4|8,1:0|0:0,0:0:0:0:
191,207,83328,1,8,0:3:0:0:
191,207,83426,1,8,0:3:0:0:
191,207,83525,2,0,P|174:144|296:55,1,210.000008010865,4|8,1:0|0:0,0:0:0:0:
368,161,84117,1,8,0:3:0:0:
368,161,84216,1,4,0:3:0:0:
368,161,84314,6,0,L|254:146,1,105.000004005432,2|10,1:2|0:0,0:0:0:0:
278,244,84610,2,0,L|355:253,1,52.5000020027161,8|8,0:0|0:0,0:0:0:0:
429,257,84808,1,8,0:3:0:0:
429,257,84907,2,0,P|449:209|449:175,1,52.5000020027161,4|4,0:3|0:3,0:0:0:0:
433,121,85104,5,0,1:0:0:0:
291,181,85301,1,2,1:2:0:0:
291,181,85400,1,0,0:0:0:0:
291,181,85499,2,0,P|300:117|296:90,1,52.5000020027161,10|0,0:0|0:0,0:0:0:0:
178,184,85696,2,0,P|180:210|187:235,1,52.5000020027161,8|8,0:0|0:0,0:0:0:0:
281,300,85893,6,0,P|340:326|478:268,1,210.000008010865,4|12,1:0|0:0,0:0:0:0:
231,84,86683,2,0,P|172:58|34:116,1,210.000008010865,8|12,0:2|0:0,0:0:0:0:
27,273,87275,1,0,0:0:0:0:
167,210,87472,1,8,0:2:0:0:
167,210,87670,6,0,L|339:231,1,140,12|0,0:0|0:0,0:0:0:0:
400,123,87966,6,0,L|228:144,1,140,12|0,0:0|0:0,0:0:0:0:
178,43,88261,6,0,L|323:61,1,140,12|0,0:1|0:0,0:0:0:0:
