osu file format v14

[General]
AudioFilename: blends.mp3
AudioLeadIn: 0
PreviewTime: 46764
Countdown: 0
SampleSet: Soft
StackLeniency: 0.7
Mode: 0
LetterboxInBreaks: 0
WidescreenStoryboard: 0

[Editor]
DistanceSpacing: 1
BeatDivisor: 8
GridSize: 8
TimelineZoom: 1

[Metadata]
Title:Bon Appetit S (TV Size ver)
TitleUnicode:ぼなぺてぃーと♡S (TVサイズver)
Artist:Blend A
ArtistUnicode:ブレンド・A
Creator:Underforest
Version:Simple
Source:ブレンド・S
Tags:Blend Burendo S Ace Opening Appétit 和氣あず未 Azumi Waki 鬼頭明里 Akari Kitou 春野杏 Anzu Haruno y0c1e Hifumi, Inc. こだまさおり 一ノ瀬久 二家本亮介 菊地亮太 伊藤“三代”タカシ Kodama Saori Ichinose Hisa Niiemoto Ryousuke Kikuchi Ryouta Itou "Mitsuyo" Takashi Left Sekaii Sekai Sekai-nyan Ascendance
BeatmapID:1435283
BeatmapSetID:678593

[Difficulty]
HPDrainRate:3
CircleSize:2.5
OverallDifficulty:3
ApproachRate:4
SliderMultiplier:1.2
SliderTickRate:2

[Events]
//Background and Video events
0,0,"bg.jpg",0,0
Video,110,"video.avi"
//Break Periods
//Storyboard Layer 0 (Background)
//Storyboard Layer 1 (Fail)
//Storyboard Layer 2 (Pass)
//Storyboard Layer 3 (Foreground)
//Storyboard Sound Samples

[TimingPoints]
630,394.736842105263,4,2,2,65,1,0
5366,-100,4,2,2,40,0,0
6945,-100,4,2,2,70,0,0
19577,-100,4,2,2,65,0,0
32208,-100,4,2,1,65,0,0
38524,-100,4,2,2,65,0,0
41682,-100,4,2,2,65,0,0
44840,-100,4,2,2,65,0,0
47998,-100,4,2,2,80,0,1
57669,-100,4,2,2,80,0,1
59051,-100,4,2,2,80,0,1
60235,-100,4,2,2,80,0,0
60629,-100,4,2,2,80,0,1
65366,-100,4,2,2,80,0,1
66945,-100,4,2,2,80,0,1
73261,-100,4,2,2,70,0,0

[Colours]
Combo1 : 199,238,43
Combo2 : 240,9,119
Combo3 : 37,160,235
Combo4 : 241,206,10
Combo5 : 210,49,234
SliderTrackOverride : 30,30,30
SliderBorder : 255,255,250

[HitObjects]
71,106,629,6,0,P|160:59|310:85,1,240,4|0,1:0|1:0,0:0:0:0:
365,172,1813,1,8,0:3:0:0:
434,270,2208,2,0,P|345:317|203:289,1,240,8|0,0:3|1:0,0:0:0:0:
111,228,3392,1,4,0:3:0:0:
14,160,3787,6,0,L|246:76,1,240,8|0,0:3|1:0,0:0:0:0:
352,36,4971,1,4,0:3:0:0:
425,130,5366,2,0,B|386:125|358:154|351:177|359:204|359:204|369:227|402:238|402:238|455:258|455:284|452:317|420:335|420:335|396:349|357:341,1,360,6|2,0:0|0:0,0:0:0:0:
247,347,6945,6,0,L|128:342,1,120,4|2,1:0|1:2,0:0:0:0:
93,226,7734,2,0,L|221:231,1,120,2|0,1:2|1:0,0:0:0:0:
265,200,8326,1,10,0:0:0:0:
300,151,8524,6,0,P|314:94|288:28,2,120,4|4|4,1:0|1:2|1:2,0:0:0:0:
191,100,9708,1,2,1:2:0:0:
83,153,10103,6,0,L|71:299,1,120,4|0,1:0|0:0,0:0:0:0:
118,312,10695,1,10,0:0:0:0:
170,341,10892,2,0,L|179:221,1,120,2|0,1:2|0:0,0:0:0:0:
228,187,11484,1,10,0:0:0:0:
278,154,11682,2,0,P|351:138|411:161,2,120,4|4|4,1:0|1:0|1:0,0:0:0:0:
160,128,12866,1,10,0:1:0:0:
188,244,13261,6,0,B|201:312|263:333|263:333|323:315|342:246,1,240,4|2,1:0|1:2,0:0:0:0:
428,169,14445,1,0,1:0:0:0:
394,53,14840,2,0,P|340:36|273:57,1,120,6|0,1:2|1:0,0:0:0:0:
226,78,15432,1,10,0:0:0:0:
226,78,15629,2,0,L|106:79,1,120,2|2,1:2|1:2,0:0:0:0:
55,188,16419,6,0,B|34:242|34:242|52:309,1,120,0|12,1:0|0:1,0:0:0:0:
160,348,17208,1,0,1:0:0:0:
273,307,17603,2,0,L|344:299,1,60,12|0,0:1|0:0,0:0:0:0:
418,216,18195,2,0,P|431:160|420:110,2,90,8|8|12,0:0|0:0|0:1,0:0:0:0:
183,164,19577,5,4,0:1:0:0:
183,164,21155,1,4,0:0:0:0:
183,164,22734,1,4,0:0:0:0:
183,164,24313,1,4,0:0:0:0:
414,98,25103,2,0,L|399:243,1,120,4|4,0:1|0:3,0:0:0:0:
473,314,25892,6,0,P|429:334|281:227,1,240,4|8,1:0|0:3,0:0:0:0:
227,136,27077,1,8,0:3:0:0:
126,201,27471,2,0,L|5:187,2,120,4|8|8,1:2|0:3|0:3,0:0:0:0:
227,136,28655,1,8,0:3:0:0:
324,205,29050,6,0,P|377:199|441:220,1,120,4|0,1:2|1:0,0:0:0:0:
425,338,29840,2,0,P|372:344|308:323,1,120,8|8,0:3|0:0,0:0:0:0:
215,248,30629,1,12,0:0:0:0:
215,248,31419,6,0,L|82:256,1,120,4|4,1:2|0:3,0:0:0:0:
147,147,32208,6,0,P|211:109|277:114,1,120,4|8,0:1|0:0,0:0:0:0:
355,41,32998,2,0,P|419:79|485:74,1,120,2|8,0:0|0:0,0:0:0:0:
476,199,33787,2,0,L|470:324,1,120,2|8,0:0|0:0,0:0:0:0:
352,344,34577,2,0,L|357:224,1,120,2|8,0:0|0:0,0:0:0:0:
266,146,35366,6,0,B|207:132|207:132|149:147,1,120,6|8,0:0|0:0,0:0:0:0:
146,267,36156,2,0,B|204:282|204:282|263:268,1,120,2|8,0:0|0:0,0:0:0:0:
368,211,36945,2,0,P|412:195|485:207,2,120,2|8|2,0:0|0:0|0:3,0:0:0:0:
262,268,38129,1,2,0:3:0:0:
262,268,38524,6,0,L|115:256,1,120,4|0,1:0|1:0,0:0:0:0:
87,151,39313,2,0,L|206:160,1,120,4|0,1:2|1:0,0:0:0:0:
310,100,40103,2,0,P|367:90|428:107,1,120,2|0,1:2|1:0,0:0:0:0:
444,163,40695,1,10,0:0:0:0:
460,221,40892,2,0,L|445:351,1,120,0|8,1:0|0:0,0:0:0:0:
326,346,41682,6,0,P|265:345|213:316,2,120,4|8|0,1:0|0:0|1:0,0:0:0:0:
241,186,43063,2,0,P|170:178|88:245,1,180,4|8,1:2|0:0,0:0:0:0:
196,295,44050,2,0,P|247:302|328:264,1,120,8|4,0:3|0:3,0:0:0:0:
405,204,44840,5,4,1:0:0:0:
256,192,45037,12,12,46419,0:1:0:0:
430,159,47998,6,0,L|425:278,1,120,6|0,1:1|1:0,0:0:0:0:
313,234,48787,2,0,L|318:106,1,120,2|0,1:2|1:0,0:0:0:0:
259,99,49379,1,10,0:0:0:0:
203,79,49577,2,0,P|146:65|80:91,2,120,4|4|4,1:2|1:2|1:2,0:0:0:0:
317,114,50761,1,4,1:2:0:0:
430,159,51156,6,0,L|442:305,1,120,4|0,1:0|0:0,0:0:0:0:
390,311,51748,1,10,0:0:0:0:
339,342,51945,2,0,L|330:222,1,120,2|0,1:2|0:0,0:0:0:0:
284,183,52537,1,8,0:0:0:0:
234,150,52734,2,0,P|161:134|101:157,2,120,4|4|4,1:0|1:0|1:0,0:0:0:0:
343,98,53919,1,10,0:1:0:0:
334,217,54313,6,0,L|334:340,1,120,4|2,1:0|1:2,0:0:0:0:
214,351,55103,2,0,P|180:357|130:348,2,60,0|10|0,1:0|0:0|1:0,0:0:0:0:
179,235,55892,2,0,L|179:112,1,120,4|2,1:2|1:2,0:0:0:0:
84,41,56682,2,0,P|50:35|0:44,2,60,2|10|0,1:2|0:2|1:0,0:0:0:0:
262,69,57669,6,0,P|303:64|327:61,1,60,0|12,1:0|0:1,0:0:0:0:
239,222,58458,2,0,P|198:217|174:214,1,60,0|12,1:0|0:1,0:0:0:0:
228,324,59050,2,0,L|360:312,1,120,12|0,0:1|1:0,0:0:0:0:
466,291,59840,2,0,L|482:230,1,60,2|2,1:0|0:0,0:0:0:0:
499,175,60234,1,2,1:0:0:0:
421,83,60629,6,0,B|384:90|354:121|354:121|316:98|307:100,1,120,6|0,1:1|1:0,0:0:0:0:
256,101,61221,1,10,0:0:0:0:
195,100,61419,2,0,L|75:113,1,120,2|0,1:2|1:0,0:0:0:0:
23,220,62208,2,0,P|11:248|42:338,2,120,4|4|4,1:2|1:2|1:2,0:0:0:0:
75,112,63392,1,4,1:2:0:0:
158,197,63787,6,0,P|198:211|282:189,1,120,4|0,1:0|0:0,0:0:0:0:
315,155,64379,1,10,0:0:0:0:
361,117,64577,2,0,L|357:237,1,120,0|8,1:0|0:0,0:0:0:0:
318,282,65169,1,8,0:0:0:0:
271,321,65366,5,12,0:1:0:0:
159,276,65761,1,12,0:1:0:0:
163,155,66155,1,12,0:1:0:0:
276,116,66550,1,12,0:1:0:0:
335,219,66945,6,0,P|393:237|453:219,1,120,4|10,1:0|0:0,0:0:0:0:
504,115,67734,2,0,P|446:99|390:117,1,120,2|10,1:2|0:1,0:0:0:0:
335,219,68524,2,0,L|324:356,1,120,4|10,1:2|0:0,0:0:0:0:
208,310,69313,2,0,L|217:190,1,120,2|10,1:2|0:1,0:0:0:0:
145,94,70103,6,0,P|87:84|11:102,2,120,12|8|12,0:1|0:0|0:0,0:0:0:0:
325,101,71484,2,0,P|380:105|438:219,1,180,4|10,1:0|0:0,0:0:0:0:
347,278,72471,2,0,L|276:271,1,60,0|8,1:0|0:3,0:0:0:0:
229,257,72866,2,0,L|169:262,1,60,8|8,0:0|0:0,0:0:0:0:
110,276,73261,6,0,P|90:223|125:148,1,120,4|0,1:0|1:0,0:0:0:0:
205,94,74050,2,0,L|341:83,1,120,2|0,1:2|1:0,0:0:0:0:
389,185,74840,2,0,P|423:150|436:68,2,120,2|0|2,1:2|1:0|1:2,0:0:0:0:
270,201,76024,2,0,L|272:279,1,60,10|10,0:0|0:0,0:0:0:0:
241,312,76419,6,0,P|199:325|87:256,2,180,4|12|10,1:0|0:1|0:0,0:0:0:0:
330,232,77998,2,0,P|372:219|484:288,2,180,4|12|2,1:0|0:1|1:2,0:0:0:0:
210,223,79577,6,0,L|199:348,1,120,4|0,1:0|1:0,0:0:0:0:
320,351,80366,2,0,L|330:231,1,120,2|2,1:2|1:2,0:0:0:0:
260,133,81155,2,0,P|195:125|126:158,2,120,2|0|2,1:2|1:0|1:2,0:0:0:0:
380,128,82340,2,0,L|452:137,1,60,8|4,0:3|0:3,0:0:0:0:
489,167,82734,6,0,P|506:216|480:297,1,120,4|8,1:0|0:0,0:0:0:0:
379,325,83524,2,0,L|235:331,1,120,4|8,1:0|0:0,0:0:0:0:
153,272,84313,2,0,B|139:213|139:213|156:138,1,120,2|8,1:2|0:0,0:0:0:0:
255,93,85103,2,0,B|269:152|269:152|252:227,1,120,0|10,1:0|0:0,0:0:0:0:
259,329,85892,6,0,L|379:325,1,120,4|12,1:0|0:0,0:0:0:0:
456,232,86682,2,0,P|472:175|448:104,1,120,8|12,0:2|0:0,0:0:0:0:
276,123,87669,2,0,L|269:31,2,90,12|12|12,0:0|0:0|0:1,0:0:0:0:
