osu file format v14

[General]
AudioFilename: blends.mp3
AudioLeadIn: 0
PreviewTime: 46764
Countdown: 0
SampleSet: Soft
StackLeniency: 0.3
Mode: 0
LetterboxInBreaks: 0
WidescreenStoryboard: 0

[Editor]
DistanceSpacing: 1.3
BeatDivisor: 8
GridSize: 8
TimelineZoom: 2.2

[Metadata]
Title:Bon Appetit S (TV Size ver)
TitleUnicode:ぼなぺてぃーと♡S (TVサイズver)
Artist:Blend A
ArtistUnicode:ブレンド・A
Creator:Underforest
Version:Left's Sadistic
Source:ブレンド・S
Tags:Blend Burendo S Ace Opening Appétit 和氣あず未 Azumi Waki 鬼頭明里 Akari Kitou 春野杏 Anzu Haruno y0c1e Hifumi, Inc. こだまさおり 一ノ瀬久 二家本亮介 菊地亮太 伊藤“三代”タカシ Kodama Saori Ichinose Hisa Niiemoto Ryousuke Kikuchi Ryouta Itou "Mitsuyo" Takashi Left Sekaii Sekai Sekai-nyan Ascendance
BeatmapID:1434844
BeatmapSetID:678593

[Difficulty]
HPDrainRate:6
CircleSize:3.5
OverallDifficulty:8.5
ApproachRate:9.6
SliderMultiplier:3.4
SliderTickRate:2

[Events]
//Background and Video events
Video,110,"video.avi"
0,0,"leftbgbgbg.jpg",0,0
//Break Periods
//Storyboard Layer 0 (Background)
//Storyboard Layer 1 (Fail)
//Storyboard Layer 2 (Pass)
//Storyboard Layer 3 (Foreground)
//Storyboard Sound Samples

[TimingPoints]
630,394.736842105263,4,2,56,65,1,0
630,-166.666666666667,4,2,56,65,0,0
5366,-100,4,2,56,40,0,0
5564,-100,4,2,56,5,0,0
5761,-76.9230769230769,4,2,56,55,0,0
5958,-76.9230769230769,4,2,56,5,0,0
6156,-66.6666666666667,4,2,56,65,0,0
6501,-66.6666666666667,4,2,56,5,0,0
6551,-66.6666666666667,4,2,56,65,0,0
6945,-62.5,4,2,56,70,0,0
7093,-62.5,4,2,56,5,0,0
7143,-100,4,2,56,70,0,0
7537,-153.846153846154,4,2,56,70,0,0
7735,-76.9230769230769,4,2,56,70,0,0
7883,-76.9230769230769,4,2,56,5,0,0
7932,-76.9230769230769,4,2,56,70,0,0
8031,-100,4,2,56,70,0,0
8524,-55.5555555555556,4,2,56,70,0,0
8672,-55.5555555555556,4,2,56,5,0,0
8722,-200,4,2,56,70,0,0
8820,-200,4,2,56,5,0,0
8919,-66.6666666666667,4,2,56,70,0,0
9067,-66.6666666666667,4,2,56,5,0,0
9116,-200,4,2,56,70,0,0
9215,-200,4,2,56,5,0,0
9314,-83.3333333333333,4,2,56,70,0,0
9462,-83.3333333333333,4,2,56,5,0,0
9511,-200,4,2,56,70,0,0
9610,-200,4,2,56,5,0,0
9708,-111.111111111111,4,2,56,70,0,0
9856,-111.111111111111,4,2,56,5,0,0
9906,-200,4,2,56,70,0,0
10005,-200,4,2,56,5,0,0
10103,-60.6060606060606,4,2,56,70,0,0
10251,-60.6060606060606,4,2,56,5,0,0
10301,-60.6060606060606,4,2,56,70,0,0
10399,-100,4,2,56,70,0,0
11041,-100,4,2,56,5,0,0
11090,-100,4,2,56,70,0,0
11189,-83.3333333333333,4,2,56,70,0,0
11485,-100,4,2,56,70,0,0
11682,-50,4,2,56,70,0,0
11830,-50,4,2,56,5,0,0
11880,-200,4,2,56,70,0,0
11978,-200,4,2,56,5,0,0
12077,-50,4,2,56,70,0,0
12225,-50,4,2,56,5,0,0
12274,-200,4,2,56,70,0,0
12373,-200,4,2,56,5,0,0
12472,-50,4,2,56,70,0,0
12620,-50,4,2,56,5,0,0
12669,-50,4,2,56,70,0,0
13261,-66.6666666666667,4,2,56,70,0,0
13557,-100,4,2,56,70,0,0
14643,-166.666666666667,4,2,56,70,0,0
14840,-100,4,2,56,70,0,0
15432,-166.666666666667,4,2,56,70,0,0
15630,-76.9230769230769,4,2,56,70,0,0
15778,-76.9230769230769,4,2,56,5,0,0
15827,-95.2380952380952,4,2,56,70,0,0
15975,-95.2380952380952,4,2,56,5,0,0
16024,-125,4,2,56,70,0,0
16172,-125,4,2,56,5,0,0
16222,-181.818181818182,4,2,56,70,0,0
16370,-181.818181818182,4,2,56,5,0,0
16419,-181.818181818182,4,2,56,70,0,0
16814,-58.8235294117647,4,2,56,70,0,0
17011,-58.8235294117647,4,2,56,5,0,0
17208,-58.8235294117647,4,2,56,70,0,0
17801,-58.8235294117647,4,2,56,5,0,0
17899,-200,4,2,56,70,0,0
18195,-71.4285714285714,4,2,56,70,0,0
18491,-58.8235294117647,4,2,56,70,0,0
18787,-200,4,2,56,70,0,0
19182,-200,4,2,56,5,0,0
19577,-200,4,2,56,65,0,0
25893,-166.666666666667,4,2,56,65,0,0
32208,-200,4,2,55,65,0,0
38524,-71.4285714285714,4,2,56,65,0,0
38672,-71.4285714285714,4,2,56,5,0,0
38722,-100,4,2,56,65,0,0
39116,-153.846153846154,4,2,56,65,0,0
39314,-71.4285714285714,4,2,56,65,0,0
39462,-71.4285714285714,4,2,56,5,0,0
39511,-100,4,2,56,65,0,0
39906,-153.846153846154,4,2,56,65,0,0
40103,-100,4,2,56,65,0,0
41682,-166.666666666667,4,2,56,65,0,0
42472,-200,4,2,56,65,0,0
45630,-100,4,2,56,65,0,0
45827,-100,4,2,56,5,0,0
45926,-166.666666666667,4,2,56,65,0,0
46123,-166.666666666667,4,2,56,5,0,0
46222,-166.666666666667,4,2,56,65,0,0
46320,-166.666666666667,4,2,56,5,0,0
46419,-166.666666666667,4,2,56,65,0,0
47603,-350,4,2,56,65,0,0
47899,-66.6666666666667,4,2,56,5,0,0
47998,-52.6315789473684,4,2,56,77,0,1
48146,-52.6315789473684,4,2,56,5,0,1
48195,-66.6666666666667,4,2,56,77,0,1
48393,-133.333333333333,4,2,56,77,0,1
48590,-66.6666666666667,4,2,56,77,0,1
49577,-66.6666666666667,4,2,56,77,0,1
49725,-66.6666666666667,4,2,56,5,0,1
49774,-200,4,2,56,77,0,1
49873,-200,4,2,56,5,0,1
49972,-66.6666666666667,4,2,56,77,0,1
50120,-66.6666666666667,4,2,56,5,0,1
50169,-200,4,2,56,77,0,1
50268,-200,4,2,56,5,0,1
50366,-66.6666666666667,4,2,56,77,0,1
50514,-66.6666666666667,4,2,56,5,0,1
50564,-200,4,2,56,77,0,1
50662,-200,4,2,56,5,0,1
50761,-83.3333333333333,4,2,56,77,0,1
50909,-66.6666666666667,4,2,56,5,0,1
50958,-200,4,2,56,77,0,1
51057,-200,4,2,56,5,0,1
51156,-57.1428571428571,4,2,56,77,0,1
51304,-57.1428571428571,4,2,56,5,0,1
51353,-57.1428571428571,4,2,56,77,0,1
51452,-76.9230769230769,4,2,56,77,0,1
51945,-57.1428571428571,4,2,56,77,0,1
52093,-57.1428571428571,4,2,56,5,0,1
52143,-57.1428571428571,4,2,56,77,0,1
52241,-76.9230769230769,4,2,56,77,0,1
52735,-50,4,2,56,77,0,1
52883,-50,4,2,56,5,0,1
52932,-200,4,2,56,77,0,1
53031,-200,4,2,56,5,0,1
53130,-66.6666666666667,4,2,56,77,0,1
53278,-66.6666666666667,4,2,56,5,0,1
53327,-200,4,2,56,77,0,1
53426,-200,4,2,56,5,0,1
53524,-100,4,2,56,77,0,1
53672,-100,4,2,56,5,0,1
53722,-100,4,2,56,77,0,1
54314,-90.9090909090909,4,2,56,77,0,1
54511,-66.6666666666667,4,2,56,77,0,1
55103,-66.6666666666667,4,2,56,77,0,1
55301,-133.333333333333,4,2,56,77,0,1
55498,-66.6666666666667,4,2,56,77,0,1
55695,-133.333333333333,4,2,56,77,0,1
55893,-90.9090909090909,4,2,56,77,0,1
56090,-66.6666666666667,4,2,56,77,0,1
56682,-66.6666666666667,4,2,56,77,0,1
56879,-83.3333333333333,4,2,56,77,0,1
57077,-111.111111111111,4,2,56,77,0,1
57274,-166.666666666667,4,2,56,77,0,1
57866,-50,4,2,56,77,0,1
58064,-50,4,2,56,5,0,1
58261,-50,4,2,56,77,0,1
58853,-50,4,2,56,5,0,1
59051,-50,4,2,56,77,0,1
59347,-86.9565217391304,4,2,56,77,0,1
60629,-52.6315789473684,4,2,56,77,0,1
60778,-52.6315789473684,4,2,56,5,0,1
60827,-66.6666666666667,4,2,56,77,0,1
61024,-133.333333333333,4,2,56,77,0,1
61222,-66.6666666666667,4,2,56,77,0,1
62208,-66.6666666666667,4,2,56,77,0,1
62356,-66.6666666666667,4,2,56,5,0,1
62406,-200,4,2,56,77,0,1
62505,-200,4,2,56,5,0,1
62603,-66.6666666666667,4,2,56,77,0,1
62751,-66.6666666666667,4,2,56,5,0,1
62801,-200,4,2,56,77,0,1
62899,-200,4,2,56,5,0,1
62998,-66.6666666666667,4,2,56,77,0,1
63146,-66.6666666666667,4,2,56,5,0,1
63195,-200,4,2,56,77,0,1
63294,-200,4,2,56,5,0,1
63393,-83.3333333333333,4,2,56,77,0,1
63541,-66.6666666666667,4,2,56,5,0,1
63590,-200,4,2,56,77,0,1
63689,-200,4,2,56,5,0,1
63787,-66.6666666666667,4,2,56,77,0,1
64083,-66.6666666666667,4,2,56,77,0,1
64725,-66.6666666666667,4,2,56,5,0,1
64774,-66.6666666666667,4,2,56,77,0,1
65366,-400,4,2,56,77,0,1
65564,-400,4,2,56,5,0,1
65761,-400,4,2,56,77,0,1
65958,-400,4,2,56,5,0,1
66156,-400,4,2,56,77,0,1
66353,-400,4,2,56,5,0,1
66551,-400,4,2,56,77,0,1
66748,-400,4,2,56,5,0,1
66945,-200,4,2,56,77,0,1
73261,-100,4,2,56,70,0,0
74199,-100,4,2,56,5,0,0
74248,-100,4,2,56,70,0,0
76419,-50,4,2,56,70,0,0
77011,-66.6666666666667,4,2,56,70,0,0
77998,-50,4,2,56,70,0,0
78590,-100,4,2,56,70,0,0
78886,-100,4,2,56,5,0,0
78985,-76.9230769230769,4,2,56,70,0,0
79725,-76.9230769230769,4,2,56,5,0,0
79774,-100,4,2,56,70,0,0
82735,-400,4,2,56,70,0,0
85695,-133.333333333333,4,2,56,70,0,0
86287,-100,4,2,56,70,0,0
86583,-100,4,2,56,5,0,0
86682,-100,4,2,56,70,0,0
87373,-100,4,2,56,5,0,0
87472,-100,4,2,56,70,0,0
87669,-60.6060606060606,4,2,56,70,0,0
87866,-60.6060606060606,4,2,56,5,0,0
87965,-60.6060606060606,4,2,56,70,0,0
88162,-60.6060606060606,4,2,56,5,0,0
88261,-400,4,2,56,70,0,0
88656,-400,4,2,56,5,0,0

[Colours]
Combo1 : 189,222,255
Combo2 : 255,0,0
Combo3 : 255,147,147
Combo4 : 152,255,49
Combo5 : 209,255,164
Combo6 : 117,186,255
SliderTrackOverride : 30,30,30
SliderBorder : 255,255,250

[HitObjects]
191,233,630,37,4,1:0:0:0:
263,283,828,1,8,0:3:0:0:
311,285,926,1,4,0:3:0:0:
351,256,1025,1,0,1:0:0:0:
351,256,1222,1,8,0:3:0:0:
401,333,1420,5,0,1:0:0:0:
431,288,1518,1,4,0:3:0:0:
434,233,1617,1,8,0:3:0:0:
404,188,1716,1,8,0:3:0:0:
354,169,1814,1,8,0:3:0:0:
354,169,2012,2,0,L|361:108,1,50.9999984436036,4|0,0:3|1:0,0:0:0:0:
282,74,2209,69,8,0:3:0:0:
231,88,2308,1,8,0:3:0:0:
184,101,2406,1,0,1:0:0:0:
206,181,2505,5,8,0:3:0:0:
231,261,2604,1,8,0:3:0:0:
231,261,2801,1,8,0:3:0:0:
157,222,2999,69,0,1:0:0:0:
206,181,3097,1,4,0:3:0:0:
267,182,3196,1,8,0:3:0:0:
307,225,3295,1,8,0:3:0:0:
311,284,3393,1,4,0:3:0:0:
311,284,3591,2,0,L|378:272,1,50.9999984436036,0|0,1:0|1:0,0:0:0:0:
408,24,3787,5,8,0:3:0:0:
401,77,3887,1,8,0:3:0:0:
391,131,3985,1,0,1:0:0:0:
338,196,4084,69,4,0:3:0:0:
418,210,4183,1,8,0:3:0:0:
418,210,4380,1,8,0:3:0:0:
278,134,4577,5,0,1:0:0:0:
252,185,4676,1,8,0:3:0:0:
264,239,4775,69,8,0:3:0:0:
264,239,4972,1,4,0:3:0:0:
264,239,5170,1,0,1:0:0:0:
8,195,5366,6,0,B|45:163|45:163|25:307,1,170,6|0,0:0|0:0,0:0:0:0:
153,142,5762,70,0,B|194:123|228:176|187:210|138:248|138:248|244:277,1,220.999989883423,2|0,0:0|0:0,0:0:0:0:
286,105,6156,6,0,B|356:64|439:141|376:212|331:210|331:210|398:254|385:308|323:387|222:266,1,446.250017023087,2|0,0:0|0:0,0:0:0:0:
198,207,6551,69,2,0:0:0:0:
195,226,6650,1,0,0:0:0:0:
192,245,6749,1,0,0:0:0:0:
189,262,6847,1,0,0:0:0:0:
155,363,6946,22,0,B|119:121,1,204,4|0,1:0|0:0,0:0:0:0:
138,152,7143,2,0,P|177:171|199:226,1,85,8|0,0:0|0:0,0:0:0:0:
44,260,7341,2,0,P|71:236|135:241,1,85,2|0,1:2|0:0,0:0:0:0:
177,339,7538,6,0,L|186:278,1,55.2499974708558,10|0,0:0|0:0,0:0:0:0:
266,109,7735,70,0,P|201:172|133:147,1,165.749992412568,2|0,1:2|0:0,0:0:0:0:
109,75,7932,1,8,0:0:0:0:
119,60,8031,2,0,P|165:63|191:121,1,85,2|0,0:2|1:0,0:0:0:0:
347,222,8228,1,0,0:0:0:0:
338,204,8328,2,0,P|277:222|269:250,1,85,10|0,0:0|0:0,0:0:0:0:
79,357,8524,22,0,L|33:63,1,229.499992996216,4|0,1:0|0:0,0:0:0:0:
44,131,8722,6,0,L|-15:145,1,42.5,10|0,0:0|0:0,0:0:0:0:
174,16,8920,70,0,L|139:239,1,191.250007295609,4|0,1:2|0:0,0:0:0:0:
144,204,9117,6,0,L|91:195,1,42.5,10|0,0:0|0:0,0:0:0:0:
269,284,9314,70,0,L|245:132,1,152.999995330811,4|0,1:2|0:0,0:0:0:0:
246,133,9511,6,0,L|201:143,1,42.5,10|0,0:0|0:0,0:0:0:0:
363,95,9709,70,0,L|345:208,1,114.749996498108,2|0,1:2|0:0,0:0:0:0:
346,209,9906,6,0,L|302:199,1,42.5,10|0,0:0|0:0,0:0:0:0:
344,326,10104,38,0,B|399:388|475:347|475:347|457:277,1,210.375002006292,4|0,1:0|0:0,0:0:0:0:
269,284,10301,1,10,0:0:0:0:
265,306,10399,2,0,B|225:321|181:292|181:292|136:256|78:293,1,170,2|0,0:2|0:0,0:0:0:0:
314,375,10696,2,0,P|347:323|333:269,1,85,10|0,0:0|0:0,0:0:0:0:
64,213,10893,6,0,P|27:259|42:329,1,127.5,2|0,1:2|0:0,0:0:0:0:
95,381,11091,1,10,0:0:0:0:
111,366,11189,2,0,B|137:246|137:246|39:201,1,203.999993774414,2|0,0:2|0:0,0:0:0:0:
201,354,11485,2,0,P|229:322|217:258,1,85,10|0,0:0|0:0,0:0:0:0:
248,28,11683,6,0,P|129:16|11:139,1,255,4|0,1:0|0:0,0:0:0:0:
104,131,11880,6,0,L|114:182,1,42.5,10|0,0:1|0:0,0:0:0:0:
104,131,12078,70,0,P|223:119|341:242,1,255,4|0,1:0|0:0,0:0:0:0:
251,240,12275,6,0,L|241:291,1,42.5,10|0,0:1|0:0,0:0:0:0:
251,240,12472,70,0,P|132:228|14:351,1,255,4|0,1:0|0:0,0:0:0:0:
118,354,12670,5,10,0:1:0:0:
137,369,12768,1,8,0:0:0:0:
163,358,12867,1,10,0:1:0:0:
165,331,12966,1,8,0:0:0:0:
141,316,13064,1,10,0:1:0:0:
118,328,13163,1,8,0:0:0:0:
202,253,13262,38,0,P|264:275|351:273,1,127.500004863739,4|0,1:0|0:0,0:0:0:0:
393,215,13458,5,8,0:0:0:0:
346,188,13558,1,0,0:0:0:0:
297,193,13656,1,2,1:2:0:0:
297,193,13853,69,8,0:0:0:0:
371,133,13952,1,0,0:0:0:0:
461,155,14051,2,0,L|439:348,1,170,2|8,1:2|0:0,0:0:0:0:
311,357,14347,1,2,0:0:0:0:
311,357,14445,2,0,P|283:312|292:258,1,85,0|0,1:0|0:0,0:0:0:0:
369,241,14643,2,0,L|363:300,1,50.9999984436036,10|0,0:0|0:0,0:0:0:0:
159,173,14840,6,0,P|147:87|219:54,1,170,6|8,1:2|0:0,0:0:0:0:
288,94,15136,1,2,0:0:0:0:
288,94,15235,2,0,L|314:204,1,85,0|0,1:0|0:0,0:0:0:0:
251,246,15432,2,0,L|262:299,1,50.9999984436036,10|0,0:0|0:0,0:0:0:0:
331,345,15630,70,0,B|285:326|250:354|250:354|195:390|137:343,1,165.749992412568,2|0,1:2|0:0,0:0:0:0:
157,356,15828,6,0,P|118:305|139:236,1,133.874995914459,10|0,0:0|0:0,0:0:0:0:
147,230,16025,70,0,P|173:176|152:128,1,102,2|0,1:2|0:0,0:0:0:0:
148,125,16222,6,0,P|132:91|140:50,1,70.1250021400452,10|0,0:0|0:0,0:0:0:0:
214,53,16420,21,0,1:0:0:0:
214,53,16617,1,0,1:0:0:0:
373,256,16814,70,0,P|293:216|142:358,1,289.000005512238,12|0,0:1|0:0,0:0:0:0:
214,53,17209,5,0,1:0:0:0:
214,53,17406,1,0,1:0:0:0:
145,319,17603,70,0,P|240:219|373:256,1,289.000005512238,12|0,0:1|0:0,0:0:0:0:
372,255,17900,2,0,L|363:304,2,42.5,8|4|4,0:3|3:0|0:3,0:0:0:0:
284,92,18195,6,0,L|296:247,1,118.999996368408,8|4,0:0|0:3,0:0:0:0:
210,229,18393,1,0,1:0:0:0:
200,85,18492,70,0,L|212:252,1,144.500002756119,8|4,0:0|0:3,0:0:0:0:
128,248,18689,1,0,1:0:0:0:
117,79,18788,6,0,L|129:258,1,170,12|0,0:1|0:0,0:0:0:0:
467,97,19578,5,4,0:1:0:0:
467,97,21156,1,4,0:0:0:0:
45,97,22735,5,4,0:0:0:0:
45,97,24314,69,4,0:0:0:0:
45,97,25104,1,4,0:1:0:0:
112,178,25400,5,8,0:3:0:0:
114,155,25499,1,4,0:3:0:0:
125,52,25696,1,8,0:3:0:0:
123,75,25795,1,8,0:3:0:0:
192,125,25893,69,4,1:0:0:0:
320,68,26091,1,8,0:3:0:0:
367,96,26189,1,4,0:3:0:0:
366,148,26288,1,0,1:0:0:0:
321,171,26387,1,8,0:3:0:0:
277,141,26485,1,8,0:3:0:0:
277,141,26683,5,8,0:3:0:0:
300,188,26781,1,8,0:3:0:0:
288,240,26880,1,4,0:3:0:0:
315,285,26979,1,8,0:3:0:0:
298,338,27078,1,8,0:3:0:0:
298,338,27275,2,0,L|227:328,1,50.9999984436036,0|0,1:0|1:0,0:0:0:0:
91,192,27472,69,4,1:2:0:0:
91,192,27670,1,8,0:3:0:0:
113,236,27768,1,8,0:3:0:0:
105,286,27867,1,8,0:3:0:0:
6,187,28064,5,4,0:3:0:0:
24,138,28163,1,4,0:3:0:0:
69,110,28262,1,8,0:3:0:0:
125,114,28360,1,8,0:3:0:0:
165,150,28459,1,4,0:3:0:0:
165,150,28656,69,8,0:3:0:0:
112,143,28755,1,8,0:3:0:0:
69,110,28854,1,4,0:3:0:0:
45,159,28953,1,4,0:3:0:0:
6,187,29051,1,4,1:2:0:0:
231,313,29249,5,8,0:3:0:0:
239,237,29347,1,4,0:3:0:0:
246,160,29446,1,0,1:0:0:0:
246,160,29643,69,8,0:3:0:0:
303,189,29742,1,8,0:3:0:0:
321,247,29841,1,8,0:3:0:0:
290,300,29939,1,8,0:3:0:0:
231,313,30038,1,8,0:3:0:0:
231,313,30235,5,8,0:0:0:0:
327,339,30334,1,8,0:0:0:0:
383,258,30433,1,8,0:0:0:0:
344,164,30531,1,8,0:0:0:0:
246,160,30630,1,12,0:0:0:0:
246,160,31420,69,4,1:2:0:0:
246,160,31716,5,8,0:3:0:0:
238,205,31814,1,4,0:3:0:0:
238,205,32011,69,4,0:3:0:0:
101,37,32209,5,4,0:1:0:0:
35,163,32505,1,0,0:0:0:0:
35,163,32604,2,0,L|24:63,1,85,8|0,0:0|0:0,0:0:0:0:
123,184,32999,69,2,0:0:0:0:
25,78,33295,1,0,0:0:0:0:
25,78,33393,2,0,L|36:178,1,85,8|0,0:0|0:0,0:0:0:0:
281,328,33788,5,2,0:0:0:0:
302,248,33985,1,0,0:0:0:0:
222,226,34183,1,8,0:0:0:0:
200,307,34380,1,0,0:0:0:0:
271,308,34578,69,2,0:0:0:0:
283,260,34775,1,8,0:0:0:0:
235,246,34972,1,8,0:0:0:0:
222,295,35170,1,0,0:0:0:0:
436,178,35367,6,0,L|423:85,1,85,6|0,0:0|0:0,0:0:0:0:
424,93,35663,1,0,0:0:0:0:
424,93,35762,1,8,0:0:0:0:
360,220,35959,1,0,0:0:0:0:
424,93,36156,70,0,L|437:186,1,85,2|0,0:0|0:0,0:0:0:0:
436,178,36453,1,0,0:0:0:0:
436,178,36551,1,8,0:0:0:0:
338,74,36749,1,0,0:0:0:0:
363,269,36946,5,2,0:0:0:0:
512,222,37143,1,0,0:0:0:0:
413,305,37341,69,8,0:0:0:0:
491,281,37538,1,0,0:0:0:0:
462,342,37735,5,2,0:3:0:0:
462,342,38130,1,2,0:3:0:0:
73,89,38525,70,0,B|121:53|121:53|94:194,1,178.499994552612,4|0,1:0|0:0,0:0:0:0:
84,176,38722,2,0,P|36:173|4:128,1,85,8|0,0:0|0:0,0:0:0:0:
169,206,38920,2,0,P|147:247|110:259,1,85,0|0,1:0|0:0,0:0:0:0:
143,67,39117,6,0,L|152:128,1,55.2499974708558,8|0,0:0|0:0,0:0:0:0:
36,277,39314,70,0,B|95:264|126:291|126:291|169:326|236:289,1,178.499994552612,4|0,1:2|0:0,0:0:0:0:
218,289,39511,2,0,P|266:290|296:329,1,85,8|0,0:0|0:0,0:0:0:0:
359,364,39709,2,0,P|377:326|366:280,1,85,0|0,1:0|0:0,0:0:0:0:
312,224,39906,6,0,L|321:165,1,55.2499974708558,10|0,0:0|0:0,0:0:0:0:
235,69,40104,70,0,P|215:108|168:123,1,85,2|0,1:2|0:0,0:0:0:0:
78,23,40301,2,0,P|74:65|95:102,1,85,10|0,0:0|0:0,0:0:0:0:
160,254,40499,2,0,P|138:201|88:187,1,85,0|0,1:0|0:0,0:0:0:0:
42,215,40696,2,0,P|74:188|116:189,1,85,10|0,0:0|0:0,0:0:0:0:
85,289,40893,1,0,1:0:0:0:
406,162,41091,5,8,0:0:0:0:
384,146,41189,1,8,0:0:0:0:
370,167,41288,1,8,0:0:0:0:
390,183,41387,1,8,0:0:0:0:
457,91,41485,69,8,0:3:0:0:
375,61,41584,1,8,0:3:0:0:
301,111,41683,1,4,1:0:0:0:
301,111,42077,5,8,0:0:0:0:
301,111,42472,2,0,L|291:14,1,85,0|0,1:0|0:0,0:0:0:0:
292,26,42768,1,0,1:0:0:0:
292,26,42867,1,8,0:0:0:0:
377,176,43064,70,0,P|307:143|243:214,1,170,4|0,1:2|1:0,0:0:0:0:
75,300,43656,2,0,L|62:211,1,85,8|0,0:0|0:0,0:0:0:0:
63,216,44051,5,8,0:3:0:0:
89,222,44150,1,8,0:3:0:0:
116,221,44249,1,8,0:3:0:0:
142,211,44347,1,8,0:3:0:0:
165,197,44446,1,4,0:3:0:0:
191,189,44545,1,4,0:3:0:0:
218,189,44643,1,0,1:0:0:0:
244,198,44742,1,0,1:0:0:0:
203,273,44841,69,4,1:0:0:0:
203,273,45038,1,0,1:0:0:0:
203,273,45235,1,8,0:0:0:0:
191,189,45334,1,8,0:3:0:0:
177,107,45433,1,4,0:3:0:0:
422,275,45630,6,0,P|351:249|289:339,1,170,4|0,1:0|0:0,0:0:0:0:
317,312,45926,70,0,P|349:276|402:294,1,101.999996887207,4|0,1:2|0:0,0:0:0:0:
381,309,46222,102,0,P|346:309|331:335,1,50.9999984436036,4|0,1:2|0:0,0:0:0:0:
309,58,46420,1,12,0:1:0:0:
120,201,47604,38,0,P|122:156|130:125,1,72.8571428571429,2|0,0:3|0:0,0:0:0:0:
51,266,47999,54,2,P|92:162|69:29,1,242.249993531227,6|0,1:1|0:0,0:1:0:0:
72,35,48195,2,0,P|20:69|54:167,1,127.500004863739,8|0,0:0|0:0,0:0:0:0:
120,201,48393,2,0,L|192:193,1,63.7500024318696,0|0,1:0|0:0,0:0:0:0:
274,156,48590,1,10,0:0:0:0:
267,179,48689,1,0,0:0:0:0:
176,65,48787,6,0,P|262:123|427:105,1,255.000009727478,2|8,1:2|0:0,0:0:0:0:
483,85,49083,1,2,0:0:0:0:
483,85,49182,2,0,P|424:31|360:52,1,127.500004863739,0|0,1:0|0:0,0:0:0:0:
334,142,49380,2,0,P|387:195|452:181,1,127.500004863739,10|0,0:0|0:0,0:0:0:0:
182,14,49577,6,0,P|181:121|159:243,1,191.250007295609,4|0,1:2|0:0,0:0:0:0:
169,205,49774,2,0,L|124:194,1,42.5,10|0,0:0|0:0,0:0:0:0:
59,261,49972,6,0,P|126:346|204:330,1,191.250007295609,4|0,1:2|0:0,0:0:0:0:
198,336,50169,2,0,L|188:285,1,42.5,10|0,0:0|0:0,0:0:0:0:
251,174,50367,70,0,L|291:381,1,191.250007295609,4|0,1:2|0:0,0:0:0:0:
287,361,50564,2,0,L|334:333,1,42.5,10|0,0:0|0:0,0:0:0:0:
400,289,50762,6,0,L|366:115,1,152.999995330811,4|0,1:2|0:0,0:0:0:0:
370,138,50958,2,0,L|319:170,1,42.5,10|0,0:0|0:0,0:0:0:0:
62,243,51156,38,0,B|43:102|43:102|104:176,1,223.125002127886,4|0,1:0|0:0,0:0:0:0:
255,229,51353,1,10,0:0:0:0:
265,208,51453,2,0,B|209:185|161:227|161:227|106:280|35:226,1,220.999989883423,2|0,0:0|0:0,0:0:0:0:
257,122,51748,5,10,0:0:0:0:
347,138,51847,1,2,0:0:0:0:
424,84,51946,2,0,P|351:42|256:129,1,223.125002127886,2|0,1:2|0:0,0:0:0:0:
323,314,52143,1,8,0:0:0:0:
327,335,52241,2,0,B|374:293|374:293|344:125,1,220.999989883423,2|0,0:0|0:0,0:0:0:0:
193,51,52538,2,0,P|168:96|174:156,1,110.499994941712,8|0,0:0|0:0,0:0:0:0:
431,185,52735,6,0,P|367:84|241:158,1,255,4|0,1:0|0:0,0:0:0:0:
299,264,52933,6,0,L|285:306,1,42.5,10|0,0:1|0:0,0:0:0:0:
408,178,53130,70,0,P|379:113|267:157,1,191.250007295609,4|0,1:0|0:0,0:0:0:0:
299,264,53328,6,0,L|285:306,1,42.5,10|0,0:1|0:0,0:0:0:0:
389,176,53525,70,0,P|355:124|291:156,1,127.5,4|0,1:0|0:0,0:0:0:0:
154,251,53722,5,10,0:1:0:0:
45,231,53821,1,8,0:0:0:0:
7,125,53920,1,10,0:1:0:0:
80,38,54018,1,8,0:0:0:0:
190,58,54117,1,10,0:1:0:0:
230,167,54216,1,8,0:0:0:0:
230,167,54314,38,0,P|279:163|298:120,1,93.5000028533936,4|0,1:0|0:0,0:0:0:0:
435,10,54512,2,0,P|479:59|472:130,1,127.500004863739,10|0,0:0|0:0,0:0:0:0:
393,335,54709,2,0,P|371:219|407:66,1,255.000009727478,2|8,1:2|0:0,0:0:0:0:
318,39,55005,1,0,0:0:0:0:
318,39,55104,6,0,P|268:79|193:60,1,127.500004863739,0|0,1:0|0:0,0:0:0:0:
113,43,55301,2,0,P|123:76|134:132,1,63.7500024318696,10|0,0:0|0:0,0:0:0:0:
268,171,55499,2,0,P|224:209|134:182,1,127.500004863739,0|0,1:0|0:0,0:0:0:0:
66,181,55696,2,0,P|77:217|85:270,1,63.7500024318696,10|0,0:0|0:0,0:0:0:0:
318,371,55893,70,0,P|343:331|314:266,1,93.5000028533936,4|0,1:2|0:0,0:0:0:0:
268,171,56091,2,0,P|323:196|401:198,1,127.500004863739,10|0,0:0|0:0,0:0:0:0:
462,300,56288,2,0,P|364:283|196:364,1,255.000009727478,2|8,1:2|0:0,0:0:0:0:
66,181,56583,1,0,0:0:0:0:
66,181,56682,6,0,P|130:179|199:234,1,127.500004863739,2|0,1:2|0:0,0:0:0:0:
239,141,56880,70,0,P|267:185|270:275,1,101.999996887207,10|0,0:2|0:0,0:0:0:0:
361,221,57078,6,0,P|362:263|343:302,1,76.4999976654053,0|0,1:0|0:0,0:0:0:0:
412,353,57275,70,0,P|381:373|348:382,1,50.9999984436036,10|0,0:2|0:0,0:0:0:0:
284,354,57471,37,0,1:0:0:0:
284,354,57669,1,0,1:0:0:0:
110,161,57867,70,0,P|230:215|371:86,1,340,12|0,0:1|0:0,0:0:0:0:
284,354,58262,5,0,1:0:0:0:
284,354,58459,1,0,1:0:0:0:
371,91,58656,70,0,P|264:210|110:162,1,340,12|0,0:1|0:0,0:0:0:0:
241,28,59051,6,0,B|275:119|231:189|231:189|173:275|215:366,1,340,12|0,0:1|0:0,0:0:0:0:
300,310,59347,1,4,0:3:0:0:
300,310,59446,70,0,P|289:258|333:228,1,97.7500018644333,0|0,1:0|0:0,0:0:0:0:
136,67,59643,2,0,P|171:103|128:157,1,97.7500018644333,10|0,0:0|0:0,0:0:0:0:
209,352,59841,5,2,1:0:0:0:
206,340,59939,1,0,0:0:0:0:
201,320,60037,1,2,0:0:0:0:
198,291,60136,1,8,0:3:0:0:
203,252,60235,1,2,1:0:0:0:
227,197,60333,1,2,0:0:0:0:
255,121,60433,1,10,0:1:0:0:
241,28,60531,1,2,0:0:0:0:
0,149,60629,38,2,P|108:202|240:192,1,242.249993531227,6|0,1:1|0:0,0:1:0:0:
227,196,60827,2,0,P|204:131|138:134,1,127.500004863739,8|0,0:0|0:0,0:0:0:0:
28,239,61024,2,0,P|61:233|101:235,1,63.7500024318696,0|0,1:0|0:0,0:0:0:0:
176,274,61222,1,10,0:0:0:0:
172,299,61321,1,0,0:0:0:0:
205,132,61419,6,0,P|188:257|225:379,1,255.000009727478,2|8,1:2|0:0,0:0:0:0:
288,305,61715,1,2,0:0:0:0:
288,305,61814,2,0,P|313:265|264:195,1,127.500004863739,0|0,1:0|0:0,0:0:0:0:
116,155,62011,2,0,P|107:90|163:55,1,127.500004863739,10|0,0:2|0:2,0:0:0:0:
300,117,62209,6,0,L|497:105,1,191.250007295609,4|0,1:2|0:0,0:0:0:0:
490,105,62406,2,0,L|480:59,1,42.5,10|0,0:0|0:0,0:0:0:0:
389,15,62604,6,0,L|408:231,1,191.250007295609,4|0,1:2|0:0,0:0:0:0:
405,205,62801,2,0,L|352:200,1,42.5,10|0,0:0|0:0,0:0:0:0:
295,140,62999,70,0,P|232:124|156:227,1,191.250007295609,4|0,1:2|0:0,0:0:0:0:
154,208,63196,2,0,L|169:263,1,42.5,10|0,0:0|0:0,0:0:0:0:
95,304,63393,6,0,L|45:129,1,152.999995330811,4|0,1:2|0:0,0:0:0:0:
52,156,63591,2,0,L|102:127,1,42.5,10|0,0:0|0:0,0:0:0:0:
240,211,63788,38,0,B|290:184|308:108|308:108|299:186|341:249,1,255.000009727478,4|8,1:0|0:0,0:0:0:0:
512,290,64084,2,0,B|443:259|387:301|387:301|326:348|236:285,1,255.000009727478,2|0,0:0|0:0,0:0:0:0:
62,242,64380,5,10,0:0:0:0:
70,288,64479,1,4,0:3:0:0:
79,332,64577,1,0,1:0:0:0:
79,332,64775,69,8,0:0:0:0:
70,288,64874,1,4,0:3:0:0:
62,242,64972,5,8,0:0:0:0:
194,286,65071,1,8,0:0:0:0:
273,175,65170,1,8,2:0:0:0:
191,70,65268,1,8,0:0:0:0:
53,97,65367,6,0,L|2:90,1,42.5,12|0,0:1|0:0,0:0:0:0:
459,287,65762,2,0,L|510:294,1,42.5,12|0,0:1|0:0,0:0:0:0:
53,287,66156,6,0,L|6:294,1,42.5,12|0,0:1|0:0,0:0:0:0:
459,97,66551,2,0,L|506:91,1,42.5,12|0,0:1|0:0,0:0:0:0:
256,169,66946,37,4,1:0:0:0:
256,169,67143,1,2,0:0:0:0:
198,37,67341,2,0,L|186:130,1,85,10|0,0:0|0:0,0:0:0:0:
68,230,67637,1,0,0:0:0:0:
68,230,67735,5,2,1:2:0:0:
54,146,67834,1,4,0:3:0:0:
129,176,67933,1,2,1:0:0:0:
129,176,68130,1,10,0:1:0:0:
129,176,68328,1,2,0:1:0:0:
314,37,68525,69,4,1:2:0:0:
256,169,68722,1,2,0:0:0:0:
314,37,68920,2,0,L|324:121,1,85,10|0,0:0|0:0,0:0:0:0:
447,224,69216,1,0,0:0:0:0:
444,230,69314,5,2,1:2:0:0:
458,146,69413,1,4,0:3:0:0:
383,176,69512,1,2,1:0:0:0:
383,176,69709,1,10,0:1:0:0:
383,176,69906,1,2,0:1:0:0:
90,320,70104,69,12,0:1:0:0:
76,241,70499,5,8,0:0:0:0:
58,165,70893,69,12,0:0:0:0:
246,235,71189,1,4,0:3:0:0:
246,235,71288,1,0,1:0:0:0:
86,265,71485,6,0,B|127:278|160:251|160:251|202:216|254:238,1,170,4|0,1:0|1:0,0:0:0:0:
91,99,72078,2,0,L|108:186,1,85,10|0,0:0|0:0,0:0:0:0:
170,276,72373,1,2,0:0:0:0:
170,276,72472,5,0,1:0:0:0:
251,290,72571,1,4,0:3:0:0:
264,210,72670,1,8,0:3:0:0:
186,195,72768,1,8,0:3:0:0:
17,322,72866,101,8,0:0:0:0:
134,307,72966,1,8,0:0:0:0:
251,290,73064,1,8,0:0:0:0:
366,270,73163,1,8,0:0:0:0:
481,249,73262,38,0,P|484:203|456:166,1,85,4|0,1:0|0:0,0:0:0:0:
273,33,73459,2,0,P|311:58|357:52,1,85,8|0,0:0|0:0,0:0:0:0:
449,93,73656,2,0,P|407:113|389:156,1,85,0|0,1:0|0:0,0:0:0:0:
369,231,73854,2,0,L|392:325,1,85,10|0,0:0|0:0,0:0:0:0:
256,292,74051,6,0,P|215:281|166:364,1,127.5,2|0,1:2|0:0,0:0:0:0:
162,337,74248,2,0,P|161:289|115:245,1,85,8|0,0:0|0:0,0:0:0:0:
33,376,74446,2,0,P|74:344|76:288,1,85,0|0,1:0|0:0,0:0:0:0:
64,139,74643,2,0,P|20:177|26:231,1,85,10|0,0:0|0:0,0:0:0:0:
16,200,74841,70,0,B|55:218|89:191|89:191|143:158|193:197,1,170,2|8,1:2|0:0,0:0:0:0:
307,200,75136,1,2,0:0:0:0:
307,200,75235,2,0,P|282:233|241:238,1,85,0|0,1:0|0:0,0:0:0:0:
176,186,75432,2,0,L|202:10,1,170,8|2,0:0|1:2,0:0:0:0:
57,314,75828,5,10,0:0:0:0:
42,231,76025,69,10,0:0:0:0:
27,148,76222,5,10,0:0:0:0:
17,67,76420,6,0,B|31:172|-7:264|-7:264|49:208|166:240,1,340,4|0,1:0|0:0,0:0:0:0:
205,91,76716,2,0,B|155:167|191:317|341:258|334:149|298:68,1,340,4|0,1:0|0:0,0:0:0:0:
393,116,77012,2,0,B|423:169|431:237|431:237|452:178|521:133,1,255,12|0,0:1|0:0,0:0:0:0:
57,314,77406,53,10,0:0:0:0:
42,231,77604,5,10,0:0:0:0:
27,148,77801,69,10,0:0:0:0:
10,66,77999,22,0,B|31:102|93:137|125:45|125:45|85:147|89:280,1,340,4|0,1:0|0:0,0:0:0:0:
184,188,78295,2,0,P|303:210|184:235,1,340,4|0,1:0|0:0,0:0:0:0:
491,203,78591,2,0,B|516:292|449:330|351:288|407:183,1,255,12|0,0:1|0:0,0:0:0:0:
425,106,78985,6,0,P|377:107|343:144,1,85,10|0,0:0|0:0,0:0:0:0:
289,190,79182,2,0,P|241:189|207:152,1,85,2|0,1:2|0:0,0:0:0:0:
143,111,79379,2,0,L|126:206,1,85,10|0,0:0|0:0,0:0:0:0:
4,250,79577,38,0,B|52:235|82:262|82:262|124:296|180:260,1,165.749992412568,4|0,1:0|0:0,0:0:0:0:
175,258,79774,2,0,P|221:260|245:295,1,85,8|0,0:0|0:0,0:0:0:0:
323,344,79972,2,0,P|323:299|348:265,1,85,0|0,1:0|0:0,0:0:0:0:
425,293,80170,2,0,P|426:334|403:369,1,85,10|0,0:0|0:0,0:0:0:0:
333,185,80367,6,0,P|310:150|309:108,1,85,2|0,1:2|0:0,0:0:0:0:
369,50,80564,2,0,P|393:95|383:142,1,85,8|0,0:2|0:0,0:0:0:0:
333,185,80762,2,0,P|290:191|247:162,1,85,2|0,1:2|0:0,0:0:0:0:
111,80,80959,2,0,P|68:74|25:103,1,85,10|0,0:2|0:0,0:0:0:0:
173,174,81156,70,0,B|200:53|200:53|233:115,1,170,2|8,1:2|0:0,0:0:0:0:
292,278,81452,1,2,0:0:0:0:
292,278,81551,2,0,P|251:274|215:226,1,85,0|0,1:0|0:0,0:0:0:0:
76,184,81748,2,0,P|139:233|104:311,1,170,8|2,0:0|1:2,0:0:0:0:
257,30,82143,5,8,0:0:0:0:
212,101,82242,1,8,0:3:0:0:
221,184,82341,1,8,0:3:0:0:
281,244,82439,1,4,0:3:0:0:
364,256,82538,1,4,0:3:0:0:
438,220,82637,1,0,1:0:0:0:
438,220,82735,70,0,L|455:309,1,85,4|8,1:0|0:0,0:0:0:0:
74,220,83328,1,8,0:3:0:0:
74,220,83426,1,8,0:3:0:0:
74,220,83525,2,0,L|57:309,1,85,4|8,1:0|0:0,0:0:0:0:
381,82,84117,5,8,0:3:0:0:
397,160,84216,1,4,0:3:0:0:
414,239,84314,1,2,1:2:0:0:
414,239,84512,69,10,0:0:0:0:
313,268,84610,1,8,0:0:0:0:
236,216,84709,1,8,0:0:0:0:
237,135,84808,1,8,0:3:0:0:
289,85,84906,1,4,0:3:0:0:
336,91,85005,1,4,0:3:0:0:
359,118,85104,1,0,1:0:0:0:
359,148,85203,1,0,1:0:0:0:
345,169,85301,5,2,1:2:0:0:
345,169,85499,1,10,0:0:0:0:
345,169,85696,2,0,L|336:98,1,63.7500024318696,8|8,0:0|0:0,0:0:0:0:
324,21,85893,1,4,1:0:0:0:
132,292,86288,70,0,P|52:305|110:203,1,255,12|0,0:0|0:0,0:0:0:0:
380,292,86683,1,8,0:2:0:0:
380,292,87078,86,0,P|460:305|402:203,1,255,12|0,0:0|0:0,0:0:0:0:
132,292,87472,1,8,0:2:0:0:
304,62,87669,22,0,B|368:-18|470:21|497:97|414:167|363:88,1,280.500002675057,12|0,0:0|0:0,0:0:0:0:
208,62,87965,2,0,B|144:-18|42:21|15:97|98:167|149:88,1,280.500002675057,12|0,0:0|0:0,0:0:0:0:
256,144,88262,6,0,L|256:229,1,85,12|0,0:1|0:0,0:0:0:0:
