osu file format v14

[General]
AudioFilename: blends.mp3
AudioLeadIn: 0
PreviewTime: 46764
Countdown: 0
SampleSet: Soft
StackLeniency: 0.7
Mode: 2
LetterboxInBreaks: 0
WidescreenStoryboard: 0

[Editor]
DistanceSpacing: 1
BeatDivisor: 4
GridSize: 32
TimelineZoom: 1.8

[Metadata]
Title:Bon Appetit S (TV Size ver)
TitleUnicode:ぼなぺてぃーと♡S (TVサイズver)
Artist:Blend A
ArtistUnicode:ブレンド・A
Creator:Underforest
Version:Ascendance's Special Rain
Source:ブレンド・S
Tags:Blend Burendo S Ace Opening Appétit 和氣あず未 Azumi Waki 鬼頭明里 Akari Kitou 春野杏 Anzu Haruno y0c1e Hifumi, Inc. こだまさおり 一ノ瀬久 二家本亮介 菊地亮太 伊藤“三代”タカシ Kodama Saori Ichinose Hisa Niiemoto Ryousuke Kikuchi Ryouta Itou "Mitsuyo" Takashi Left Sekaii Sekai Sekai-nyan Ascendance
BeatmapID:1467044
BeatmapSetID:678593

[Difficulty]
HPDrainRate:6
CircleSize:4
OverallDifficulty:9
ApproachRate:9
SliderMultiplier:2.2
SliderTickRate:2

[Events]
//Background and Video events
0,0,"bg.jpg",0,0
Video,110,"video.avi"
//Break Periods
//Storyboard Layer 0 (Background)
//Storyboard Layer 1 (Fail)
//Storyboard Layer 2 (Pass)
//Storyboard Layer 3 (Foreground)
//Storyboard Sound Samples

[TimingPoints]
630,394.736842105263,4,2,2,65,1,0
630,-100,4,2,2,65,0,0
5366,-100,4,2,2,40,0,0
6551,-100,4,2,2,65,0,0
6945,-100,4,2,2,70,0,0
16419,-100,4,2,2,70,0,0
18195,-100,4,2,2,70,0,0
18787,-100,4,2,2,70,0,0
19577,-100,4,2,2,65,0,0
32208,-100,4,2,1,65,0,0
38524,-100,4,2,2,65,0,0
41682,-100,4,2,2,65,0,0
44840,-100,4,2,2,65,0,0
45926,-100,4,2,2,65,0,0
46419,-100,4,2,2,65,0,0
47603,-100,4,2,2,65,0,0
47998,-100,4,2,2,80,0,1
57669,-100,4,2,2,80,0,1
59051,-100,4,2,2,80,0,1
60235,-100,4,2,2,80,0,0
60629,-100,4,2,2,80,0,1
65366,-100,4,2,2,80,0,1
71485,-100,4,2,2,80,0,1
72472,-100,4,2,2,80,0,1
73261,-100,4,2,2,70,0,0
82735,-100,4,2,2,70,0,0
87669,-100,4,2,2,70,0,0
88261,-100,4,2,2,70,0,0
88656,-100,4,2,2,5,0,0

[Colours]
Combo1 : 199,238,43
Combo2 : 240,9,119
Combo3 : 37,160,235
Combo4 : 241,206,10
Combo5 : 210,49,234
SliderTrackOverride : 30,30,30
SliderBorder : 255,255,250

[HitObjects]
86,330,630,6,0,L|77:195,1,110,4|8,1:0|0:3,0:0:0:0:
131,203,926,1,4,0:3:0:0:
183,187,1024,1,0,1:0:0:0:
332,163,1222,1,8,0:3:0:0:
145,75,1419,1,0,1:0:0:0:
148,129,1517,1,4,0:3:0:0:
152,184,1616,1,8,0:3:0:0:
307,236,1814,1,8,0:3:0:0:
157,301,2011,2,0,L|87:310,1,55,4|0,0:3|1:0,0:0:0:0:
297,323,2208,6,0,L|430:335,2,110,8|0|8,0:3|1:0|0:3,0:0:0:0:
162,351,2801,2,0,L|153:278,1,55,8|0,0:3|0:0,0:0:0:0:
229,253,2998,2,0,L|221:189,1,55,0|4,1:0|0:3,0:0:0:0:
141,168,3195,1,8,0:3:0:0:
292,121,3393,2,0,L|416:121,1,110,4|0,0:3|1:0,0:0:0:0:
348,89,3689,1,0,1:0:0:0:
135,47,3787,6,0,L|65:47,2,55,8|8|0,0:3|0:3|1:0,0:0:0:0:
273,49,4182,1,8,0:3:0:0:
156,126,4379,2,0,L|163:184,1,55,8|0,0:3|0:0,0:0:0:0:
368,230,4577,2,0,L|361:298,1,55,0|8,1:0|0:3,0:0:0:0:
200,326,4774,2,0,L|76:332,2,110,8|4|0,0:3|0:3|1:0,0:0:0:0:
270,325,5268,1,0,0:0:0:0:
70,263,5366,6,0,L|51:128,1,110,6|0,0:0|0:0,0:0:0:0:
201,176,5761,2,0,L|318:165,1,110,2|0,0:0|0:0,0:0:0:0:
46,29,6156,2,0,L|176:36,1,110,2|0,0:0|0:0,0:0:0:0:
209,37,6452,1,0,0:0:0:0:
391,125,6551,2,0,L|460:128,1,55,2|0,0:0|0:0,0:0:0:0:
219,212,6748,2,0,L|149:207,1,55,0|0,0:0|0:0,0:0:0:0:
411,352,6945,6,0,L|418:232,1,110,4|8,1:0|0:0,0:0:0:0:
280,210,7340,1,2,1:2:0:0:
432,119,7537,1,10,0:0:0:0:
377,119,7635,1,0,0:0:0:0:
322,119,7734,1,2,1:2:0:0:
182,127,7932,1,8,0:0:0:0:
304,283,8129,2,0,L|312:164,1,110,0|10,1:0|0:0,0:0:0:0:
45,253,8524,6,0,L|184:265,1,110,4|10,1:0|0:0,0:0:0:0:
289,324,8919,2,0,L|408:336,1,110,4|10,1:2|0:0,0:0:0:0:
101,340,9314,2,0,L|83:221,1,110,4|10,1:2|0:0,0:0:0:0:
216,128,9708,2,0,L|77:113,1,110,2|10,1:2|0:0,0:0:0:0:
458,40,10103,6,0,L|340:52,2,110,4|10|0,1:0|0:0|0:0,0:0:0:0:
299,167,10695,1,10,0:0:0:0:
231,113,10794,2,0,L|230:42,1,55,0|2,0:0|1:2,0:0:0:0:
382,33,11090,1,10,0:0:0:0:
328,21,11189,2,0,L|152:21,1,165,2|10,0:2|0:0,0:0:0:0:
434,252,11682,6,0,L|453:121,1,110,4|10,1:0|0:0,0:0:0:0:
155,174,12077,2,0,L|38:167,1,110,4|10,1:0|0:0,0:0:0:0:
300,330,12472,1,4,1:0:0:0:
388,242,12669,1,10,0:0:0:0:
370,191,12768,1,8,0:0:0:0:
325,161,12866,1,10,0:0:0:0:
150,185,13064,2,0,L|141:122,1,55,10|8,0:0|0:0,0:0:0:0:
358,49,13261,5,4,1:0:0:0:
403,76,13359,1,0,0:0:0:0:
407,129,13458,1,8,0:0:0:0:
366,163,13557,1,0,0:0:0:0:
311,167,13656,2,0,L|252:167,1,55,2|0,1:2|0:0,0:0:0:0:
311,167,13853,2,0,L|380:167,1,55,8|0,0:0|0:0,0:0:0:0:
149,327,14051,6,0,L|137:245,1,55,2|0,1:2|0:0,0:0:0:0:
227,239,14248,2,0,L|213:167,1,55,8|2,0:0|0:0,0:0:0:0:
114,188,14445,1,0,1:0:0:0:
85,142,14543,1,0,0:0:0:0:
95,90,14642,1,10,0:0:0:0:
138,58,14741,1,0,0:0:0:0:
341,46,14840,6,0,L|469:58,1,110,6|8,1:2|0:0,0:0:0:0:
372,129,15136,2,0,L|250:131,1,110,2|0,0:0|0:0,0:0:0:0:
195,134,15432,1,10,0:0:0:0:
464,270,15629,2,0,L|291:260,2,165,2|2|10,1:2|0:0|0:0,0:0:0:0:
178,338,16419,6,0,L|170:210,1,110,0|0,1:0|1:0,0:0:0:0:
456,154,16814,1,12,0:1:0:0:
308,153,17011,1,0,0:0:0:0:
450,158,17208,2,0,L|335:158,1,110,0|0,1:0|1:0,0:0:0:0:
28,149,17603,1,12,0:1:0:0:
158,151,17801,1,0,0:0:0:0:
28,149,17998,6,0,L|22:88,1,55,4|4,3:0|0:3,0:0:0:0:
188,70,18195,2,0,L|337:59,1,110,8|0,0:0|1:0,0:0:0:0:
478,182,18491,2,0,L|348:173,1,110,8|0,0:0|1:0,0:0:0:0:
103,57,18787,2,0,P|40:106|112:212,1,220,12|0,0:1|0:0,0:0:0:0:
362,217,19577,5,4,0:1:0:0:
173,290,20169,2,0,L|117:289,2,55,0|0|0,0:0|0:0|0:0,0:0:0:0:
320,289,20564,2,0,L|433:289,2,110,0|0|0,0:0|0:0|0:0,0:0:0:0:
56,291,21156,5,4,0:0:0:0:
242,207,21748,1,0,0:0:0:0:
187,207,21846,1,0,0:0:0:0:
132,207,21945,1,0,0:0:0:0:
248,208,22143,1,0,0:0:0:0:
108,280,22340,2,0,L|91:159,1,110,0|0,0:0|0:0,0:0:0:0:
374,126,22735,5,4,0:0:0:0:
203,85,23327,2,0,L|80:91,2,110,0|0|0,0:0|0:0|0:0,0:0:0:0:
57,203,23919,2,0,L|44:89,1,110,0|0,0:0|0:0,0:0:0:0:
333,183,24314,6,0,L|507:195,2,165,4|0|0,0:0|0:0|0:0,0:0:0:0:
156,289,25103,2,0,P|130:206|195:149,1,165,4|8,0:1|0:3,0:0:0:0:
265,148,25498,1,4,0:3:0:0:
109,291,25695,2,0,L|50:289,1,55,8|8,0:3|0:3,0:0:0:0:
310,339,25893,5,4,1:0:0:0:
185,335,26090,1,8,0:3:0:0:
141,303,26188,1,4,0:3:0:0:
125,251,26287,1,0,1:0:0:0:
145,200,26386,1,8,0:3:0:0:
190,172,26484,1,8,0:3:0:0:
355,243,26682,1,8,0:3:0:0:
362,188,26780,1,8,0:3:0:0:
370,134,26879,1,4,0:3:0:0:
248,119,27077,1,8,0:3:0:0:
407,109,27274,2,0,L|338:103,1,55,0|0,1:0|1:0,0:0:0:0:
128,74,27472,5,4,1:2:0:0:
266,43,27669,1,8,0:3:0:0:
320,48,27767,1,8,0:3:0:0:
374,56,27866,1,8,0:3:0:0:
243,299,28063,1,4,0:3:0:0:
120,288,28261,2,0,L|42:284,2,55,8|8|4,0:3|0:3|0:3,0:0:0:0:
259,277,28656,1,8,0:3:0:0:
127,194,28853,2,0,L|120:131,1,55,4|4,0:3|0:3,0:0:0:0:
325,83,29051,5,4,1:2:0:0:
176,125,29248,2,0,L|187:248,1,110,8|0,0:3|1:0,0:0:0:0:
240,243,29544,1,4,0:3:0:0:
294,252,29643,1,8,0:3:0:0:
153,345,29840,2,0,L|358:331,2,165,8|2|8,0:3|0:0|0:0,0:0:0:0:
462,368,30629,5,12,0:0:0:0:
178,238,31419,2,0,L|346:226,1,165,4|8,1:2|0:3,0:0:0:0:
250,155,31814,2,0,L|116:145,1,110,4|4,0:3|0:3,0:0:0:0:
416,53,32208,5,4,0:1:0:0:
288,113,32406,2,0,L|227:119,2,55,0|0|8,0:0|0:0|0:0,0:0:0:0:
416,53,32801,1,0,0:0:0:0:
215,190,32998,5,2,0:0:0:0:
343,250,33196,2,0,L|404:256,2,55,0|0|8,0:0|0:0|0:0,0:0:0:0:
244,178,33591,1,0,0:0:0:0:
71,309,33787,6,0,L|61:180,1,110,2|0,0:0|0:0,0:0:0:0:
210,269,34182,2,0,L|336:256,1,110,8|0,0:0|0:0,0:0:0:0:
158,120,34577,2,0,L|343:138,1,165,2|0,0:0|0:0,0:0:0:0:
406,218,34972,2,0,L|429:93,1,110,8|0,0:0|0:0,0:0:0:0:
96,53,35366,5,6,0:0:0:0:
224,113,35564,2,0,L|285:119,2,55,0|0|8,0:0|0:0|0:0,0:0:0:0:
96,53,35959,1,0,0:0:0:0:
297,190,36156,5,2,0:0:0:0:
169,250,36354,2,0,L|108:256,2,55,0|0|8,0:0|0:0|0:0,0:0:0:0:
297,190,36749,1,0,0:0:0:0:
151,353,36945,6,0,L|138:229,1,110,2|0,0:0|0:0,0:0:0:0:
278,275,37340,2,0,L|395:259,1,110,8|0,0:0|0:0,0:0:0:0:
121,161,37735,2,0,L|357:184,1,220,2|2,0:3|0:3,0:0:0:0:
454,56,38327,2,0,L|392:63,1,55,0|0,0:0|0:0,0:0:0:0:
80,87,38524,5,4,1:0:0:0:
211,150,38722,1,8,0:0:0:0:
206,204,38820,1,0,0:0:0:0:
201,259,38919,1,0,1:0:0:0:
80,87,39116,1,8,0:0:0:0:
244,72,39314,5,4,1:2:0:0:
375,135,39512,1,8,0:0:0:0:
370,189,39610,1,0,0:0:0:0:
365,244,39709,1,0,1:0:0:0:
244,72,39906,1,10,0:0:0:0:
386,23,40103,6,0,L|262:31,1,110,2|10,1:2|0:0,0:0:0:0:
97,123,40498,2,0,L|233:117,1,110,0|10,1:0|0:0,0:0:0:0:
468,117,40893,1,0,1:0:0:0:
326,172,41090,2,0,L|335:235,1,55,8|8,0:0|0:0,0:0:0:0:
425,233,41287,2,0,L|434:295,1,55,8|8,0:0|0:0,0:0:0:0:
218,329,41485,2,0,L|151:336,1,55,8|8,0:3|0:3,0:0:0:0:
407,353,41682,5,4,1:0:0:0:
139,282,42077,1,8,0:0:0:0:
407,353,42472,1,0,1:0:0:0:
272,293,42669,1,0,0:0:0:0:
326,285,42767,1,0,1:0:0:0:
381,278,42866,1,8,0:0:0:0:
75,248,43064,6,0,P|46:154|145:91,1,220,4|0,1:2|1:0,0:0:0:0:
261,70,43656,2,0,L|252:184,1,110,8|0,0:0|0:0,0:0:0:0:
89,258,44051,2,0,L|260:276,2,165,8|8|0,0:3|0:3|1:0,0:0:0:0:
418,332,44840,6,0,L|432:210,1,110,4|0,1:0|1:0,0:0:0:0:
307,235,45235,1,8,0:0:0:0:
252,229,45333,1,8,0:3:0:0:
197,224,45432,1,4,0:3:0:0:
465,89,45629,2,0,L|283:103,2,165,4|4|4,1:0|1:2|1:2,0:0:0:0:
110,31,46419,5,12,0:1:0:0:
288,129,46814,2,0,L|65:149,2,220,0|0|2,0:0|0:0|0:3,0:0:0:0:
435,226,47801,2,0,L|449:157,1,55,0|0,0:0|0:0,0:0:0:0:
170,96,47998,5,4,1:0:0:0:
292,53,48195,2,0,L|371:60,2,55,8|0|0,0:0|0:0|1:0,0:0:0:0:
170,96,48590,2,0,L|102:88,1,55,10|0,0:0|0:0,0:0:0:0:
328,288,48787,2,0,L|337:157,1,110,2|8,1:2|0:0,0:0:0:0:
282,164,49083,1,2,0:0:0:0:
227,157,49182,1,0,1:0:0:0:
396,102,49379,1,10,0:0:0:0:
116,287,49577,6,0,L|102:162,1,110,4|10,1:2|0:0,0:0:0:0:
270,231,49972,2,0,L|388:218,1,110,4|10,1:2|0:0,0:0:0:0:
66,52,50366,1,4,1:2:0:0:
175,64,50563,1,10,0:0:0:0:
284,76,50760,1,4,1:2:0:0:
149,182,50958,2,0,L|141:119,1,55,10|0,0:0|0:0,0:0:0:0:
356,167,51156,6,0,L|479:178,2,110,4|10|0,1:0|0:0|0:0,0:0:0:0:
206,284,51748,1,10,0:0:0:0:
194,174,51945,1,2,1:2:0:0:
348,225,52143,1,8,0:0:0:0:
202,290,52340,2,0,L|71:301,1,110,2|8,0:0|0:0,0:0:0:0:
420,354,52735,6,0,L|447:241,1,110,4|10,1:0|0:0,0:0:0:0:
136,212,53129,2,0,L|114:97,1,110,4|10,1:0|0:0,0:0:0:0:
391,214,53524,1,4,1:0:0:0:
431,179,53622,1,0,0:0:0:0:
431,125,53721,1,10,0:0:0:0:
390,91,53820,1,8,0:0:0:0:
193,83,53919,2,0,L|120:83,2,55,10|8|10,0:0|0:0|0:0,0:0:0:0:
458,92,54314,5,4,1:0:0:0:
322,179,54511,2,0,L|199:171,1,110,10|2,0:0|1:2,0:0:0:0:
332,318,54906,2,0,L|395:315,1,55,8|0,0:0|0:0,0:0:0:0:
211,250,55103,2,0,L|87:255,2,110,0|10|0,1:0|0:0|1:0,0:0:0:0:
380,243,55695,1,10,0:0:0:0:
117,344,55893,6,0,L|112:208,1,110,4|10,1:2|0:0,0:0:0:0:
272,197,56287,1,2,1:2:0:0:
126,139,56485,2,0,L|198:128,1,55,8|0,0:0|0:0,0:0:0:0:
339,66,56682,2,0,L|219:44,1,110,2|10,1:2|0:2,0:0:0:0:
369,263,57077,2,0,L|383:139,1,110,0|10,1:0|0:2,0:0:0:0:
211,134,57472,5,0,1:0:0:0:
75,116,57669,1,0,1:0:0:0:
433,69,57866,1,12,0:1:0:0:
284,270,58261,5,0,1:0:0:0:
420,252,58458,1,0,1:0:0:0:
62,205,58655,1,12,0:1:0:0:
244,111,59051,6,0,L|101:122,1,110,12|0,0:1|0:0,0:0:0:0:
313,226,59347,2,0,L|433:237,1,110,4|0,0:3|0:0,0:0:0:0:
99,323,59643,2,0,L|85:201,1,110,10|2,0:0|1:2,0:0:0:0:
254,237,60037,2,0,L|321:231,1,55,2|8,0:0|0:3,0:0:0:0:
151,174,60235,2,0,L|89:178,1,55,2|2,1:2|0:0,0:0:0:0:
323,238,60432,2,0,L|401:228,1,55,10|2,0:0|0:0,0:0:0:0:
126,332,60629,5,4,1:0:0:0:
252,267,60827,2,0,L|329:276,2,55,8|0|0,0:0|0:0|1:0,0:0:0:0:
101,232,61222,2,0,L|95:166,1,55,10|0,0:0|0:0,0:0:0:0:
282,157,61419,2,0,L|396:146,1,110,2|8,1:2|0:0,0:0:0:0:
337,137,61715,2,0,L|276:134,1,55,2|0,0:0|1:0,0:0:0:0:
141,127,62011,1,10,0:2:0:0:
423,336,62208,6,0,L|436:216,1,110,4|10,1:2|0:0,0:0:0:0:
267,274,62603,2,0,L|153:267,1,110,4|10,1:2|0:0,0:0:0:0:
440,64,62998,1,4,1:2:0:0:
330,71,63195,1,10,0:0:0:0:
220,78,63392,1,4,1:2:0:0:
375,168,63590,2,0,L|383:95,1,55,10|0,0:0|0:0,0:0:0:0:
191,173,63787,6,0,L|53:185,2,110,4|8|0,1:0|0:0|0:0,0:0:0:0:
327,273,64379,2,0,L|330:204,1,55,10|0,0:0|0:0,0:0:0:0:
266,197,64577,1,0,1:0:0:0:
119,197,64774,1,8,0:0:0:0:
278,201,64972,2,0,L|407:201,1,110,8|8,0:0|0:0,0:0:0:0:
332,235,65268,1,8,0:0:0:0:
71,333,65366,6,0,L|58:216,1,110,12|0,0:1|0:0,0:0:0:0:
342,285,65761,2,0,L|460:272,1,110,12|0,0:1|0:0,0:0:0:0:
156,164,66156,2,0,L|44:172,1,110,12|0,0:1|0:0,0:0:0:0:
387,231,66551,2,0,P|422:154|358:97,1,165,12|0,0:1|0:0,0:0:0:0:
162,58,66945,6,0,L|44:62,2,110,4|2|10,1:0|0:0|0:0,0:0:0:0:
293,98,67537,1,0,0:0:0:0:
338,126,67635,1,0,0:0:0:0:
358,176,67734,1,2,1:2:0:0:
344,228,67833,1,4,0:3:0:0:
302,262,67931,1,2,1:2:0:0:
171,297,68129,2,0,L|100:296,2,55,10|0|2,0:2|0:0|0:2,0:0:0:0:
367,343,68524,5,4,1:2:0:0:
225,287,68722,2,0,L|234:171,1,110,2|10,0:0|0:0,0:0:0:0:
386,218,69116,2,0,L|455:212,2,55,0|0|2,0:0|0:0|1:2,0:0:0:0:
201,101,69511,2,0,L|337:119,1,110,2|10,1:2|0:0,0:0:0:0:
460,143,69906,1,2,0:0:0:0:
163,339,70103,6,0,L|154:213,1,110,12|0,0:1|0:0,0:0:0:0:
323,257,70498,2,0,L|444:241,1,110,8|0,0:0|0:0,0:0:0:0:
109,85,70893,2,0,L|314:102,1,165,12|4,0:0|0:3,0:0:0:0:
329,108,71287,1,0,1:0:0:0:
61,299,71485,6,0,P|13:207|103:133,1,220,4|0,1:0|1:0,0:0:0:0:
240,221,72077,2,0,L|246:103,1,110,10|0,0:0|0:0,0:0:0:0:
193,93,72373,1,2,0:0:0:0:
139,80,72472,1,0,1:0:0:0:
292,74,72669,2,0,L|361:67,1,55,8|8,0:3|0:3,0:0:0:0:
184,162,72866,2,0,L|128:157,1,55,8|8,0:0|0:0,0:0:0:0:
292,74,73064,2,0,L|361:67,1,55,8|8,0:0|0:0,0:0:0:0:
133,308,73261,6,0,L|125:191,1,110,4|8,1:0|0:0,0:0:0:0:
176,176,73557,1,0,0:0:0:0:
228,158,73656,1,0,1:0:0:0:
379,132,73853,1,10,0:0:0:0:
197,96,74051,2,0,L|75:84,1,110,2|8,1:2|0:0,0:0:0:0:
145,63,74347,2,0,L|220:57,1,55,0|0,0:0|1:0,0:0:0:0:
338,47,74643,1,10,0:0:0:0:
145,145,74840,6,0,L|271:156,1,110,2|8,1:2|0:0,0:0:0:0:
329,229,75136,2,0,L|203:241,1,110,2|0,0:0|0:0,0:0:0:0:
150,250,75432,1,8,0:0:0:0:
311,310,75629,1,2,1:2:0:0:
159,343,75827,2,0,L|152:229,1,110,10|10,0:0|0:0,0:0:0:0:
311,229,76222,2,0,L|235:228,1,55,10|0,0:0|0:0,0:0:0:0:
46,117,76419,6,0,L|235:132,2,165,4|4|12,1:0|1:0|0:1,0:0:0:0:
154,237,77208,2,0,L|294:230,1,110,0|10,0:0|0:0,0:0:0:0:
122,333,77603,2,0,L|57:327,2,55,10|0|10,0:0|0:0|0:0,0:0:0:0:
466,117,77998,6,0,L|277:132,2,165,4|4|12,1:0|1:0|0:1,0:0:0:0:
358,237,78787,2,0,L|218:230,1,110,0|10,0:0|0:0,0:0:0:0:
390,333,79182,2,0,L|455:327,2,55,2|0|10,1:2|0:0|0:0,0:0:0:0:
116,356,79577,6,0,L|106:236,1,110,4|8,1:0|0:0,0:0:0:0:
232,154,79972,2,0,L|84:141,1,110,0|10,1:0|0:0,0:0:0:0:
264,243,80366,2,0,L|401:239,1,110,2|8,1:2|0:2,0:0:0:0:
211,345,80761,2,0,L|183:228,1,110,2|10,1:2|0:2,0:0:0:0:
461,104,81156,6,0,L|279:124,2,165,2|2|8,1:2|0:0|0:0,0:0:0:0:
310,222,81945,2,0,L|189:211,1,110,2|8,1:2|0:0,0:0:0:0:
257,182,82241,1,8,0:3:0:0:
420,309,82340,2,0,L|475:294,1,55,8|4,0:3|0:3,0:0:0:0:
213,154,82537,2,0,L|152:140,1,55,4|0,0:3|1:0,0:0:0:0:
388,112,82735,6,0,L|501:105,1,110,4|0,1:0|0:0,0:0:0:0:
363,220,83129,2,0,L|488:213,1,110,8|8,0:0|0:3,0:0:0:0:
420,194,83426,1,8,0:3:0:0:
211,186,83524,2,0,L|86:193,1,110,4|0,1:0|0:0,0:0:0:0:
262,118,83919,2,0,L|379:112,1,110,8|8,0:0|0:3,0:0:0:0:
47,56,84314,5,2,1:2:0:0:
171,122,84511,1,10,0:0:0:0:
225,117,84609,1,8,0:0:0:0:
280,112,84708,1,8,0:0:0:0:
149,263,84906,2,0,L|135:201,1,55,4|4,0:3|0:3,0:0:0:0:
367,300,85103,6,0,L|483:285,2,110,0|2|10,1:0|1:2|0:0,0:0:0:0:
206,281,85695,2,0,L|136:288,1,55,8|8,0:0|0:0,0:0:0:0:
346,205,85893,6,0,L|362:88,1,110,4|0,1:0|0:0,0:0:0:0:
197,316,86287,2,0,L|182:203,1,110,12|0,0:0|0:0,0:0:0:0:
456,328,86682,2,0,L|338:340,1,110,8|0,0:2|0:0,0:0:0:0:
34,197,87077,1,12,0:0:0:0:
291,200,87472,5,8,0:2:0:0:
141,280,87669,2,0,L|129:157,1,110,12|0,0:0|0:0,0:0:0:0:
343,206,87965,2,0,L|464:193,1,110,12|0,0:0|0:0,0:0:0:0:
63,109,88261,5,12,0:1:0:0:
