osu file format v6

[General]
AudioFilename: Bleach Opening 11 - Anima Rossa (Tv Size).MP3
AudioLeadIn: 0
PreviewTime: -1
Countdown: 1
SampleSet: Normal
StackLeniency: 0.7
Mode: 0
LetterboxInBreaks: 1

[Editor]
DistanceSpacing: 0.800000011920929
BeatDivisor: 3
GridSize: 32

[Metadata]
Title:Anima Rosa
Artist:Bleach op 11
Creator:BloodyPaws
Version:Hard
Source:
Tags:Anime,Bleach,

[Difficulty]
HPDrainRate:5
CircleSize:6
OverallDifficulty:8
SliderMultiplier:0.6
SliderTickRate:4

[Events]
//Background and Video events
0,0,"Bleach - ED20 - Large 01.jpg"
//Break Periods
2,25669,27199
2,37654,38736
2,39686,41147
2,48813,50859
2,52498,54992
//Storyboard Layer 0 (Background)
//Storyboard Layer 1 (Fail)
//Storyboard Layer 2 (Pass)
//Storyboard Layer 3 (Foreground)
//Storyboard Sound Samples
//Background Colour Transformations
3,100,0,0,0

[TimingPoints]
776.986710963455,206.635548172757,4,1,0,100,1,0

[HitObjects]
64,192,6356,1,0
96,160,7286,1,0
128,128,8215,1,0
192,96,8939,1,0
224,128,9352,1,0
256,128,9868,1,0
288,128,10385,1,0
320,160,11418,1,0
320,224,12451,1,0
288,256,12968,1,0
256,288,13381,1,0
224,256,13898,1,0
192,224,14518,1,0
192,192,15758,5,0
256,128,16377,1,0
160,96,16894,1,0
64,160,17411,1,0
416,192,19167,2,0,B|-30:194|130:2|290:2|194:130|354:66|482:130|162:290|34:226|66:34,1,840
256,192,22886,12,0,25469
192,64,27949,5,0
320,128,28466,1,0
288,192,29602,1,0
224,160,29912,1,0
160,160,30222,1,0
96,160,30429,1,0
64,96,31565,1,0
128,64,31978,1,0
192,64,32495,1,0
288,64,33218,1,0
384,96,33632,1,0
384,160,34148,1,0
192,224,34871,1,0
192,224,35078,1,0
192,224,35285,1,0
168,179,37041,5,0
168,179,37248,1,0
168,179,37454,1,0
224,160,39486,5,12
104,169,41897,5,0
96,96,42207,1,0
160,64,42517,1,0
429,127,44170,1,0
407,209,44480,1,0
373,261,44790,1,0
269,277,45926,1,0
199,266,46133,1,0
174,209,46340,1,0
192,160,47269,1,0
160,128,47889,1,0
143,163,48199,1,0
128,128,48613,1,0
158,81,51609,5,0
218,103,52298,1,0
156,195,55742,5,0
141,136,56361,1,0
157,90,56465,1,0
264,116,57291,1,0
286,211,57601,1,0
184,236,58118,1,0
164,165,58531,1,0
225,120,59048,1,0
287,94,59668,1,0
319,89,60184,1,0
361,87,60597,1,0
389,88,61114,1,0
423,95,61631,1,0
412,142,62147,1,0
361,180,62457,1,0
315,205,62767,1,0
156,139,63697,1,0
226,107,64730,5,0
189,46,65557,1,0
136,57,65867,1,0
109,94,66073,1,0
105,142,66383,1,0
191,179,66693,1,0
192,128,67003,5,0
224,96,67313,1,0
256,96,67520,1,0
288,96,67830,1,0
288,64,68346,1,0
288,96,68760,1,0
288,128,69379,1,0
256,160,69896,1,0
256,192,71136,2,0,B|581:149|288:64,1,340
318,62,72892,2,0,B|99:70,1,200
57,128,73822,2,0,B|214:206,1,160
303,162,75062,2,0,B|433:108,1,120
444,254,76095,2,0,B|311:303,1,140
236,226,77748,5,0
192,160,79091,2,0,B|321:115,2,120
320,192,80538,6,0,B|182:315|184:315,2,180
256,192,81984,12,0,85841
256,160,86461,5,12
288,160,86668,1,12
320,160,86875,1,12
352,160,87081,1,12
352,192,87219,1,12
320,224,87357,1,12
288,224,87495,1,12
256,224,87701,1,12
352,192,87839,1,12
288,224,87977,1,12
224,224,89630,5,12
