osu file format v7

[General]
AudioFilename: Battlefields theme song.mp3
AudioLeadIn: 0
PreviewTime: 17120
Countdown: 0
SampleSet: Soft
StackLeniency: 0.7
Mode: 0
LetterboxInBreaks: 1

[Editor]
DistanceSpacing: 1
BeatDivisor: 4
GridSize: 8

[Metadata]
Title:Song for Enemy Losers
Artist:Blasting Strikes
Creator:bobek_fp
Version:Sergeant
Source:Battlefield Heroes
Tags:Blasting Strikes Army

[Difficulty]
HPDrainRate:4
CircleSize:4
OverallDifficulty:5
SliderMultiplier:1.4
SliderTickRate:0.5

[Events]
//Background and Video events
0,0,"background.JPG"
//Break Periods
2,49320,56920
2,99320,100920
2,111820,120920
//Storyboard Layer 0 (Background)
//Storyboard Layer 1 (Fail)
//Storyboard Layer 2 (Pass)
//Storyboard Layer 3 (Foreground)
//Storyboard Sound Samples
//Background Colour Transformations
3,100,163,162,255

[TimingPoints]
4120,500,4,2,0,50,1,0

[Colours]
Combo1 : 253,204,102
Combo2 : 28,145,21
Combo3 : 57,128,244
Combo4 : 157,98,26

[HitObjects]
80,64,18120,1,0
80,200,18620,1,8
216,200,19120,1,0
232,136,19370,1,8
368,136,19870,2,0,B|368:216,1,70
320,256,20370,2,0,B|320:304,2,35,0|0|8
384,280,20870,1,0
448,256,21120,1,8
472,192,21370,5,0
448,128,21620,1,8
408,72,21870,1,0
344,48,22120,2,0,B|296:16|264:64,1,70
272,112,22620,1,8
232,168,22870,6,0,B|184:200|152:152,2,70
304,168,23620,2,0,B|352:200|384:152,1,70,8|0
408,112,24120,1,0
448,168,24370,2,0,B|464:184|448:200,2,35,0|0|8
448,240,24870,2,8,B|448:288|400:288,1,70
352,328,25370,5,0
312,272,25620,1,8
272,328,25870,1,0
208,312,26120,2,0,B|144:264,1,70
224,272,26620,2,0,B|192:208,1,70,8|0
224,152,27120,1,0
288,128,27370,1,0
424,152,27870,1,0
360,128,28120,1,0
376,264,28620,1,8
240,264,29120,1,0
232,128,29620,1,8
96,160,30120,6,0,B|48:192|96:224,1,70
136,264,30620,1,8
192,304,30870,1,0
240,256,31120,2,0,B|272:224|240:176,1,70
208,136,31620,1,8
152,96,31870,1,0
200,48,32120,2,0,L|344:48|344:192,1,280,0|8
80,304,34120,5,0
216,304,34620,1,8
224,168,35120,1,0
288,152,35370,1,8
288,288,35870,2,0,C|368:288,1,70
424,288,36370,2,0,C|424:256,2,35,0|0|8
424,216,36870,2,0,C|424:136,1,70,0|8
424,80,37370,6,0,L|424:48|376:48,2,70,0|8|0
360,112,38120,2,0,L|328:112|328:64,1,70
272,112,38620,2,0,L|240:112|240:64,1,70,8|0
184,112,39120,2,0,L|152:112|152:64,3,70,0|0|8|0
96,112,40120,1,0
48,160,40370,2,0,C|16:192|32:176,2,35,0|0|8
88,216,40870,1,8
136,264,41120,1,8
192,304,41370,1,0
264,304,41620,1,8
320,264,41870,1,0
376,224,42120,6,0,B|408:192|376:160,1,70
313,165,42620,2,0,B|361:133|393:181,1,70,8|0
376,101,43120,2,0,B|408:133|376:165,1,70
312,168,43620,2,0,L|208:168,1,70,8|0
176,168,44120,1,0
40,168,44620,1,8
128,56,45120,1,0
264,56,45620,1,8
376,144,46120,6,0,B|376:240,1,70
312,192,46620,2,0,B|312:272,1,70,8|0
382,262,47120,2,0,B|286:262,1,70
249,262,47620,2,0,B|153:262,1,70,8|0
114,261,48120,2,0,B|98:181|130:101|234:61|306:85,1,280,0|8
96,80,58120,5,0
144,128,58370,1,0
160,64,58620,1,8
256,168,59120,1,0
256,304,59620,1,8
392,272,60120,5,0
432,216,60370,1,0
368,208,60620,1,8
240,144,61120,1,0
112,80,61620,1,8
96,216,62120,6,0,B|128:280,2,70,0|0|8
232,240,63120,2,0,B|152:96,1,140,0|8
304,104,64120,6,0,B|336:168,2,70,0|8|8
368,224,65120,1,0
280,328,65620,1,8
144,336,66120,6,0,B|96:272,1,70
144,336,66620,1,8
256,248,67120,2,0,B|384:152,1,140,0|8
432,40,68120,6,0,B|480:104,1,70
473,95,68620,1,8
336,80,69120,1,0
272,104,69370,1,0
232,160,69620,1,8
360,224,70120,5,8
416,264,70370,1,0
352,288,70620,1,8
216,304,71120,1,0
168,256,71370,1,0
232,240,71620,1,8
336,144,72120,5,8
272,120,72370,1,0
208,144,72620,1,8
272,264,73120,2,2,B|248:304|208:312,1,70
184,248,73620,1,2
144,304,73870,1,2
112,240,74120,6,2,B|112:160,1,70
96,64,75120,6,2,B|128:80,2,35
160,96,75620,1,8
224,216,76120,2,2,B|248:248|272:240|296:200|296:192,1,70
416,56,77120,6,2,B|384:72,2,35,2|2|2
352,88,77620,2,2,B|320:104,2,35
352,160,78120,2,0,B|384:192|352:240,1,70,4|0
296,240,78620,1,8
416,320,79120,6,2,B|368:320,2,35
344,320,79620,1,8
208,320,80120,2,0,L|208:224,1,70,4|0
208,184,80620,1,2
208,184,80870,1,2
208,184,81120,1,2
208,184,81370,1,2
152,144,81620,1,0
208,104,81870,6,0,L|288:104,1,70
416,104,82620,1,8
416,240,83120,1,0
352,240,83370,1,8
336,104,83870,1,0
272,104,84120,1,0
208,104,84370,2,0,L|208:152,2,35,0|0|8
144,104,84870,2,0,B|112:136|144:184,1,70,0|8
256,240,85620,5,0
320,264,85870,1,0
264,304,86120,1,8
128,304,86620,1,8
120,168,87120,2,0,B|168:136|200:184,1,70,0|8
328,168,87870,2,0,B|376:200|408:152,1,70,0|8
408,104,88370,2,8,B|360:104,2,35
424,40,88870,2,0,B|376:8|344:56,1,70,0|8
296,64,89370,5,0
240,104,89620,1,0
192,152,89870,2,0,B|256:200,1,70,0|8
176,192,90370,2,0,B|208:256,1,70,0|8
144,208,90870,2,0,B|144:288,2,70,0|8|0
120,144,91620,1,8
144,80,91870,2,0,L|192:80|192:128,1,70,0|8
256,80,92370,2,0,L|304:80|304:112,1,70,0|8
304,240,93120,1,0
440,240,93620,1,8
256,192,94120,12,0,97620
96,176,98120,5,2
200,176,98495,1,2
304,176,98870,2,4,L|384:176,1,70
416,176,102120,5,2
312,176,102495,1,2
208,176,102870,2,4,L|128:176,1,70
32,32,104120,6,4,B|112:32|160:80|160:176,1,210
112,216,105120,1,8
136,280,105370,2,4,B|184:280,2,35
256,208,106120,2,2,B|208:208,2,35
320,208,106620,1,8
384,208,106870,2,2,B|432:208,2,35
384,64,107620,1,8
280,64,107995,6,4,B|280:16,2,35
280,168,108620,1,8
280,232,108870,2,2,B|280:280,4,35
344,232,109620,1,8
208,232,110120,2,4,B|176:184|224:152,1,70
256,120,110620,1,8
320,128,110870,2,2,B|320:176,3,35
416,120,111620,1,8
472,96,122120,6,0,B|376:80|392:176,1,140
392,240,122870,1,2
392,172,123120,2,0,B|408:76|312:92,1,140
312,24,123870,1,2
316,92,124120,2,0,B|220:76|236:172,1,140
236,233,124870,2,0,B|316:233,3,70
372,233,125870,1,2
404,169,126120,6,0,B|436:137,2,35
444,233,126620,2,0,B|492:233,2,35
404,297,127120,2,0,B|436:345,2,35
332,297,127620,2,0,B|300:329,2,35
300,233,128120,2,0,B|252:233,2,35
332,169,128620,2,0,B|276:105,1,70
244,65,129120,1,2
204,121,129370,2,0,B|140:185,2,70,0|0|0
156,169,130120,6,0,B|156:249,1,70,0|0
212,281,130620,1,8
276,281,130870,2,0,L|308:281|308:233,1,70
244,217,131370,2,0,L|244:185|292:185,1,70,0|8
348,185,131870,2,0,L|348:265,1,70
348,321,132370,2,0,B|308:321,2,35,0|0|8
412,321,132870,1,8
412,257,133120,2,0,L|412:177,1,70,8|0
412,121,133620,6,0,L|364:57,1,70,8|0
372,137,134120,2,0,L|308:105,1,70
340,169,134620,2,0,L|260:153,1,70,8|0
324,201,135120,2,0,L|244:217,1,70
196,233,135620,1,8
132,249,135870,2,0,B|84:217|148:185,1,70
180,145,136370,2,0,B|148:113,2,35,0|0|8
228,97,136870,2,8,B|324:97,1,70
308,161,137370,6,0,B|388:161,3,70,0|8|0|0
380,297,138620,1,8
244,289,139120,1,0
244,225,139370,1,8
244,89,139870,1,0
244,153,140120,1,8
380,153,140620,1,8
244,153,141120,1,8
108,153,141620,1,8
44,281,142120,5,0
92,329,142370,1,0
140,281,142620,1,8
92,233,142870,1,0
44,185,143120,1,0
92,137,143370,1,0
140,185,143620,1,8
180,241,143870,1,0
228,289,144120,2,0,L|308:337|372:321,2,140,0|8|0
228,225,145370,6,0,B|228:177,4,35
292,225,146120,1,0
420,169,146620,1,8
300,97,147120,1,0
236,97,147370,1,8
132,193,147870,1,0
196,193,148120,1,8
260,193,148370,2,8,B|260:241,2,35
324,193,148870,2,8,B|356:145|388:209,1,70
452,305,149620,5,8
396,345,149870,1,0
388,281,150120,1,0
388,145,150620,1,8
260,81,151120,2,0,B|260:161,1,70
260,217,151620,1,8
260,281,151870,2,0,B|228:313|196:281,1,70
188,217,152370,2,0,B|140:217,1,35
116,217,152620,1,8
52,217,152870,2,0,B|52:153|116:169,1,70
156,153,153370,6,0,B|156:89|92:105,2,70,0|8|0
220,153,154120,2,0,B|380:153,2,140,0|8|0
220,217,155370,1,8
356,225,155870,2,0,B|372:273|324:273,1,70,0|8
324,129,156620,1,8
212,209,157120,1,8
100,297,157620,1,8
36,169,158120,6,0,B|116:169,1,70
108,105,158620,2,0,B|204:105,1,70,8|0
172,169,159120,2,0,B|252:169,1,70
244,105,159620,2,0,B|340:105,1,70,8|0
380,105,160120,2,0,L|460:105|460:249|396:249,1,280,0|8
