osu file format v7

[General]
AudioFilename: Battlefields theme song.mp3
AudioLeadIn: 0
PreviewTime: 17120
Countdown: 0
SampleSet: Soft
StackLeniency: 0.7
Mode: 0
LetterboxInBreaks: 1

[Editor]
DistanceSpacing: 0.600000023841858
BeatDivisor: 4
GridSize: 8

[Metadata]
Title:Song for Enemy Losers
Artist:Blasting Strikes
Creator:bobek_fp
Version:Private
Source:Battlefield Heroes
Tags:Blasting Strikes Army

[Difficulty]
HPDrainRate:2
CircleSize:3
OverallDifficulty:2
SliderMultiplier:1.4
SliderTickRate:0.5

[Events]
//Background and Video events
0,0,"background.JPG"
//Break Periods
2,49320,56560
2,114320,120560
//Storyboard Layer 0 (Background)
//Storyboard Layer 1 (Fail)
//Storyboard Layer 2 (Pass)
//Storyboard Layer 3 (Foreground)
//Storyboard Sound Samples
//Background Colour Transformations
3,100,163,162,255

[TimingPoints]
4120,500,4,2,0,50,1,0

[Colours]
Combo1 : 253,204,102
Combo2 : 28,145,21
Combo3 : 57,128,244
Combo4 : 157,98,26

[HitObjects]
96,192,18120,1,0
144,256,18620,1,8
208,304,19120,2,0,B|256:336|288:288,2,70,0|0|8
208,224,20120,1,0
272,176,20620,1,8
328,112,21120,2,0,B|296:80|264:112,2,70,0|0|8
416,112,22120,6,0,B|416:256,1,140,0|8
416,336,23120,2,0,B|256:336,1,140,0|8
272,256,24120,2,0,L|272:176|208:176,1,140,0|8
128,176,25120,2,0,L|128:80,4,70,0|0|8|0|0
128,264,26620,5,8
208,264,27120,2,0,L|352:264,1,140,0|8
352,184,28120,1,0
272,184,28620,1,8
192,184,29120,1,0
112,184,29620,1,8
112,104,30120,6,0,L|80:40|160:40,1,140,0|8
232,40,31120,2,0,L|184:104|264:104,1,140,0|8
328,104,32120,2,0,L|296:40|376:40,1,140,0|8
448,48,33120,1,8
456,216,34120,5,0
376,216,34620,1,8
296,216,35120,2,0,L|216:216,2,70,0|0|8
296,304,36120,1,0
216,304,36620,1,8
136,304,37120,2,0,L|88:240|152:240,1,140,0|8
232,240,38120,6,0,L|312:240|312:176,1,140,0|8
392,176,39120,2,0,L|392:256,2,70,0|0|8
480,176,40120,2,0,L|480:320,1,140,0|8
400,320,41120,2,0,L|368:320|304:320,2,70,0|0|8
400,232,42120,5,0
312,232,42620,1,8
232,232,43120,2,0,B|200:280|248:312,2,70,0|0|8
232,152,44120,2,0,B|376:152,1,140,0|8
368,232,45120,2,0,B|224:232,3,140,0|8|0|8
144,224,47120,2,8,B|80:184|80:120|112:72|160:48|224:48|248:120,2,280,0|8|8
64,304,58120,6,0,B|144:304|144:304,2,70,0|0|8
64,224,59120,2,0,L|144:224|144:160,1,140,0|8
144,80,60120,2,0,L|224:80,2,70,0|0|8
208,136,61120,2,0,L|208:216|288:216,1,140,0|8
352,216,62120,6,0,L|352:128,2,70,0|0|8
352,296,63120,2,0,L|272:296|272:232,1,140,0|8
184,240,64120,2,0,L|104:240,2,70,0|0|8
464,48,66120,5,0
464,88,66370,1,0
464,128,66620,1,8
464,208,67120,1,0
384,208,67620,1,8
384,128,68120,5,0
344,128,68370,1,0
344,88,68620,1,8
264,88,69120,1,0
264,168,69620,1,8
264,248,70120,2,0,C|328:312,2,70,0|0|8
184,240,71120,2,0,L|40:240,1,140,0|8
40,160,72120,2,0,C|40:80,2,70,0|0|8
256,192,73120,12,2,74120
448,64,75120,6,2,B|464:112|416:112,2,70
360,64,76120,2,0,B|296:128|360:192,1,140,4|0
440,192,77120,2,2,B|472:240|392:256,5,70
304,208,79120,2,2,L|272:208|224:208,2,70
304,128,80120,1,4
264,128,80370,1,0
256,192,80620,12,8,82120
256,192,82620,5,8
176,192,83120,2,2,L|176:288,1,70,8|8
256,264,83870,2,8,L|336:264,1,70
408,264,84620,2,2,L|408:120,2,140,8|8|0
328,272,86120,5,8
280,208,86620,1,8
352,192,87120,1,0
352,152,87370,1,8
296,96,87870,1,0
256,96,88120,1,8
176,96,88620,1,8
128,160,89120,1,8
152,192,89370,1,0
176,224,89620,1,8
232,288,90120,6,0,B|296:368|360:272,1,140,0|8
360,208,91120,2,0,B|296:128|232:224,1,140,0|8
160,208,92120,2,0,B|80:144|176:80,1,140,0|8
240,96,93120,2,0,B|320:160|224:224,1,140,0|8
256,192,94120,12,0,97620
80,80,98120,6,4,B|128:48|144:128|144:128|160:128|192:80,3,140,4|4|4|2
256,104,100120,1,2
336,104,100620,1,2
336,184,101120,1,2
256,184,101620,1,2
176,184,102120,6,4,B|128:152|112:232|112:232|96:232|64:184,3,140,4|4|4|2
64,128,104120,2,2,B|128:64|192:112,1,140
160,192,105120,2,2,B|224:256|288:208,1,140
256,128,106120,6,2,B|320:64|384:112,1,140,4|2
360,192,107120,2,2,B|424:256|488:208,1,140,4|4
472,128,108120,2,2,B|408:64|344:112,1,140,4|2
288,168,109120,2,2,B|224:232|272:296,1,140,4|4
352,296,110120,6,2,B|416:232|368:168,3,140,2|2|2|4
312,112,112120,2,2,B|248:48|184:112,1,140,4|2
128,160,113120,2,4,B|128:320,1,140
216,304,114120,1,6
256,192,122120,12,0,125120
304,320,126120,6,4,L|352:272|272:272,1,140
192,272,127120,2,4,L|144:224|224:224,1,140
304,208,128120,2,4,L|352:160|272:160,1,140
192,160,129120,2,4,L|144:112|224:112,1,140
304,112,130120,5,0
384,112,130620,1,8
384,192,131120,1,0
384,232,131370,1,8
384,312,131870,1,0
344,312,132120,1,8
264,312,132620,2,0,L|264:232,2,70,8|8|8
184,312,133620,6,2,L|184:232,2,70
104,312,134620,1,8
104,232,135120,1,2
104,192,135370,1,8
184,192,135870,2,0,B|264:192,1,70
336,208,136620,1,8
336,208,136870,1,8
328,128,137370,6,0,B|408:128,3,70,0|8|8|8
416,48,138620,1,8
400,128,139120,1,0
384,208,139620,1,8
320,256,140120,6,8,B|304:176|272:176|256:272,1,140
184,216,141120,1,8
144,288,141620,2,8,B|128:368|96:368|80:288,1,140,8|0
80,208,142620,5,8
80,128,143120,2,8,B|48:96|64:48|128:32|144:64,4,140
256,160,146120,6,0,B|320:96|384:176,1,140,0|8
416,240,147120,1,0
376,256,147370,1,8
296,288,147870,2,8,B|216:320,1,70
208,232,148620,2,8,B|288:200,2,70
176,152,149620,6,4,L|256:120|240:56,1,140,2|2
160,72,150620,2,4,L|80:104|96:168,1,140,2|2
128,232,151620,1,8
168,304,152120,1,0
248,304,152620,1,8
288,232,153120,5,0
264,152,153620,2,2,L|216:120|192:120|136:152,1,140,8|2
72,192,154620,1,2
72,112,155120,2,8,L|72:32,1,70
152,48,155870,2,8,L|232:48,1,70
304,48,156620,2,8,L|384:48|384:128,3,140,4|4|4|0
384,192,158620,5,8
384,272,159120,2,8,L|336:272|304:272,8,70,8|8|8|8|8|8|8|8|4
