osu file format v7

[General]
AudioFilename: Battlefields theme song.mp3
AudioLeadIn: 0
PreviewTime: 17120
Countdown: 0
SampleSet: Soft
StackLeniency: 0.7
Mode: 0
LetterboxInBreaks: 1

[Editor]
DistanceSpacing: 1.20000004768372
BeatDivisor: 4
GridSize: 8

[Metadata]
Title:Song for Enemy Losers
Artist:Blasting Strikes
Creator:bobek_fp
Version:General
Source:Battlefield Heroes
Tags:Blasting Strikes Army

[Difficulty]
HPDrainRate:6
CircleSize:4
OverallDifficulty:8
SliderMultiplier:1.4
SliderTickRate:0.5

[Events]
//Background and Video events
0,0,"background.JPG"
//Break Periods
2,49320,57370
2,66070,72370
2,109820,121370
//Storyboard Layer 0 (Background)
//Storyboard Layer 1 (Fail)
//Storyboard Layer 2 (Pass)
//Storyboard Layer 3 (Foreground)
//Storyboard Sound Samples
//Background Colour Transformations
3,100,163,162,255

[TimingPoints]
4120,500,4,2,0,50,1,0
144495,-200,4,2,0,50,0,0
145245,-100,4,2,0,50,0,0

[Colours]
Combo1 : 253,204,102
Combo2 : 28,145,21
Combo3 : 57,128,244
Combo4 : 157,98,26

[HitObjects]
80,192,17370,1,0
128,128,17620,1,0
208,96,17870,1,0
288,96,18120,2,0,B|320:128|288:160,1,70
208,160,18620,2,0,B|176:192|208:224,1,70,8|0
288,224,19120,1,0
208,224,19370,1,0
288,224,19620,2,0,B|368:224,1,70,8|0
416,160,20120,1,0
320,80,20495,2,8,B|288:112,1,35
240,160,20870,1,0
176,96,21120,1,0
112,160,21370,5,8
256,288,21620,1,8
400,160,21870,1,0
256,32,22120,2,0,B|256:112,1,70
176,96,22620,2,0,B|128:96|128:144,1,70,8|0
128,224,23120,2,0,B|128:272|176:272,1,70
256,272,23620,1,8
336,96,24120,2,0,B|384:96|384:144,1,70
384,176,24495,1,0
384,208,24620,1,8
384,304,24870,2,0,B|304:304,1,70,0|0
224,320,25370,5,8
80,192,25620,1,8
224,64,25870,1,0
368,192,26120,5,0
400,112,26370,1,0
368,192,26620,1,8
432,144,26870,1,0
368,192,27120,1,0
448,192,27370,1,0
368,192,27620,1,8
432,240,27870,1,0
368,192,28120,2,0,B|400:272,4,70,0|0|8|0|0
368,192,29370,1,0
368,192,29495,1,0
368,192,29620,1,8
256,64,30120,5,0
144,192,30620,1,8
256,320,31120,1,0
336,288,31370,2,0,B|400:256,1,70,0|8
320,256,31870,2,0,B|352:192,1,70
288,240,32370,2,0,B|288:160,1,70,0|8
256,240,32870,2,0,B|224:160,1,70,0|8
224,256,33370,5,0
208,224,33495,1,0
192,192,33620,1,0
176,160,33745,1,0
160,128,33870,1,8
240,112,34120,1,8
320,64,34370,6,0,B|224:64,1,70
320,112,34870,2,0,B|400:112,1,70,0|8
448,64,35370,2,0,B|368:64,1,70
448,112,35870,1,0
432,144,35995,1,0
448,176,36120,1,8
464,256,36370,1,0
480,288,36495,1,0
464,320,36620,1,8
400,320,36870,2,8,B|320:320,1,70
224,320,37370,1,8
336,256,37620,1,8
192,272,37870,1,8
304,208,38120,5,0
160,224,38370,1,0
272,160,38620,1,8
128,176,38870,1,0
240,112,39120,1,0
240,112,39245,1,0
240,112,39370,1,0
96,128,39620,1,8
48,192,39870,2,0,B|16:224|48:256,1,70
128,256,40370,2,0,B|128:304,2,35,0|0|8
208,256,40870,2,0,B|240:224|208:192,1,70
128,168,41370,6,0,B|128:88,3,70,0|8|0|0
208,80,42370,1,0
208,160,42620,1,8
288,160,42870,1,0
288,240,43120,2,0,B|288:320,1,70
336,240,43620,2,0,B|336:160,1,70,8|0
384,240,44120,6,0,B|384:320,1,70
432,240,44620,2,0,B|432:144,1,70,8|0
432,80,45120,1,0
272,80,45620,1,8
144,192,46120,5,0
64,192,46370,1,0
144,192,46620,1,8
96,256,46870,1,0
144,192,47120,1,0
168,272,47370,1,0
144,192,47620,1,8
224,224,47870,1,0
144,192,48120,1,0
216,152,48370,1,0
144,192,48620,1,8
160,112,48870,1,0
88,128,49120,1,8
128,64,58120,5,0
112,144,58370,1,0
192,144,58620,1,8
208,64,58870,1,0
208,64,58995,1,0
288,64,59245,1,0
288,64,59370,1,0
288,64,59495,1,0
288,64,59620,2,8,B|336:64|352:64|368:64,1,70,8|0
336,144,60120,5,0
416,144,60370,1,0
400,240,60620,2,0,B|304:240,1,70,8|0
304,240,60995,1,0
272,240,61120,1,0
240,240,61245,1,0
208,240,61370,1,0
128,240,61620,2,0,B|128:160,1,70,8|0
48,160,62120,5,0
48,240,62370,1,0
48,320,62620,1,8
48,320,62745,1,0
128,320,62995,1,0
128,320,63120,1,0
128,320,63245,1,0
128,320,63370,1,0
128,240,63620,1,8
208,240,63870,1,0
208,320,64120,5,0
240,320,64245,1,0
272,320,64370,1,0
288,240,64620,1,8
288,160,64870,1,0
288,160,64995,1,0
288,160,65120,1,0
288,160,65370,2,0,B|208:160,1,70,0|8
128,160,65870,1,0
96,80,73120,5,0
112,112,73245,1,0
144,128,73370,1,0
176,128,73495,1,0
208,144,73620,1,0
224,176,73745,1,0
224,208,73870,1,0
208,240,73995,1,0
176,256,74120,2,0,B|96:256,1,70,0|8
304,96,75120,5,0
336,64,75245,1,0
368,96,75370,1,0
336,176,75620,1,8
336,336,76120,1,0
272,288,76370,1,0
208,240,76620,2,0,B|128:208|112:128,1,140,8|0
115,142,77245,1,0
115,142,77370,1,0
112,64,77620,5,8
144,64,77745,1,0
176,64,77870,1,0
256,64,78120,2,0,B|288:112|240:144,1,70
464,272,79120,5,0
432,304,79245,1,0
400,272,79370,1,0
336,224,79620,1,8
160,192,80120,5,0
240,192,80370,1,0
336,112,80745,2,0,B|304:96,1,35
272,80,80995,2,0,B|224:80,1,35
208,96,81245,2,0,B|144:112,1,35
136,184,81620,5,8
176,256,81870,1,0
152,336,82120,2,0,B|248:336,1,70
288,280,82620,2,0,B|216:280,1,70,8|0
280,336,83120,2,8,L|328:336|328:280,1,70,8|0
304,144,83870,1,0
336,112,83995,1,0
304,80,84120,1,8
224,80,84370,1,0
192,112,84495,1,0
224,144,84620,1,8
208,224,84870,1,0
288,224,85120,1,8
208,224,85370,1,0
128,224,85620,6,0,B|80:192|144:160,1,70,0|0
160,240,86120,2,0,B|128:192|176:176,1,70,0|0
192,256,86620,2,0,B|160:208|208:192,1,70,8|0
224,272,87120,2,0,B|192:224|240:208,1,70
256,192,87495,1,0
288,176,87620,1,8
352,160,87870,5,0
336,128,87995,1,0
304,112,88120,1,0
352,48,88370,1,8
384,64,88495,1,0
400,96,88620,1,8
432,176,88870,1,0
400,256,89120,1,8
336,304,89370,5,8
256,320,89620,1,8
176,304,89870,1,8
112,256,90120,2,0,B|32:240|144:240,1,70
192,224,90620,1,8
192,144,90870,1,0
160,160,90995,1,0
128,176,91120,1,0
96,96,91370,2,0,B|128:48|176:80,1,70,0|8
240,80,91870,6,0,B|288:112|256:160,1,70
240,208,92370,2,0,B|208:256|160:224,1,70,0|8
112,192,92870,1,0
64,256,93120,1,0
208,336,93620,1,8
256,192,94120,12,0,97870
224,240,98120,5,4
288,176,98370,1,0
304,144,98495,1,4
224,160,98745,1,0
240,128,98870,1,4
288,48,99120,1,4
456,48,99620,5,0
456,216,100120,1,0
344,344,100620,1,0
200,264,101120,1,0
144,104,101620,1,0
304,48,102120,5,4
240,112,102370,1,0
224,144,102495,1,4
304,128,102745,1,0
288,160,102870,1,4
256,240,103120,1,4
48,48,104120,5,2
48,128,104370,1,2
48,288,104870,1,2
64,256,104995,1,0
48,224,105120,1,2
128,224,105370,5,4
144,256,105495,1,0
128,288,105620,1,2
288,288,106120,1,4
304,256,106245,1,2
288,224,106370,1,2
368,256,106620,1,0
448,288,106870,5,4
432,256,106995,1,2
448,224,107120,1,2
432,192,107245,1,0
448,160,107370,1,2
448,80,107620,1,4
320,80,107995,1,2
288,96,108120,1,2
256,112,108245,1,4
336,208,108620,1,4
256,224,108870,5,0
224,240,108995,1,2
224,280,109120,2,0,B|192:296,2,35
144,312,109620,1,4
64,144,122120,6,0,B|64:48|160:64|160:160,1,175,8|0
160,176,122870,5,0
160,208,122995,1,0
160,240,123120,2,0,B|160:336|256:320|256:224,1,175,8|0
256,208,123870,5,0
256,176,123995,1,0
256,144,124120,2,0,B|256:48|352:64|352:160,1,175,8|0
352,176,124870,5,0
352,208,124995,1,0
352,248,125120,2,0,B|352:336|448:328|448:256,1,140,8|0
448,112,126120,5,8
400,48,126370,1,0
352,112,126620,1,8
320,80,126745,1,0
288,48,126870,1,0
272,128,127120,1,8
304,160,127245,1,0
336,192,127370,1,0
256,208,127620,1,8
224,176,127745,1,0
192,144,127870,1,0
176,224,128120,5,8
208,256,128245,1,0
240,288,128370,1,0
304,240,128620,2,0,B|384:240,1,70,8|0
448,192,129120,2,0,B|368:192,1,70,0|8
448,192,129620,5,8
256,112,129870,1,0
176,320,130120,1,8
256,320,130370,2,0,B|288:288|256:256,1,70,0|8
176,256,130870,1,0
176,176,131120,2,0,B|144:144|192:96,2,70,8|0|8
256,176,131870,2,0,B|288:144|240:96,2,70,0|0|8
240,208,132495,1,8
224,240,132620,1,0
192,320,132870,2,0,B|224:352|272:304,1,70,0|8
320,272,133370,5,0
80,192,133620,1,8
320,112,133870,1,8
240,112,134120,2,0,B|176:48,2,70,0|0|8
240,112,134870,2,0,B|160:112,2,70
240,112,135620,2,0,B|160:160,2,70,8|0|0
336,112,136370,1,0
368,112,136495,1,0
400,112,136620,1,8
480,112,136870,2,0,B|496:176|432:176,1,70
384,176,137370,6,0,B|304:176,3,70,0|8|0|0
256,336,138620,1,8
144,208,139120,1,0
224,208,139370,1,8
224,208,139870,1,0
304,208,140120,1,8
304,48,140620,1,8
464,48,141120,1,8
464,208,141620,1,8
304,208,142120,5,0
144,208,142620,1,0
192,48,143120,2,0,B|144:48|144:96,2,70,0|8|0
272,48,143870,2,0,B|320:48|320:96,2,70,0|0|8
232,104,144620,2,0,B|232:176,1,70,0|8
320,192,145370,5,0
352,208,145495,1,0
368,240,145620,1,0
352,272,145745,1,0
320,288,145870,1,0
240,288,146120,2,0,B|160:288,1,70,8|0
256,256,146620,2,0,B|192:224,1,70,8|0
288,240,147120,2,0,B|240:176,1,70,8|0
320,240,147620,2,0,B|320:160,1,70,0|8
352,256,148120,1,0
416,192,148370,1,0
432,160,148495,1,0
416,128,148620,1,8
336,128,148870,2,0,B|304:160|256:112,1,70,0|8
208,64,149370,6,0,B|240:32|288:80,2,70,0|8|0
144,128,150120,1,8
208,176,150370,2,0,B|288:176,1,70,0|8
192,208,150870,2,0,B|256:240,1,70,0|8
160,224,151370,2,0,B|208:288,1,70,0|8
128,224,151870,2,0,B|128:304,1,70,0|8
80,224,152370,2,0,B|64:256,2,35,8|8|8
128,144,152870,1,8
176,80,153120,1,8
256,96,153370,5,0
400,224,153620,1,8
256,336,153870,1,0
176,320,154120,6,0,B|112:280,1,70
208,288,154620,2,0,B|160:224,1,70,8|0
240,272,155120,2,0,B|224:176,1,70
208,128,155620,1,8
272,64,155870,1,0
352,96,156120,2,0,B|416:128,1,70
336,128,156620,2,0,B|384:192,1,70,8|0
304,144,157120,2,0,B|320:240,1,70
272,144,157620,6,0,B|240:224,3,70,8|0|0|0
160,240,158620,1,8
224,288,158870,1,0
288,240,159120,1,0
224,192,159370,1,0
160,144,159620,1,8
96,96,159870,1,0
160,48,160120,1,0
240,64,160370,1,0
272,80,160495,1,0
288,112,160620,1,0
288,144,160745,1,0
288,176,160870,1,0
272,208,160995,1,0
240,224,161120,1,8
160,240,161370,5,0
160,240,161495,1,0
160,240,161620,2,0,B|112:240|112:192,1,70,0|0
160,240,162120,2,0,B|160:192|208:192,1,70,0|0
160,240,162620,2,0,B|208:240|208:288,1,70,8|0
160,240,163120,2,0,B|160:288|112:288,1,70
160,240,163620,5,8
160,208,163745,1,0
176,176,163870,1,0
240,128,164120,1,0
304,176,164370,1,8
320,208,164495,1,0
320,240,164620,1,0
240,288,164870,2,0,B|240:208,1,70,8|8
240,128,165370,1,0
240,48,165620,5,8
464,48,165870,1,8
464,224,166120,1,0
416,160,166370,5,0
336,160,166620,1,8
384,224,166870,1,0
336,296,167120,1,0
416,288,167370,1,0
464,224,167620,2,0,B|368:224,1,70,8|0
368,224,167995,5,0
336,224,168120,1,0
256,224,168370,2,0,B|208:224,2,35,0|0|8
256,144,168870,1,0
176,144,169120,1,0
112,80,169370,6,0,B|192:80,2,70,0|8|0
184,32,170120,1,0
256,32,170370,2,0,B|336:32,1,70,0|8
256,80,170870,2,0,B|336:80,1,70,0|8
384,80,171370,2,0,B|464:80,2,70,0|8|0
384,192,172120,5,4
256,304,172620,1,4
128,192,173120,1,4
256,80,173620,1,4
256,192,174120,5,8
256,192,174620,1,0
336,176,174870,1,0
256,112,175120,1,8
176,176,175370,1,0
208,264,175620,1,8
312,264,175870,1,0
256,192,176120,12,8,177120
