osu file format v12

[General]
AudioFilename: Blarsa - Garden Party.mp3
AudioLeadIn: 2000
PreviewTime: -1
Countdown: 1
SampleSet: None
StackLeniency: 0.5
Mode: 0
LetterboxInBreaks: 1
WidescreenStoryboard: 0

[Editor]
DistanceSpacing: 1.2
BeatDivisor: 4
GridSize: 4

[Metadata]
Title:Garden Party
TitleUnicode:Garden Party
Artist:Blarsa
ArtistUnicode:Blarsa
Creator:Itachi_Uchiha
Version:Party Hard
Source:Newgrounds
Tags:NG Audio fun
BeatmapID:338614
BeatmapSetID:135122

[Difficulty]
HPDrainRate:6
CircleSize:4
OverallDifficulty:7
ApproachRate:8
SliderMultiplier:2.19999990463257
SliderTickRate:2

[Events]
//Background and Video events
0,0,"blarsa-world-wallpaper.jpg",0,0
//Break Periods
//Storyboard Layer 0 (Background)
//Storyboard Layer 1 (Fail)
//Storyboard Layer 2 (Pass)
//Storyboard Layer 3 (Foreground)
//Storyboard Sound Samples
//Background Colour Transformations
3,100,163,162,255

[TimingPoints]
1025,468.75,4,1,0,20,1,0
1435,-100,4,1,0,25,0,0
1903,-100,4,1,0,30,0,0
2372,-100,4,1,0,40,0,0
2841,-100,4,1,0,50,0,0
3251,-100,4,1,0,60,0,0
3720,-100,4,1,0,70,0,0
4189,-60.6060606060606,4,1,0,80,0,0
4745,468.75,4,1,0,20,1,0
4862,-100,4,1,0,80,0,0
17752,-100,4,1,0,50,0,0
19100,-125,4,1,0,50,0,0
19745,-100,4,1,0,80,0,1
27245,-100,4,1,0,80,0,0
40370,-100,4,1,0,80,0,1
45995,-100,4,1,0,80,0,0

[Colours]
Combo1 : 0,0,255
Combo2 : 0,255,0
Combo3 : 255,255,0

[HitObjects]
104,192,1025,2,0,L|132:144,7,54.9999976158142
160,112,1962,2,0,L|232:96,7,54.9999976158142
256,100,2900,5,0,0:0:0:0:
332,140,3134,1,0,0:0:0:0:
256,180,3368,1,0,0:0:0:0:
332,224,3603,1,0,0:0:0:0:
256,264,3837,1,0,0:0:0:0:
332,308,4071,1,0,0:0:0:0:
256,348,4306,2,0,B|210:336|210:336|196:293|196:293|171:329|171:329|157:286|157:286|129:320|129:320|121:276|121:276|89:308|89:308|77:261,1,362.999987726212
100,156,4979,6,0,P|64:108|8:84,2,109.999995231628
152,276,5682,1,0,0:0:0:0:
208,156,5916,6,0,B|220:128|208:96|208:96|248:108|260:112|272:104|304:96|304:96|292:144|312:172,1,219.999990463257
360,276,6620,21,0,0:0:0:0:
412,156,6854,2,0,P|448:108|491:86,2,109.999995231628
360,276,7557,1,0,0:0:0:0:
303,154,7791,22,0,B|292:144|304:96|304:96|272:104|260:112|248:108|208:96|208:96|220:128|208:155,1,219.999990463257
156,260,8495,22,0,B|206:222|256:258|256:258|305:222|359:262,1,219.999990463257
303,312,9198,2,0,P|259:391|228:290,1,219.999990463257
254,262,9901,6,0,B|232:232|276:192|256:144,1,109.999995231628
256,20,10370,5,0,0:0:0:0:
156,104,10604,2,0,P|256:148|364:92,1,219.999990463257
468,40,11307,5,0,0:0:0:0:
256,196,11776,5,0,0:0:0:0:
472,348,12245,5,0,0:0:0:0:
348,304,12479,1,0,0:0:0:0:
388,180,12713,2,0,P|428:224|424:284,2,109.999995231628
256,156,13416,6,0,B|240:108|272:84|256:44,2,109.999995231628
124,180,14120,22,0,P|84:224|83:272,2,109.999995231628
164,304,14822,1,0,0:0:0:0:
40,348,15056,1,0,0:0:0:0:
164,304,15291,6,0,P|265:290|256:194,1,219.999990463257
164,96,15995,22,0,P|256:48|356:108,1,219.999990463257
256,192,16698,2,0,B|236:236|276:272|248:316,2,109.999995231628
324,80,17401,5,0,0:0:0:0:
192,80,17635,1,0,0:0:0:0:
132,200,17870,6,0,L|104:148,2,54.9999976158142
136,228,18221,2,0,P|176:296|256:280,1,164.999992847443
380,200,18807,22,0,L|408:148,2,54.9999976158142
376,228,19159,2,0,B|340:264|284:268|284:268|264:316|284:352|336:348,1,219.999990463257
460,312,19979,22,0,P|496:264|472:204,1,109.999995231628
436,96,20448,1,0,0:0:0:0:
312,140,20682,1,0,0:0:0:0:
256,260,20916,22,0,B|232:304|280:336|252:372,2,109.999995231628
200,140,21620,5,0,0:0:0:0:
76,96,21854,1,0,0:0:0:0:
26,218,22089,2,0,P|16:264|52:312,2,109.999995231628
76,96,22791,6,0,P|156:28|260:66,1,219.999990463257
356,148,23495,21,0,0:0:0:0:
368,280,23729,1,0,0:0:0:0:
256,212,23963,1,0,0:0:0:0:
144,280,24198,1,0,0:0:0:0:
156,148,24432,1,0,0:0:0:0:
257,164,24666,22,0,B|229:132|285:96|254:56,2,109.999995231628
256,60,25370,1,0,0:0:0:0:
160,304,25838,22,0,P|256:348|355:302,1,219.999990463257
256,212,26541,1,0,0:0:0:0:
192,96,26776,1,0,0:0:0:0:
320,96,27010,1,0,0:0:0:0:
412,192,27245,22,0,P|400:256|340:300,3,109.999995231628
256,352,28182,1,0,0:0:0:0:
256,220,28416,6,0,L|256:174|256:108,2,109.999995231628
100,192,29120,22,0,P|112:256|172:300,3,109.999995231628
256,352,30057,1,0,0:0:0:0:
256,220,30291,22,0,L|256:176|256:108,2,109.999995231628
366,304,30995,6,0,P|432:268|349:180,1,219.999990463257
374,240,31698,2,0,P|448:247|425:126,1,219.999990463257
324,80,32401,5,0,0:0:0:0:
256,192,32635,1,0,0:0:0:0:
256,324,32870,1,0,0:0:0:0:
132,284,33104,6,0,P|132:213|259:194,1,219.999990463257
256,324,33807,1,0,0:0:0:0:
256,60,34276,1,0,0:0:0:0:
384,292,34745,6,0,P|416:240|396:180,1,109.999995231628
268,176,35213,2,0,P|296:224|364:224,1,109.999995231628
364,100,35682,1,0,0:0:0:0:
256,28,35916,6,0,B|212:120|304:156|252:252|252:252,1,219.999990463257
128,292,36620,22,0,P|96:240|116:180,1,109.999995231628
244,176,37088,2,0,P|216:224|148:224,1,109.999995231628
148,100,37557,1,0,0:0:0:0:
256,24,37791,22,0,P|336:76|364:192,1,219.999990463257
256,268,38495,6,0,P|200:256|156:212,2,109.999995231628
364,192,39198,1,0,0:0:0:0:
256,116,39432,1,0,0:0:0:0:
148,40,39666,6,0,P|116:128|216:192,1,219.999990463257
328,140,40370,6,0,L|352:88,2,54.9999976158142
328,180,40721,2,0,P|328:252|256:300,1,164.999992847443
136,240,41307,22,0,L|100:284,2,54.9999976158142
120,204,41659,2,0,P|108:144|172:92,1,109.999995231628
168,88,42010,1,0,0:0:0:0:
300,112,42245,6,0,L|276:60,2,54.9999976158142
280,144,42596,2,0,P|260:208|336:288,1,164.999992847443
420,200,43182,22,0,L|472:176,2,54.9999976158142
408,236,43534,2,0,P|420:296|384:332,1,109.999995231628
352,340,43885,1,0,0:0:0:0:
228,300,44120,6,0,L|188:248,3,54.9999976158142
172,224,44588,2,0,L|164:168,3,54.9999976158142
168,132,45057,22,0,L|196:84,1,54.9999976158142
232,100,45291,2,0,L|288:76,1,54.9999976158142
304,112,45526,6,0,L|364:112,1,54.9999976158142
364,152,45760,2,0,L|424:180,1,54.9999976158142
404,212,45995,5,0,0:0:0:0:
288,276,46229,2,0,P|244:232|260:188,1,109.999995231628
344,92,46698,1,0,0:0:0:0:
404,212,46932,1,0,0:0:0:0:
288,276,47166,6,0,P|236:310|243:357,2,109.999995231628,0|0|0,0:0|0:0|0:0,0:0:0:0:
404,212,47870,21,0,0:0:0:0:
344,92,48104,1,0,0:0:0:0:
255,192,48338,2,0,P|268:232|224:276,1,109.999995231628
108,212,48807,1,0,0:0:0:0:
168,92,49041,21,0,0:0:0:0:
255,192,49276,2,0,P|268:232|224:276,1,109.999995231628
108,340,49745,5,0,0:0:0:0:
108,212,49979,1,0,0:0:0:0:
168,92,50213,1,0,0:0:0:0:
256,192,50448,1,0,0:0:0:0:
344,92,50682,1,0,0:0:0:0:
404,212,50916,5,0,0:0:0:0:
404,340,51151,2,0,P|332:328|304:272,1,109.999995231628
188,256,51620,6,0,B|156:188|220:112|188:40,2,219.999990463257
120,368,52791,21,0,0:0:0:0:
256,368,53026,1,0,0:0:0:0:
324,252,53260,1,0,0:0:0:0:
