osu file format v12

[General]
AudioFilename: Blarsa - Garden Party.mp3
AudioLeadIn: 2000
PreviewTime: -1
Countdown: 1
SampleSet: None
StackLeniency: 0.5
Mode: 0
LetterboxInBreaks: 1
WidescreenStoryboard: 0

[Editor]
DistanceSpacing: 0.7
BeatDivisor: 4
GridSize: 4

[Metadata]
Title:Garden Party
TitleUnicode:Garden Party
Artist:Blarsa
ArtistUnicode:Blarsa
Creator:Itachi_Uchiha
Version:Casual Party
Source:Newgrounds
Tags:NG Audio fun
BeatmapID:338612
BeatmapSetID:135122

[Difficulty]
HPDrainRate:5
CircleSize:4
OverallDifficulty:4
ApproachRate:6
SliderMultiplier:2.19999990463257
SliderTickRate:2

[Events]
//Background and Video events
0,0,"blarsa-world-wallpaper.jpg",0,0
//Break Periods
//Storyboard Layer 0 (Background)
//Storyboard Layer 1 (Fail)
//Storyboard Layer 2 (Pass)
//Storyboard Layer 3 (Foreground)
//Storyboard Sound Samples
//Background Colour Transformations
3,100,163,162,255

[TimingPoints]
1025,468.75,4,1,0,20,1,0
1435,-100,4,1,0,25,0,0
1903,-100,4,1,0,30,0,0
2372,-100,4,1,0,40,0,0
2841,-100,4,1,0,50,0,0
3251,-100,4,1,0,60,0,0
3720,-100,4,1,0,70,0,0
4745,468.75,4,1,0,20,1,0
4862,-100,4,1,0,80,0,0
17752,-100,4,1,0,50,0,0
19100,-125,4,1,0,50,0,0
19745,-100,4,1,0,80,0,1
27245,-100,4,1,0,80,0,0
40370,-100,4,1,0,80,0,1
45995,-100,4,1,0,80,0,0

[Colours]
Combo1 : 0,0,255
Combo2 : 0,255,0
Combo3 : 255,255,0

[HitObjects]
136,192,1025,2,0,P|124:128|164:84,1,109.999995231628
200,152,1493,2,0,P|212:216|172:260,1,109.999995231628
323,250,1962,2,0,P|300:216|312:152,1,109.999995231628
364,93,2430,2,0,P|388:128|376:192,1,109.999995231628
392,268,2900,5,0,0:0:0:0:
256,340,3368,1,0,0:0:0:0:
120,268,3837,1,0,0:0:0:0:
256,196,4306,1,0,0:0:0:0:
356,92,4745,6,0,P|256:52|152:96,2,219.999990463257
472,192,6151,5,0,0:0:0:0:
356,292,6620,21,0,0:0:0:0:
208,336,7088,2,0,P|216:256|92:292,1,219.999990463257
248,196,8026,22,0,P|268:276|156:288,1,219.999990463257
40,192,8963,5,0,0:0:0:0:
104,52,9432,1,0,0:0:0:0:
256,72,9901,1,0,0:0:0:0:
256,228,10370,1,0,0:0:0:0:
266,304,10604,6,0,P|332:226|246:152,1,219.999990463257
200,112,11307,5,0,0:0:0:0:
128,248,11776,1,0,0:0:0:0:
256,332,12245,5,0,0:0:0:0:
384,248,12713,1,0,0:0:0:0:
312,112,13182,1,0,0:0:0:0:
256,256,13651,5,0,0:0:0:0:
200,112,14120,22,0,P|104:192|172:280,1,219.999990463257
256,356,15057,1,0,0:0:0:0:
256,200,15526,21,0,0:0:0:0:
312,56,15995,6,0,P|408:136|340:224,1,219.999990463257
256,300,16932,1,0,0:0:0:0:
256,144,17401,5,0,0:0:0:0:
128,60,17870,6,0,P|136:116|96:168,1,109.999995231628
64,96,18338,2,0,P|36:144|44:200,1,109.999995231628
88,260,18807,21,0,0:0:0:0:
152,220,19041,1,0,0:0:0:0:
220,252,19276,2,0,B|256:276|284:260|284:260|276:312|292:336|324:352,1,175.999992370606
420,232,20213,22,0,P|404:132|296:104,1,219.999990463257
256,252,21151,5,0,0:0:0:0:
210,102,21620,22,0,P|108:132|92:232,2,219.999990463257
256,252,23026,21,0,0:0:0:0:
380,340,23495,5,0,0:0:0:0:
416,192,23963,1,0,0:0:0:0:
380,44,24432,1,0,0:0:0:0:
256,132,24901,5,0,0:0:0:0:
256,288,25370,5,0,0:0:0:0:
120,212,25838,2,0,P|140:128|260:136,1,219.999990463257
296,196,26541,2,0,P|332:144|300:72,2,109.999995231628
256,264,27245,5,0,0:0:0:0:
104,288,27713,2,0,P|96:184|212:112,1,219.999990463257
332,116,28651,5,0,0:0:0:0:
256,264,29120,21,0,0:0:0:0:
408,288,29588,2,0,P|416:184|300:112,1,219.999990463257
180,116,30526,21,0,0:0:0:0:
120,256,30995,6,0,P|80:216|96:144,2,109.999995231628
256,332,31932,1,0,0:0:0:0:
392,256,32401,5,0,0:0:0:0:
256,184,32870,5,0,0:0:0:0:
240,108,33104,2,0,P|180:180|257:261,1,219.999990463257
328,252,33807,21,0,0:0:0:0:
448,152,34276,1,0,0:0:0:0:
296,120,34745,22,0,P|304:200|191:202,3,219.999990463257
335,260,36620,2,0,P|355:180|245:164,3,219.999990463257
398,142,38495,2,0,P|322:106|296:210,3,219.999990463257
392,328,40370,6,0,P|424:272|392:216,1,109.999995231628
348,272,40838,2,0,P|336:212|384:164,1,109.999995231628
436,160,41307,2,0,P|400:108|320:116,1,109.999995231628
332,28,41776,2,0,P|284:72|292:136,1,109.999995231628
204,120,42245,6,0,P|236:176|304:188,1,109.999995231628
332,140,42713,2,0,P|352:192|320:248,1,109.999995231628
392,284,43182,2,0,P|336:316|268:284,1,109.999995231628
232,352,43651,2,0,P|220:288|252:244,1,109.999995231628
288,192,44120,21,0,0:0:0:0:
280,116,44354,1,0,0:0:0:0:
220,68,44588,1,0,0:0:0:0:
144,64,44823,1,0,0:0:0:0:
84,112,45057,5,0,0:0:0:0:
68,188,45291,1,0,0:0:0:0:
112,252,45526,1,0,0:0:0:0:
184,276,45760,1,0,0:0:0:0:
256,252,45995,5,0,0:0:0:0:
380,340,46463,2,0,P|408:236|328:144,1,219.999990463257
196,108,47401,5,0,0:0:0:0:
256,252,47870,21,0,0:0:0:0:
132,340,48338,2,0,P|104:236|184:144,1,219.999990463257
316,108,49276,21,0,0:0:0:0:
256,252,49745,5,0,0:0:0:0:
164,128,50213,2,0,P|256:80|351:133,2,219.999990463257
256,192,51620,12,0,53260,0:0:0:0:
