osu file format v12

[General]
AudioFilename: Blarsa - Garden Party.mp3
AudioLeadIn: 2000
PreviewTime: -1
Countdown: 1
SampleSet: None
StackLeniency: 0.5
Mode: 0
LetterboxInBreaks: 1
WidescreenStoryboard: 0

[Editor]
DistanceSpacing: 1.5
BeatDivisor: 4
GridSize: 8

[Metadata]
Title:Garden Party
TitleUnicode:Garden Party
Artist:Blarsa
ArtistUnicode:Blarsa
Creator:Itachi_Uchiha
Version:Another Party
Source:Newgrounds
Tags:NG Audio fun
BeatmapID:338611
BeatmapSetID:135122

[Difficulty]
HPDrainRate:6
CircleSize:4
OverallDifficulty:8
ApproachRate:9
SliderMultiplier:2.19999990463257
SliderTickRate:2

[Events]
//Background and Video events
0,0,"blarsa-world-wallpaper.jpg",0,0
//Break Periods
//Storyboard Layer 0 (Background)
//Storyboard Layer 1 (Fail)
//Storyboard Layer 2 (Pass)
//Storyboard Layer 3 (Foreground)
//Storyboard Sound Samples
//Background Colour Transformations
3,100,163,162,255

[TimingPoints]
1025,468.75,4,1,0,20,1,0
1435,-100,4,1,0,25,0,0
1903,-100,4,1,0,30,0,0
2372,-100,4,1,0,40,0,0
2841,-100,4,1,0,50,0,0
3251,-100,4,1,0,60,0,0
3720,-100,4,1,0,70,0,0
4189,-60.6060606060606,4,1,0,80,0,0
4745,468.75,4,1,0,20,1,0
4862,-100,4,1,0,80,0,0
10487,-60.6060606060606,4,1,0,80,0,0
11424,-100,4,1,0,80,0,0
17752,-100,4,1,0,50,0,0
19112,-125,4,1,0,50,0,0
19745,-100,4,1,0,80,0,1
27245,-100,4,1,0,80,0,0
40370,-100,4,1,0,80,0,1
45995,-100,4,1,0,80,0,0

[Colours]
Combo1 : 0,0,255
Combo2 : 0,255,0
Combo3 : 255,255,0

[HitObjects]
72,228,1025,2,0,L|72:172,3,54.9999976158142,8|0|8|0,2:0|2:0|2:0|2:0,2:0:0:0:
136,156,1493,2,0,L|136:216,3,54.9999976158142,8|0|8|0,2:0|2:0|2:0|2:0,2:0:0:0:
200,228,1962,2,0,L|200:172,3,54.9999976158142,8|0|8|0,2:0|2:0|2:0|2:0,2:0:0:0:
264,156,2431,2,0,L|264:212,3,54.9999976158142,8|0|8|0,2:0|2:0|2:0|2:0,2:0:0:0:
484,148,2900,5,8,1:0:0:0:
484,228,3134,1,0,1:0:0:0:
440,112,3368,1,8,1:0:0:0:
440,264,3603,1,0,1:0:0:0:
396,76,3837,1,8,1:0:0:0:
400,304,4071,1,0,1:0:0:0:
360,192,4306,2,0,B|336:180|336:180|328:200|328:200|320:180|320:180|312:200|312:200|304:180|304:180|296:200|296:200|288:180|288:180|280:200|280:200|272:180|272:180|264:200|264:200|256:180|256:180|248:200|248:200|240:180|240:180|232:200|232:200|224:180|224:180|216:200|216:200|204:192|204:192,1,362.999987726212,0|4,3:0|1:0,1:0:0:0:
92,56,4979,6,0,P|64:100|72:160,1,109.999995231628,0|8,1:0|0:0,1:0:0:0:
180,152,5448,2,2,P|185:207|157:251,1,109.999995231628,0|8,1:0|0:0,1:0:0:0:
320,272,5916,5,8,2:0:0:0:
320,272,6034,1,0,1:0:0:0:
320,120,6268,5,8,2:0:0:0:
320,120,6385,1,0,1:0:0:0:
192,28,6620,5,4,1:0:0:0:
64,132,6854,2,0,P|112:164|128:212,1,109.999995231628,0|8,1:0|0:0,1:0:0:0:
220,348,7323,2,0,P|272:328|296:272,1,109.999995231628,0|8,0:0|1:0,1:0:0:0:
412,72,7791,5,8,2:0:0:0:
412,72,7909,1,0,1:0:0:0:
256,24,8143,5,8,2:0:0:0:
256,24,8260,1,0,1:0:0:0:
80,192,8495,5,4,1:0:0:0:
256,324,8729,1,0,1:0:0:0:
432,192,8963,1,8,1:0:0:0:
256,60,9198,1,8,1:0:0:0:
256,116,9315,1,8,1:0:0:0:
256,172,9432,1,8,1:0:0:0:
256,336,9666,5,8,2:0:0:0:
256,336,9784,1,0,1:0:0:0:
92,320,10018,5,8,2:0:0:0:
92,320,10135,1,0,1:0:0:0:
72,156,10370,5,4,1:0:0:0:
228,188,10604,6,0,B|216:180|216:180|228:176|228:176|220:164|220:164|236:168|236:168|232:152|232:152|244:160|244:160|248:144|248:144|256:156|256:156|264:140|264:140|272:156|272:156|280:144|280:144|284:160|284:160|296:152|296:152|292:168|292:168|308:164|308:164|300:176|300:176|312:180|312:180|300:188|300:188|312:192|312:192|300:200|300:200|312:204|312:204|304:212|304:212|316:212|316:212|312:220|312:220|336:268|396:284|440:272|464:200|464:200,1,544.499981589317,0|8,0:0|0:0,1:0:0:0:
256,36,11776,5,0,3:0:0:0:
112,192,12245,5,4,1:0:0:0:
200,124,12479,1,0,1:0:0:0:
112,192,12713,1,8,1:0:0:0:
244,296,12948,1,0,1:0:0:0:
112,192,13182,1,8,1:0:0:0:
280,48,13416,5,8,2:0:0:0:
348,96,13534,1,0,1:0:0:0:
372,260,13768,5,8,2:0:0:0:
304,212,13885,1,0,1:0:0:0:
444,40,14120,5,4,1:0:0:0:
432,204,14354,2,0,P|392:268|344:288,1,109.999995231628,0|8,0:0|0:0,1:0:0:0:
216,204,14823,2,0,P|256:268|304:288,1,109.999995231628,0|8,0:0|0:0,1:0:0:0:
320,120,15291,5,8,2:0:0:0:
320,40,15409,1,0,1:0:0:0:
320,208,15643,5,8,2:0:0:0:
320,288,15760,1,0,1:0:0:0:
152,288,15995,5,4,1:0:0:0:
56,160,16229,1,0,1:0:0:0:
104,320,16463,1,8,1:0:0:0:
120,152,16698,1,8,1:0:0:0:
168,184,16815,1,8,1:0:0:0:
224,192,16932,1,8,1:0:0:0:
336,240,17166,5,8,2:0:0:0:
280,296,17284,1,0,1:0:0:0:
160,336,17518,5,0,1:0:0:0:
104,280,17636,1,8,2:0:0:0:
84,160,17870,5,0,3:0:0:0:
120,116,17987,1,8,3:0:0:0:
164,84,18104,1,0,3:0:0:0:
220,84,18221,2,0,P|260:128|348:112,1,109.999995231628,8|0,0:0|0:0,1:0:0:0:
360,116,18573,1,0,1:0:0:0:
204,216,18807,5,0,3:0:0:0:
256,232,18924,1,8,3:0:0:0:
308,216,19041,1,0,3:0:0:0:
352,204,19159,6,0,B|376:268|376:268|408:284|376:292|376:292|344:372,1,175.999992370606,8|0,0:0|0:0,1:0:0:0:
296,352,19745,5,4,1:0:0:0:
164,264,19979,1,0,1:0:0:0:
260,212,20213,1,8,1:0:0:0:
164,160,20448,1,0,1:0:0:0:
296,76,20682,1,8,1:0:0:0:
440,172,20916,5,8,2:0:0:0:
440,172,21034,1,0,1:0:0:0:
376,324,21268,5,8,2:0:0:0:
376,324,21385,1,0,1:0:0:0:
212,308,21620,5,4,1:0:0:0:
156,212,21854,2,0,P|172:168|152:104,1,109.999995231628,0|8,0:0|0:0,1:0:0:0:
88,52,22323,1,0,1:0:0:0:
88,260,22557,1,8,1:0:0:0:
248,304,22791,5,8,2:0:0:0:
272,224,22909,1,0,1:0:0:0:
328,96,23143,5,8,2:0:0:0:
400,64,23260,1,0,1:0:0:0:
496,192,23495,5,4,1:0:0:0:
400,324,23729,2,0,P|328:320|284:268,1,109.999995231628,0|8,0:0|0:0,1:0:0:0:
368,212,24198,2,0,P|340:189|268:185,1,109.999995231628,0|8,0:0|0:0,1:0:0:0:
112,232,24666,5,8,2:0:0:0:
112,232,24784,1,0,1:0:0:0:
192,88,25018,5,8,2:0:0:0:
192,88,25135,1,0,1:0:0:0:
424,96,25370,5,4,1:0:0:0:
256,188,25838,6,0,P|224:108|100:108,1,219.999990463257,0|8,0:0|0:0,1:0:0:0:
52,204,26541,5,8,3:0:0:0:
120,288,26776,1,8,3:0:0:0:
212,344,27010,1,8,3:0:0:0:
376,304,27245,5,4,1:0:0:0:
312,152,27479,1,0,1:0:0:0:
376,304,27713,1,8,1:0:0:0:
440,208,27948,1,0,1:0:0:0:
376,304,28182,1,8,1:0:0:0:
224,248,28416,5,8,2:0:0:0:
168,184,28534,1,0,1:0:0:0:
112,32,28768,5,8,2:0:0:0:
112,32,28885,1,0,1:0:0:0:
280,48,29120,6,0,P|352:96|368:144,1,109.999995231628,4|0,0:0|0:0,1:0:0:0:
472,112,29588,2,0,P|456:200|424:232,1,109.999995231628,8|0,0:0|0:0,0:0:0:0:
304,304,30057,1,8,1:0:0:0:
184,192,30291,5,8,2:0:0:0:
184,192,30409,1,0,1:0:0:0:
120,40,30643,5,8,2:0:0:0:
88,112,30760,1,0,1:0:0:0:
96,280,30995,5,4,1:0:0:0:
128,272,31229,1,0,1:0:0:0:
160,264,31463,1,8,1:0:0:0:
376,208,31698,1,8,1:0:0:0:
320,224,31815,1,8,1:0:0:0:
264,240,31932,1,8,1:0:0:0:
248,360,32166,5,8,2:0:0:0:
224,280,32284,1,0,1:0:0:0:
184,144,32518,5,8,2:0:0:0:
184,144,32635,1,0,1:0:0:0:
392,72,32870,5,4,1:0:0:0:
392,288,33104,2,0,P|272:296|192:192,1,219.999990463257,0|8,0:0|0:0,1:0:0:0:
136,80,33807,5,0,1:0:0:0:
392,288,34276,5,8,3:0:0:0:
184,32,34745,6,0,P|128:56|88:112,1,109.999995231628,4|0,1:0|0:0,1:0:0:0:
56,256,35213,2,0,P|112:272|168:256,1,109.999995231628,8|0,0:0|0:0,1:0:0:0:
264,128,35682,2,0,P|264:184|304:232,1,109.999995231628,8|8,0:0|2:0,1:0:0:0:
328,248,36034,5,0,1:0:0:0:
400,136,36268,5,8,2:0:0:0:
440,112,36385,2,0,P|456:184|408:232,1,109.999995231628,0|4,1:0|1:0,2:0:0:0:
328,336,36854,5,0,1:0:0:0:
168,304,37088,2,0,P|128:248|120:200,1,109.999995231628,8|0,0:0|0:0,1:0:0:0:
224,80,37557,2,0,P|264:136|272:184,1,109.999995231628,8|0,0:0|0:0,1:0:0:0:
304,216,37909,5,0,1:0:0:0:
424,328,38143,5,8,2:0:0:0:
456,296,38260,2,0,P|472:240|456:176,1,109.999995231628,0|4,1:0|1:0,2:0:0:0:
384,48,38729,6,0,P|328:104|320:144,1,109.999995231628,0|8,0:0|0:0,1:0:0:0:
304,296,39198,2,0,P|240:328|184:312,1,109.999995231628,0|8,0:0|0:0,1:0:0:0:
72,224,39666,6,0,P|104:232|144:216,1,54.9999976158142,8|0,2:0|1:0,2:0:0:0:
272,160,40018,5,8,2:0:0:0:
280,120,40135,2,0,P|240:64|192:56,1,109.999995231628,0|4,1:0|1:0,2:0:0:0:
120,64,40487,5,0,2:0:0:0:
80,88,40604,1,8,2:0:0:0:
56,128,40721,6,0,P|56:184|104:248,1,109.999995231628,0|0,0:0|0:0,1:0:0:0:
112,256,41073,6,0,P|136:264|176:256,1,54.9999976158142,0|0,0:0|0:0,1:0:0:0:
248,240,41307,5,0,2:0:0:0:
280,208,41424,1,0,2:0:0:0:
296,168,41541,1,8,2:0:0:0:
312,128,41659,6,0,P|368:112|416:152,1,109.999995231628,0|0,0:0|0:0,1:0:0:0:
432,176,42010,5,0,3:0:0:0:
384,336,42245,5,4,1:0:0:0:
344,320,42362,1,0,2:0:0:0:
312,288,42479,1,8,2:0:0:0:
288,248,42596,6,0,P|272:192|224:160,1,109.999995231628,0|0,0:0|0:0,1:0:0:0:
192,152,42948,6,0,P|160:152|112:184,1,54.9999976158142,0|0,0:0|0:0,1:0:0:0:
72,208,43182,5,0,2:0:0:0:
64,248,43299,1,0,2:0:0:0:
72,288,43416,1,8,2:0:0:0:
88,328,43534,6,0,P|144:352|200:336,1,109.999995231628,0|0,0:0|0:0,1:0:0:0:
224,312,43885,5,0,3:0:0:0:
344,200,44120,5,4,1:0:0:0:
336,160,44237,1,8,2:0:0:0:
312,128,44354,1,8,2:0:0:0:
280,96,44471,1,8,2:0:0:0:
240,72,44588,1,4,1:0:0:0:
200,64,44705,1,8,2:0:0:0:
152,64,44823,1,8,2:0:0:0:
112,80,44940,1,8,2:0:0:0:
80,112,45057,6,0,P|72:136|80:168,1,54.9999976158142,4|8,1:0|2:0,1:0:0:0:
120,160,45291,2,0,P|128:184|120:216,1,54.9999976158142,4|8,0:0|2:0,1:0:0:0:
80,200,45526,6,0,P|72:224|80:256,1,54.9999976158142,12|12,0:0|0:0,1:0:0:0:
120,248,45760,2,0,P|128:272|120:304,1,54.9999976158142,12|12,0:0|0:0,1:0:0:0:
80,320,45995,5,4,1:0:0:0:
240,360,46229,2,0,P|304:344|344:296,1,109.999995231628,0|8,0:0|0:0,1:0:0:0:
440,192,46698,2,0,P|384:192|312:144,1,109.999995231628,0|8,0:0|0:0,1:0:0:0:
216,56,47166,5,8,2:0:0:0:
216,56,47284,1,0,1:0:0:0:
96,168,47518,5,8,2:0:0:0:
96,168,47635,1,0,1:0:0:0:
168,320,47870,6,0,P|184:256|224:224,1,109.999995231628,4|0,0:0|0:0,1:0:0:0:
368,296,48338,2,0,P|408:248|400:168,1,109.999995231628,8|0,0:0|0:0,1:0:0:0:
328,64,48807,1,8,1:0:0:0:
256,208,49041,5,8,2:0:0:0:
248,288,49159,1,0,1:0:0:0:
120,328,49393,5,8,2:0:0:0:
64,272,49510,1,0,1:0:0:0:
80,168,49745,5,4,1:0:0:0:
256,32,49979,1,0,1:0:0:0:
432,168,50213,1,8,1:0:0:0:
304,272,50448,1,8,1:0:0:0:
256,296,50565,1,8,1:0:0:0:
208,272,50682,1,8,1:0:0:0:
160,112,50916,5,8,2:0:0:0:
160,112,51034,1,0,1:0:0:0:
336,112,51268,5,8,2:0:0:0:
336,112,51385,1,0,1:0:0:0:
256,192,51620,12,4,53026,1:0:0:0:
256,192,53260,5,0,1:0:0:0:
