osu file format v14

[General]
AudioFilename: Blank Banshee - WAVESTEP.mp3
AudioLeadIn: 0
PreviewTime: 16414
Countdown: 0
SampleSet: Soft
StackLeniency: 0.7
Mode: 2
LetterboxInBreaks: 1
WidescreenStoryboard: 0

[Editor]
DistanceSpacing: 1
BeatDivisor: 4
GridSize: 8
TimelineZoom: 2.1

[Metadata]
Title:WAVESTEP
TitleUnicode:W∆VESTEP
Artist:Blank Banshee
ArtistUnicode:Blank Banshee
Creator:119410501
Version:...
Source:
Tags:vaporwave
BeatmapID:659870
BeatmapSetID:293335

[Difficulty]
HPDrainRate:7
CircleSize:3.5
OverallDifficulty:10
ApproachRate:9
SliderMultiplier:1.40000000596046
SliderTickRate:1

[Events]
//Background and Video events
0,0,"iminparadise...jpg",0,0
//Break Periods
2,46490,53159
2,93073,101810
//Storyboard Layer 0 (Background)
//Storyboard Layer 1 (Fail)
//Storyboard Layer 2 (Pass)
//Storyboard Layer 3 (Foreground)
//Storyboard Sound Samples

[TimingPoints]
16415,622.406639004149,4,2,0,20,1,0
31352,-100,4,2,0,20,0,1
46290,-100,4,2,0,20,0,0
62576,622.406639004149,4,2,0,20,1,0
77513,-100,4,2,0,20,0,1
92451,-100,4,2,0,20,0,0
112368,-100,4,2,0,20,0,1
121082,-100,4,2,0,20,0,0
122327,-66.6666666666667,4,2,0,20,0,1
132233,622.406639004149,4,2,0,20,1,0
132285,-100,4,2,0,20,0,0
132385,-100,4,2,0,20,0,0
132485,-100,4,2,0,20,0,1
132585,-100,4,2,0,20,0,0
132685,-100,4,2,0,20,0,1
132785,-100,4,2,0,20,0,0
132885,-100,4,2,0,20,0,1
132985,-100,4,2,0,20,0,0
133085,-100,4,2,0,20,0,1
133185,-100,4,2,0,20,0,0
133285,-100,4,2,0,20,0,1
133385,-100,4,2,0,20,0,0
133485,-100,4,2,0,20,0,1
133585,-100,4,2,0,20,0,0
133685,-100,4,2,0,20,0,1
133785,-100,4,2,0,20,0,0
133885,-100,4,2,0,20,0,1
133985,-100,4,2,0,20,0,0
134085,-100,4,2,0,20,0,1
134185,-100,4,2,0,20,0,0
134285,-100,4,2,0,20,0,1
134385,-100,4,2,0,20,0,0
134485,-100,4,2,0,20,0,1
134585,-100,4,2,0,20,0,0
134685,-100,4,2,0,20,0,1
134785,-100,4,2,0,20,0,0
134885,-100,4,2,0,20,0,1
134985,-100,4,2,0,20,0,0
135085,-100,4,2,0,20,0,1
135185,-100,4,2,0,20,0,0
135285,-100,4,2,0,20,0,1
135385,-100,4,2,0,20,0,0
135485,-100,4,2,0,20,0,1
135585,-100,4,2,0,20,0,0
135685,-100,4,2,0,20,0,1
135785,-100,4,2,0,20,0,0
135885,-100,4,2,0,20,0,1
135985,-100,4,2,0,20,0,0
136085,-100,4,2,0,20,0,1
136185,-100,4,2,0,20,0,0
136285,-100,4,2,0,20,0,1
136385,-100,4,2,0,20,0,0
136485,-100,4,2,0,20,0,1
136585,-100,4,2,0,20,0,0
136685,-100,4,2,0,20,0,1
136785,-100,4,2,0,20,0,0
136885,-100,4,2,0,20,0,1
136985,-100,4,2,0,20,0,0
137085,-100,4,2,0,20,0,1
137264,-100,4,2,0,20,0,0
137887,-50,4,2,0,20,0,0

[Colours]
Combo1 : 18,124,255
Combo2 : 255,255,255

[HitObjects]
256,192,7390,12,4,16414,0:0:0:0:
256,192,8323,12,0,16414,0:0:0:0:
256,192,9257,12,0,16414,0:0:0:0:
256,192,11124,12,0,16414,0:0:0:0:
256,192,12058,12,0,16414,0:0:0:0:
256,192,13147,12,0,16414,0:0:0:0:
160,344,16414,6,0,L|160:120,1,210.000000894069,4|0,0:0|0:0,0:0:0:0:
224,64,17348,2,0,L|152:288,1,210.000000894069,8|0,0:0|0:0,0:0:0:0:
152,272,18282,2,2,L|240:272,1,70.000000298023
222,272,18593,1,0,0:0:0:0:
222,272,18593,1,0,0:0:0:0:
248,272,18593,2,8,L|408:272,1,140.000000596046,0|8,0:0|0:0,0:0:0:0:
408,352,19215,6,0,L|384:112,1,210.000000894069,8|4,0:0|0:0,0:0:0:0:
328,288,19838,2,0,L|360:8,1,280.000001192092,0|4,0:0|0:0,0:0:0:0:
328,16,21083,6,0,L|160:16,1,140.000000596046,8|2,0:0|0:0,0:0:0:0:
188,16,21705,2,0,L|424:16,1,210.000000894069,2|0,0:0|0:0,0:0:0:0:
398,16,22639,2,0,L|480:48,3,70.000000298023,0|8|0|0,0:0|0:0|0:0|0:0,0:0:0:0:
184,336,23883,6,0,L|32:64,1,280.000001192092,4|0,0:0|0:0,0:0:0:0:
304,208,24195,1,0,0:0:0:0:
248,112,24817,1,8,0:0:0:0:
47,91,25128,2,0,L|48:192,2,70.000000298023
112,128,25284,5,0,0:0:0:0:
112,128,25595,1,0,0:0:0:0:
47,91,25751,6,0,L|192:88,3,140.000000596046,4|0|0|0,0:0|0:0|0:0|0:0,0:0:0:0:
186,88,26062,1,0,0:0:0:0:
328,88,26684,1,8,0:0:0:0:
184,168,27151,1,2,0:0:0:0:
48,168,27307,1,2,0:0:0:0:
48,168,27462,1,2,0:0:0:0:
186,88,27618,6,0,L|192:376,1,280.000001192092,4|0,0:0|0:0,0:0:0:0:
32,304,28551,1,8,0:0:0:0:
191,368,28863,2,0,P|272:352|240:320,1,175.000000745057
264,336,29485,1,2,0:0:0:0:
208,288,29796,2,0,L|56:264,1,140.000000596046,0|8,0:0|0:0,0:0:0:0:
64,264,29952,1,0,0:0:0:0:
64,312,30419,6,0,L|64:80,1,210.000000894069,8|0,0:0|0:0,0:0:0:0:
160,240,30730,1,8,0:0:0:0:
64,200,30885,1,12,0:0:0:0:
64,200,31041,1,12,0:0:0:0:
136,200,31119,1,12,0:0:0:0:
136,200,31197,1,12,0:0:0:0:
64,200,31274,1,12,0:0:0:0:
64,312,31352,6,0,L|232:312,1,140.000000596046
136,312,31663,2,0,L|208:312,1,70.000000298023
256,192,31975,12,0,32286,0:0:0:0:
204,312,31975,6,0,L|496:312,1,280.000001192092
8,312,32286,1,8,0:0:0:0:
256,192,32597,12,0,32908,0:0:0:0:
480,208,33219,6,0,L|200:208,1,280.000001192092
464,264,33219,1,4,0:0:0:0:
496,264,33219,1,4,0:0:0:0:
248,128,33531,1,0,0:0:0:0:
360,128,33686,1,0,0:0:0:0:
256,192,34153,12,0,34464,0:0:0:0:
304,208,34153,5,8,0:0:0:0:
336,208,34153,1,8,0:0:0:0:
160,208,34464,6,4,L|248:208,2,70.000000298023
144,248,35087,6,4,L|64:96,2,140.000000596046
104,208,35087,1,0,0:0:0:0:
168,176,35087,1,4,0:0:0:0:
176,216,35087,1,4,0:0:0:0:
144,248,35087,1,4,0:0:0:0:
240,216,36020,6,0,L|168:248,1,70.000000298023,8|0,0:0|0:0,0:0:0:0:
144,248,36332,6,0,L|8:288,1,140.000000596046,0|4,0:0|0:0,0:0:0:0:
42,273,36643,2,0,L|168:352,1,140.000000596046
200,344,37265,1,2,0:0:0:0:
512,192,37576,6,0,L|408:192,1,70.000000298023,0|8,0:0|0:0,0:0:0:0:
328,192,37732,1,0,0:0:0:0:
432,136,37888,6,0,L|432:16,1,105.000000447034,8|2,0:0|0:0,0:0:0:0:
328,80,38199,1,2,0:0:0:0:
64,184,38510,2,2,L|152:184,1,70.000000298023
32,80,38666,1,2,0:0:0:0:
152,272,38821,6,0,L|464:272,1,280.000001192092,4|0,0:0|0:0,0:0:0:0:
152,184,38821,1,4,0:0:0:0:
120,184,38821,1,4,0:0:0:0:
360,216,39132,1,0,0:0:0:0:
232,208,39755,1,8,0:0:0:0:
32,344,40222,2,0,P|128:312|56:232,1,245.00000104308,2|2,0:0|0:0,0:0:0:0:
32,280,40377,1,2,0:0:0:0:
32,280,40533,1,2,0:0:0:0:
128,320,40688,2,0,L|136:40,1,280.000001192092,4|0,0:0|0:0,0:0:0:0:
256,56,41622,2,0,L|152:56,1,70.000000298023,8|0,0:0|0:0,0:0:0:0:
144,88,41933,6,2,L|120:160,1,70.000000298023
144,88,41933,2,2,L|184:168,1,70.000000298023
144,296,42244,6,2,L|120:224,1,70.000000298023
144,296,42244,2,2,L|184:216,1,70.000000298023
144,352,42556,6,0,L|144:40,1,280.000001192092,4|0,0:0|0:0,0:0:0:0:
272,256,42867,2,2,L|192:248,1,70.000000298023
40,176,43334,2,0,L|96:144,1,35.0000001490115,0|8,0:0|0:0,0:0:0:0:
144,72,43800,6,8,L|80:72,4,35.0000001490115
256,192,43800,12,0,44423,0:0:0:0:
109,72,44423,6,0,L|536:72,1,420.000001788138,0|4,0:0|0:0,0:0:0:0:
168,136,44501,5,8,0:0:0:0:
168,136,44578,1,8,0:0:0:0:
112,136,44656,1,8,0:0:0:0:
112,136,44734,1,8,0:0:0:0:
232,136,44812,1,8,0:0:0:0:
280,136,44890,1,8,0:0:0:0:
256,136,44967,1,8,0:0:0:0:
256,136,45045,1,8,0:0:0:0:
304,136,45123,1,8,0:0:0:0:
440,144,45201,1,8,0:0:0:0:
192,352,53759,6,0,L|184:40,1,280.000001192092,2|0,0:0|0:0,0:0:0:0:
248,136,54693,2,0,L|256:376,1,210.000000894069
288,344,55626,2,0,L|288:-96,3,420.000001788138,2|8|2|0,0:0|0:0|0:0|0:0,0:0:0:0:
216,0,55626,2,0,L|216:424,3,420.000001788138,2|0|2|0,0:0|0:0|0:0|0:0,0:0:0:0:
256,192,57493,12,0,61228,0:0:0:0:
256,192,59361,12,0,61228,0:0:0:0:
424,320,61643,6,0,L|432:96,1,210.000000894069,2|4,0:0|0:0,0:0:0:0:
336,208,61954,5,2,0:0:0:0:
408,176,62109,1,2,0:0:0:0:
376,152,62265,1,8,0:0:0:0:
368,112,62421,1,8,0:0:0:0:
384,112,62576,6,0,L|88:104,1,280.000001192092
240,104,62731,1,2,0:0:0:0:
160,104,62887,1,2,0:0:0:0:
104,104,63042,1,2,0:0:0:0:
208,104,63354,1,0,0:0:0:0:
160,104,63509,1,0,0:0:0:0:
128,104,63665,1,0,0:0:0:0:
128,104,63820,6,8,L|192:112,1,35.0000001490115,8|0,0:0|0:0,0:0:0:0:
440,112,64132,2,0,L|360:112,1,70.000000298023,8|0,0:0|0:0,0:0:0:0:
472,112,64287,1,2,0:0:0:0:
368,184,64443,6,0,L|80:184,1,280.000001192092,4|0,0:0|0:0,0:0:0:0:
304,248,64598,1,2,0:0:0:0:
248,248,64754,1,2,0:0:0:0:
200,248,64910,1,2,0:0:0:0:
192,120,65221,1,2,0:0:0:0:
256,120,65376,1,2,0:0:0:0:
144,136,65532,1,2,0:0:0:0:
48,184,65688,5,12,0:0:0:0:
104,184,65688,1,12,0:0:0:0:
80,184,65688,1,12,0:0:0:0:
104,184,65688,1,12,0:0:0:0:
80,184,65688,1,12,0:0:0:0:
48,184,65688,1,12,0:0:0:0:
136,184,65843,5,2,0:0:0:0:
208,184,65999,1,2,0:0:0:0:
280,184,66154,1,2,0:0:0:0:
480,296,66310,6,0,L|480:0,1,280.000001192092,8|0,0:0|0:0,0:0:0:0:
256,272,66517,1,8,0:0:0:0:
400,280,66725,1,8,0:0:0:0:
416,152,66932,1,12,0:0:0:0:
304,80,67088,1,2,0:0:0:0:
384,80,67244,1,2,0:0:0:0:
256,192,67399,12,0,67555,0:0:0:0:
256,192,67555,12,0,68177,0:0:0:0:
136,184,67866,6,0,L|224:184,1,70.000000298023,2|0,0:0|0:0,0:0:0:0:
216,248,68177,6,0,L|320:248,1,70.000000298023,8|0,0:0|0:0,0:0:0:0:
352,248,68488,2,0,L|440:248,1,70.000000298023,0|8,0:0|0:0,0:0:0:0:
480,200,68800,2,0,L|328:200,1,140.000000596046,8|12,0:0|0:0,0:0:0:0:
256,192,69007,1,8,0:0:0:0:
128,192,69215,1,8,0:0:0:0:
256,352,69733,2,0,B|208:344|208:344|296:344|296:344|168:160,1,350.000001490115
96,336,70044,1,4,0:0:0:0:
344,288,70667,1,8,0:0:0:0:
174,168,71289,6,8,L|120:168,2,46.6666668653487
176,104,71704,2,0,L|232:104,1,46.6666668653487
256,184,71912,1,12,0:0:0:0:
256,192,72223,12,0,73156,0:0:0:0:
512,192,72534,5,8,0:0:0:0:
256,192,73156,12,0,73779,0:0:0:0:
0,192,73156,5,12,0:0:0:0:
256,192,73779,5,8,0:0:0:0:
232,200,73986,2,8,L|184:200,1,46.6666668653487
128,296,74401,2,0,L|96:240,1,35.0000001490115,12|12,0:0|0:0,0:0:0:0:
392,304,74712,2,4,L|416:256,1,35.0000001490115
208,240,75024,2,0,L|176:176,1,70.000000298023,8|2,0:0|0:0,0:0:0:0:
256,192,75024,1,8,0:0:0:0:
176,177,75335,2,0,L|112:264,1,105.000000447034
16,208,75646,1,12,0:0:0:0:
160,264,75957,5,2,0:0:0:0:
312,264,76113,1,2,0:0:0:0:
464,256,76268,1,8,0:0:0:0:
72,192,76424,6,8,L|136:192,2,35.0000001490115
32,96,76891,5,8,0:0:0:0:
256,96,76969,1,8,0:0:0:0:
480,192,77046,2,8,L|224:192,1,245.00000104308
480,96,77124,1,12,0:0:0:0:
480,96,77202,1,12,0:0:0:0:
480,96,77280,1,12,0:0:0:0:
480,96,77358,1,12,0:0:0:0:
480,96,77435,1,12,0:0:0:0:
480,96,77513,1,12,0:0:0:0:
288,192,78136,6,0,L|120:192,1,140.000000596046,8|0,0:0|0:0,0:0:0:0:
192,192,78758,2,8,L|48:192,1,140.000000596046
144,136,78966,1,8,0:0:0:0:
208,128,79173,1,8,0:0:0:0:
256,192,79380,12,0,79692,0:0:0:0:
256,192,79692,12,0,80003,0:0:0:0:
376,192,79692,5,4,0:0:0:0:
336,128,80003,2,0,L|264:128,1,70.000000298023,8|0,0:0|0:0,0:0:0:0:
264,64,80314,2,0,L|176:64,1,70.000000298023,8|0,0:0|0:0,0:0:0:0:
144,64,80625,1,8,0:0:0:0:
168,128,80625,2,0,L|168:296,1,140.000000596046,4|0,0:0|0:0,0:0:0:0:
8,192,80936,1,0,0:0:0:0:
8,192,81092,1,0,0:0:0:0:
168,268,81248,6,8,L|328:272,1,140.000000596046,8|12,0:0|0:0,0:0:0:0:
496,272,81455,1,8,0:0:0:0:
480,272,81663,1,8,0:0:0:0:
304,200,81870,2,0,L|144:200,1,140.000000596046
512,200,82181,1,2,0:0:0:0:
0,192,82337,1,2,0:0:0:0:
152,128,82493,2,0,L|440:136,1,280.000001192092,8|0,0:0|0:0,0:0:0:0:
432,64,82804,1,2,0:0:0:0:
64,64,82959,1,2,0:0:0:0:
328,136,83271,1,0,0:0:0:0:
431,135,83426,1,0,0:0:0:0:
384,136,83582,1,0,0:0:0:0:
432,208,83737,6,8,L|128:208,1,280.000001192092
432,208,83893,1,8,0:0:0:0:
432,208,84049,1,8,0:0:0:0:
432,208,84204,1,8,0:0:0:0:
152,208,84438,1,12,0:0:0:0:
152,208,84515,1,12,0:0:0:0:
152,208,84593,1,12,0:0:0:0:
152,208,84671,1,12,0:0:0:0:
152,208,84749,1,12,0:0:0:0:
152,208,84827,1,12,0:0:0:0:
152,208,84904,1,12,0:0:0:0:
152,208,84982,6,0,B|96:176|96:176|208:168|208:168|88:144,1,280.000001192092
0,192,85293,1,2,0:0:0:0:
80,192,85449,1,2,0:0:0:0:
256,192,85760,1,2,0:0:0:0:
352,192,85916,1,8,0:0:0:0:
56,144,86227,5,8,0:0:0:0:
88,144,86227,2,8,L|472:152,1,385.000001639126,8|10,0:0|0:0,0:0:0:0:
192,144,86694,1,8,0:0:0:0:
192,144,87161,1,0,0:0:0:0:
368,152,87472,1,12,0:0:0:0:
368,152,87783,1,0,0:0:0:0:
168,264,88094,6,0,L|24:192,1,140.000000596046,12|0,0:0|0:0,0:0:0:0:
480,232,88405,1,10,0:0:0:0:
480,232,88561,1,8,0:0:0:0:
42,201,88717,6,0,L|48:40,1,140.000000596046,4|8,0:0|0:0,0:0:0:0:
80,200,88717,2,0,L|80:48,1,140.000000596046,4|8,0:0|0:0,0:0:0:0:
64,56,89339,2,8,L|192:56,1,105.000000447034
469,201,89961,6,0,L|464:40,1,140.000000596046,12|8,0:0|0:0,0:0:0:0:
408,200,89961,2,0,L|407:50,1,140.000000596046,12|8,0:0|0:0,0:0:0:0:
432,96,90428,1,8,0:0:0:0:
256,192,90584,12,0,91206,0:0:0:0:
432,96,90584,6,4,L|0:96,1,420.000001788138
512,96,90739,1,2,0:0:0:0:
512,96,90895,1,0,0:0:0:0:
288,96,91206,1,8,0:0:0:0:
184,96,91414,1,8,0:0:0:0:
184,96,91621,1,8,0:0:0:0:
256,192,91829,12,0,92451,0:0:0:0:
88,192,91829,6,8,L|120:192,6,17.5000000745057
32,192,102410,5,2,0:0:0:0:
104,192,102410,1,2,0:0:0:0:
32,192,102565,5,2,0:0:0:0:
104,192,102565,1,2,0:0:0:0:
32,120,103032,2,0,L|176:120,1,140.000000596046,2|0,0:0|0:0,0:0:0:0:
512,128,103188,1,2,0:0:0:0:
256,120,103343,1,8,0:0:0:0:
112,120,103654,6,2,B|280:120|280:120|152:120,1,280.000001192092
248,120,103966,2,8,L|304:120,2,35.0000001490115
112,120,104899,6,0,L|24:344,1,210.000000894069,0|10,0:0|0:0,0:0:0:0:
88,120,104899,2,0,L|96:304,1,175.000000745057,8|2,0:0|0:0,0:0:0:0:
72,264,105522,1,2,0:0:0:0:
464,296,105988,5,2,0:0:0:0:
464,296,106144,1,2,0:0:0:0:
392,296,106300,1,2,0:0:0:0:
464,296,106455,1,8,0:0:0:0:
400,296,106455,1,8,0:0:0:0:
400,296,106611,1,8,0:0:0:0:
464,296,106611,1,8,0:0:0:0:
424,248,106766,6,0,L|272:256,1,140.000000596046,0|8,0:0|0:0,0:0:0:0:
400,296,106766,1,0,0:0:0:0:
488,216,106922,1,2,0:0:0:0:
408,200,107078,1,2,0:0:0:0:
328,200,107233,1,2,0:0:0:0:
32,264,107544,1,2,0:0:0:0:
56,184,107700,6,0,L|288:184,1,210.000000894069,0|2,0:0|0:0,0:0:0:0:
120,240,107700,2,0,L|344:240,1,210.000000894069,0|2,0:0|0:0,0:0:0:0:
456,184,108945,6,0,L|224:184,1,210.000000894069,8|0,0:0|0:0,0:0:0:0:
392,240,108945,2,0,L|168:240,1,210.000000894069,8|8,0:0|0:0,0:0:0:0:
344,208,109100,1,8,0:0:0:0:
296,208,109256,1,8,0:0:0:0:
182,240,109878,6,0,L|184:24,1,210.000000894069,0|8,0:0|0:0,0:0:0:0:
480,56,111123,1,2,0:0:0:0:
480,56,111279,5,8,0:0:0:0:
256,56,111357,1,8,0:0:0:0:
32,56,111434,1,8,0:0:0:0:
32,56,111590,1,8,0:0:0:0:
256,56,111746,1,8,0:0:0:0:
480,56,111901,1,2,0:0:0:0:
232,192,112161,1,2,0:0:0:0:
280,192,112161,1,2,0:0:0:0:
176,280,112368,6,0,L|40:224,1,140.000000596046,12|8,0:0|0:0,0:0:0:0:
240,304,112368,2,0,L|128:256,1,105.000000447034
480,280,113302,2,0,L|408:280,1,70.000000298023,2|0,0:0|0:0,0:0:0:0:
352,288,113613,2,0,L|80:184,2,280.000001192092,8|8|8,0:0|0:0|0:0,0:0:0:0:
144,280,113820,1,8,0:0:0:0:
256,288,114028,1,8,0:0:0:0:
0,208,114391,1,4,0:0:0:0:
0,208,114546,1,4,0:0:0:0:
24,184,114858,6,0,L|312:280,1,280.000001192092,8|8,0:0|0:0,0:0:0:0:
424,320,116258,2,0,L|424:56|424:56,1,245.00000104308,8|0,0:0|0:0,0:0:0:0:
448,248,116310,2,0,L|384:232,1,46.6666668653487,0|8,0:0|0:0,0:0:0:0:
400,72,117347,6,12,L|368:352,1,280.000001192092
424,72,117347,2,12,L|448:352,1,280.000001192092
256,192,118800,2,8,L|192:192,1,46.6666668653487
256,192,118800,1,8,0:0:0:0:
440,320,119215,6,0,B|400:304|400:304|408:304|456:296|456:296|408:272,1,140.000000596046,2|0,0:0|0:0,0:0:0:0:
80,304,119370,1,2,0:0:0:0:
344,312,119526,1,2,0:0:0:0:
424,304,119681,1,0,0:0:0:0:
384,272,119837,6,2,L|184:104,1,245.00000104308
440,272,119837,2,2,L|224:96,1,245.00000104308
224,280,119993,1,2,0:0:0:0:
224,280,120148,1,2,0:0:0:0:
224,280,120304,1,2,0:0:0:0:
304,176,120459,1,8,0:0:0:0:
200,96,120926,1,8,0:0:0:0:
64,192,121082,6,2,L|8:184,1,35.0000001490115
168,192,121393,2,0,L|408:192,1,210.000000894069,8|0,0:0|0:0,0:0:0:0:
304,192,121549,1,8,0:0:0:0:
240,192,121704,1,8,0:0:0:0:
304,120,121704,2,12,L|336:120,8,17.5000000745057
376,304,122327,6,0,L|16:88,1,420.000017809867,4|8,0:0|0:0,0:0:0:0:
240,288,122949,2,0,L|48:176,1,210.000008904934,8|8,0:0|0:0,0:0:0:0:
232,240,122949,2,0,L|136:184,1,105.000004452467,8|0,0:0|0:0,0:0:0:0:
15,87,123571,6,0,L|440:96,1,420.000017809867,0|8,0:0|0:0,0:0:0:0:
432,96,123779,1,0,0:0:0:0:
224,88,123986,1,8,0:0:0:0:
280,96,124194,1,12,0:0:0:0:
376,136,124816,6,0,L|376:360,2,210.000008904934,12|8|12,0:0|0:0|0:0,0:0:0:0:
464,136,124816,2,0,L|464:352,2,210.000008904934,12|8|12,0:0|0:0|0:0,0:0:0:0:
424,136,126061,2,0,L|200:136,1,210.000008904934
213,136,126268,1,8,0:0:0:0:
213,136,126476,1,8,0:0:0:0:
168,136,126683,6,0,L|168:360,3,210.000008904934,4|8|4|8,0:0|0:0|0:0|0:0,0:0:0:0:
256,136,126683,2,0,L|256:352,3,210.000008904934,0|8|0|8,0:0|0:0|0:0|0:0,0:0:0:0:
184,240,126839,1,0,0:0:0:0:
232,256,126995,1,0,0:0:0:0:
224,288,127150,1,0,0:0:0:0:
184,296,127461,1,0,0:0:0:0:
216,256,127617,1,0,0:0:0:0:
240,224,127773,1,0,0:0:0:0:
192,200,127928,1,0,0:0:0:0:
232,192,128084,1,0,0:0:0:0:
176,248,128239,1,0,0:0:0:0:
256,272,128395,1,0,0:0:0:0:
256,192,128551,12,0,129795,0:0:0:0:
216,304,128551,5,0,0:0:0:0:
256,192,128706,12,0,129795,0:0:0:0:
256,192,128862,12,0,129795,0:0:0:0:
256,192,129017,12,0,129795,0:0:0:0:
256,192,129173,12,0,129795,0:0:0:0:
256,192,129329,12,0,129795,0:0:0:0:
256,192,129484,12,0,129795,0:0:0:0:
256,192,129640,12,0,129795,0:0:0:0:
512,192,129795,6,0,L|64:192,1,420.000017809867,4|0,0:0|0:0,0:0:0:0:
304,272,130418,6,0,L|504:272,1,157.5000066787,8|0,0:0|0:0,0:0:0:0:
256,192,131040,12,0,131974,0:0:0:0:
256,192,131663,12,0,131974,0:0:0:0:
296,192,132233,5,2,0:0:0:0:
392,192,132233,1,2,0:0:0:0:
296,192,132388,1,2,0:0:0:0:
392,192,132388,1,2,0:0:0:0:
392,192,132543,1,2,0:0:0:0:
296,192,132543,1,2,0:0:0:0:
296,192,132699,1,2,0:0:0:0:
392,192,132699,1,2,0:0:0:0:
344,120,132854,5,8,0:0:0:0:
256,120,132854,1,8,0:0:0:0:
320,120,133010,5,2,0:0:0:0:
232,120,133010,1,2,0:0:0:0:
296,120,133166,5,2,0:0:0:0:
208,120,133166,1,2,0:0:0:0:
168,120,133321,5,2,0:0:0:0:
256,120,133321,1,2,0:0:0:0:
192,120,133477,5,8,0:0:0:0:
280,120,133477,1,8,0:0:0:0:
216,120,133633,5,2,0:0:0:0:
304,120,133633,1,2,0:0:0:0:
344,120,133788,5,2,0:0:0:0:
256,120,133788,1,2,0:0:0:0:
320,120,133944,5,2,0:0:0:0:
232,120,133944,1,2,0:0:0:0:
256,192,134100,12,4,134723,0:0:0:0:
296,120,134100,5,4,0:0:0:0:
208,120,134100,1,4,0:0:0:0:
216,192,134722,5,0,0:0:0:0:
128,192,134722,1,0,0:0:0:0:
192,192,134878,5,2,0:0:0:0:
104,192,134878,1,2,0:0:0:0:
168,192,135034,5,2,0:0:0:0:
80,192,135034,1,2,0:0:0:0:
40,192,135189,5,2,0:0:0:0:
128,192,135189,1,2,0:0:0:0:
64,192,135345,5,8,0:0:0:0:
152,192,135345,1,8,0:0:0:0:
88,192,135501,5,2,0:0:0:0:
176,192,135501,1,2,0:0:0:0:
216,192,135656,5,2,0:0:0:0:
128,192,135656,1,2,0:0:0:0:
192,192,135812,5,2,0:0:0:0:
104,192,135812,1,2,0:0:0:0:
152,128,135966,2,0,L|456:128,1,280.000001192092,8|0,0:0|0:0,0:0:0:0:
0,128,136174,1,8,0:0:0:0:
112,128,136381,1,8,0:0:0:0:
288,128,136589,1,12,0:0:0:0:
224,128,136744,1,0,0:0:0:0:
312,128,136900,1,0,0:0:0:0:
400,128,137056,1,0,0:0:0:0:
432,248,137211,6,0,L|368:248,1,35.0000001490115
424,320,137211,2,0,B|384:288|384:288|480:288,1,140.000000596046
496,248,137522,2,0,L|416:248,1,70.000000298023
424,248,137834,6,0,L|118:240,1,280.000001192092,4|0,0:0|0:0,0:0:0:0:
16,248,137989,1,0,0:0:0:0:
488,256,138145,1,0,0:0:0:0:
240,240,138301,1,0,0:0:0:0:
488,256,138664,1,0,0:0:0:0:
16,248,138872,1,0,0:0:0:0:
200,328,139234,6,0,L|200:64,1,210.000000894069,2|2,0:0|0:0,0:0:0:0:
288,328,139390,2,0,L|256:136,1,140.000000596046,2|2,0:0|0:0,0:0:0:0:
200,328,139545,2,0,L|200:192,1,70.000000298023
