osu file format v13

[General]
AudioFilename: Blackstripe-WOHO (Original Mix) [Dutch House] [2014] [public27380885] (www.myfreemp3.cc).mp3
AudioLeadIn: 0
PreviewTime: -1
Countdown: 1
SampleSet: Normal
StackLeniency: 0.7
Mode: 0
LetterboxInBreaks: 1
WidescreenStoryboard: 1

[Editor]
DistanceSpacing: 0.8
BeatDivisor: 8
GridSize: 8
TimelineZoom: 1

[Metadata]
Title:Blackstripe - WOHO
TitleUnicode:Blackstripe - WOHO
Artist:Blackstripe
ArtistUnicode:Blackstripe
Creator:Phosphorcracker
Version:lower stream density test
Source:
Tags:
BeatmapID:519397
BeatmapSetID:221863

[Difficulty]
HPDrainRate:5
CircleSize:4
OverallDifficulty:8
ApproachRate:9
SliderMultiplier:1.4
SliderTickRate:1

[Events]
//Background and Video events
//Break Periods
2,120198,126899
//Storyboard Layer 0 (Background)
//Storyboard Layer 1 (Fail)
//Storyboard Layer 2 (Pass)
//Storyboard Layer 3 (Foreground)
//Storyboard Sound Samples
//Background Colour Transformations
3,100,163,162,255

[TimingPoints]
-0.486463967889897,468.75,4,1,0,100,1,0

[HitObjects]
88,280,14999,5,0,0:0:0:0:
144,80,15468,1,0,0:0:0:0:
160,96,15585,1,0,0:0:0:0:
176,112,15702,1,0,0:0:0:0:
192,128,15819,1,0,0:0:0:0:
208,144,15937,1,0,0:0:0:0:
416,72,16405,1,0,0:0:0:0:
224,184,16874,5,0,0:0:0:0:
440,256,17343,1,0,0:0:0:0:
208,320,17577,1,0,0:0:0:0:
72,144,17812,1,0,0:0:0:0:
72,320,18046,1,0,0:0:0:0:
208,144,18280,1,0,0:0:0:0:
40,232,18515,1,0,0:0:0:0:
256,232,18749,1,0,0:0:0:0:
440,112,19218,5,0,0:0:0:0:
408,208,19452,5,0,0:0:0:0:
392,224,19569,1,0,0:0:0:0:
376,240,19687,1,0,0:0:0:0:
360,256,19804,1,0,0:0:0:0:
256,312,19921,1,0,0:0:0:0:
224,312,20038,1,0,0:0:0:0:
192,312,20155,1,0,0:0:0:0:
416,48,20624,5,0,0:0:0:0:
232,48,20858,1,0,0:0:0:0:
416,96,21093,1,0,0:0:0:0:
232,88,21327,1,0,0:0:0:0:
416,128,21562,1,0,0:0:0:0:
160,248,21796,1,0,0:0:0:0:
64,160,22030,2,0,B|192:64|168:80|176:80,1,140
168,64,22968,5,0,0:0:0:0:
184,80,23085,1,0,0:0:0:0:
200,96,23202,1,0,0:0:0:0:
216,112,23319,1,0,0:0:0:0:
232,128,23437,1,0,0:0:0:0:
272,200,23671,1,0,0:0:0:0:
80,264,23905,1,0,0:0:0:0:
416,344,24140,1,0,0:0:0:0:
448,224,24374,2,0,L|344:128,1,140
200,160,25312,5,0,0:0:0:0:
192,128,25429,1,0,0:0:0:0:
216,104,25546,1,0,0:0:0:0:
248,112,25663,1,0,0:0:0:0:
264,128,25780,1,0,0:0:0:0:
72,256,26249,5,0,0:0:0:0:
232,344,26483,1,0,0:0:0:0:
400,256,26718,1,0,0:0:0:0:
360,80,26952,1,0,0:0:0:0:
128,72,27187,1,0,0:0:0:0:
248,200,27421,1,0,0:0:0:0:
256,208,27655,1,0,0:0:0:0:
328,192,28124,5,0,0:0:0:0:
304,160,28241,1,0,0:0:0:0:
272,136,28358,1,0,0:0:0:0:
232,144,28476,1,0,0:0:0:0:
200,168,28593,1,0,0:0:0:0:
56,336,29062,5,0,0:0:0:0:
432,336,29296,1,0,0:0:0:0:
432,48,29530,1,0,0:0:0:0:
56,48,29765,1,0,0:0:0:0:
48,192,29999,2,0,P|256:192|256:360,1,280
144,272,31171,2,0,B|224:280|344:216|344:200,1,210,0|0,0:0|0:0,0:0:0:0:
368,120,32108,1,0,0:0:0:0:
344,80,32226,1,0,0:0:0:0:
312,56,32343,1,0,0:0:0:0:
48,40,32577,1,0,0:0:0:0:
48,64,32694,5,0,0:0:0:0:
48,96,32812,1,0,0:0:0:0:
48,240,33046,1,0,0:0:0:0:
240,48,33280,1,0,0:0:0:0:
240,248,33515,1,0,0:0:0:0:
144,128,33749,1,0,0:0:0:0:
144,296,33983,1,0,0:0:0:0:
312,352,34218,1,0,0:0:0:0:
416,80,34687,5,0,0:0:0:0:
416,112,34804,1,0,0:0:0:0:
416,144,34921,1,0,0:0:0:0:
416,168,35038,2,0,B|376:224|368:272|272:272,1,175
232,272,35858,1,0,0:0:0:0:
200,256,35976,1,0,0:0:0:0:
168,240,36093,1,0,0:0:0:0:
120,208,36327,1,0,0:0:0:0:
104,152,36562,1,0,0:0:0:0:
120,96,36796,6,0,B|208:96|160:64|128:40|112:32|272:32,1,210
320,40,37733,5,0,0:0:0:0:
376,56,37968,1,0,0:0:0:0:
416,96,38202,1,0,0:0:0:0:
448,144,38437,1,0,0:0:0:0:
464,200,38671,1,0,0:0:0:0:
448,256,38905,2,0,L|336:344,1,140
280,344,39608,5,0,0:0:0:0:
248,328,39726,1,0,0:0:0:0:
216,312,39843,1,0,0:0:0:0:
256,192,40077,1,0,0:0:0:0:
160,96,40312,1,0,0:0:0:0:
352,288,40546,1,0,0:0:0:0:
352,96,40780,1,0,0:0:0:0:
160,288,41015,1,0,0:0:0:0:
128,272,41132,1,0,0:0:0:0:
96,256,41249,1,0,0:0:0:0:
88,200,41483,5,0,0:0:0:0:
112,152,41718,1,0,0:0:0:0:
144,112,41952,1,0,0:0:0:0:
192,80,42187,1,0,0:0:0:0:
224,80,42304,1,0,0:0:0:0:
256,80,42421,1,0,0:0:0:0:
288,80,42538,1,0,0:0:0:0:
320,80,42655,2,0,B|416:80|320:136|448:128,1,140
440,272,43593,2,0,L|368:272,1,70
72,272,44062,2,0,L|144:272,1,70
440,200,44530,6,0,L|368:200,1,70
72,200,44999,2,0,L|144:200,1,70
208,48,45468,2,0,B|208:144|288:48|288:144,1,140
288,232,46405,2,0,B|288:320|216:240|224:344|224:352,1,140
168,344,47108,5,0,0:0:0:0:
128,304,47343,1,0,0:0:0:0:
112,288,47460,1,0,0:0:0:0:
96,272,47577,1,0,0:0:0:0:
80,256,47694,1,0,0:0:0:0:
64,240,47812,1,0,0:0:0:0:
88,192,48046,1,0,0:0:0:0:
120,144,48280,2,0,B|248:144|240:72|248:96|240:88,1,140
296,88,48983,5,0,0:0:0:0:
376,88,49218,2,0,L|376:168,1,70
376,296,49687,2,0,L|376:224,1,70
144,88,50155,2,0,L|144:160|144:168,1,70
144,296,50624,2,0,L|144:224,1,70
256,192,51093,1,0,0:0:0:0:
288,192,51210,1,0,0:0:0:0:
320,192,51327,1,0,0:0:0:0:
392,192,51562,5,0,0:0:0:0:
376,248,51796,1,0,0:0:0:0:
344,296,52030,1,0,0:0:0:0:
296,320,52265,1,0,0:0:0:0:
240,336,52499,1,0,0:0:0:0:
184,336,52733,1,0,0:0:0:0:
128,320,52968,1,0,0:0:0:0:
136,288,53085,1,0,0:0:0:0:
152,272,53202,1,0,0:0:0:0:
176,256,53319,1,0,0:0:0:0:
208,240,53437,1,0,0:0:0:0:
320,216,53905,2,0,B|440:144|312:152|392:104,1,140
296,48,54608,5,0,0:0:0:0:
272,64,54843,1,0,0:0:0:0:
120,192,55312,1,0,0:0:0:0:
96,208,55546,1,0,0:0:0:0:
72,280,55780,2,0,P|128:344|192:344,1,140
232,344,56483,1,0,0:0:0:0:
280,320,56718,1,0,0:0:0:0:
328,288,56952,1,0,0:0:0:0:
344,272,57069,1,0,0:0:0:0:
360,256,57187,1,0,0:0:0:0:
392,208,57421,1,0,0:0:0:0:
392,152,57655,2,0,P|280:64|240:152,1,280,0|0,0:0|0:0,0:0:0:0:
192,264,58827,5,0,0:0:0:0:
152,264,59062,1,0,0:0:0:0:
80,80,59530,1,0,0:0:0:0:
120,80,59765,1,0,0:0:0:0:
168,80,59882,1,0,0:0:0:0:
216,80,59999,1,0,0:0:0:0:
264,104,60233,2,0,L|328:152,1,70
328,200,60702,1,0,0:0:0:0:
312,256,60937,2,0,B|224:232|280:296|168:272,1,140
88,184,61640,2,0,L|88:104,1,70
368,104,62108,6,0,L|368:184,1,70
368,288,62577,2,0,L|288:288,1,70
104,288,63046,2,0,B|200:168|104:120|248:64,1,280
304,64,64218,1,0,0:0:0:0:
352,96,64452,1,0,0:0:0:0:
400,128,64687,2,0,L|416:232,1,105
400,264,65155,1,0,0:0:0:0:
384,280,65272,1,0,0:0:0:0:
368,296,65390,1,0,0:0:0:0:
312,296,65624,2,0,B|240:256|272:192|224:192,1,140
184,160,66327,6,0,L|240:96,4,70,0|0|0|0|0,0:0|0:0|0:0|0:0|0:0,0:0:0:0:
240,136,67499,2,0,B|360:136|264:192|352:192,1,140
256,192,68437,12,0,73124,0:0:0:0:
320,264,73358,5,0,0:0:0:0:
184,264,73593,1,0,0:0:0:0:
184,128,73827,1,0,0:0:0:0:
256,128,74062,2,0,L|400:128,1,140
256,192,74999,5,0,0:0:0:0:
224,144,75233,2,0,L|160:104,1,70
136,112,75585,1,0,0:0:0:0:
112,120,75702,1,0,0:0:0:0:
88,136,75819,1,0,0:0:0:0:
64,160,75937,1,0,0:0:0:0:
64,216,76171,1,0,0:0:0:0:
88,264,76405,1,0,0:0:0:0:
136,288,76640,5,0,0:0:0:0:
160,296,76757,1,0,0:0:0:0:
184,304,76874,1,0,0:0:0:0:
248,256,77226,1,0,0:0:0:0:
264,240,77343,1,0,0:0:0:0:
280,224,77460,1,0,0:0:0:0:
344,160,77812,1,0,0:0:0:0:
312,112,78046,6,0,B|232:88|304:72|208:24,1,140
152,40,78749,1,0,0:0:0:0:
120,88,78983,1,0,0:0:0:0:
104,144,79218,1,0,0:0:0:0:
88,224,79452,6,0,L|88:304,1,70
224,320,79921,2,0,L|304:320,1,70
424,280,80390,2,0,L|424:208,1,70
424,72,80858,2,0,L|352:72,1,70
296,72,81327,1,0,0:0:0:0:
240,88,81562,1,0,0:0:0:0:
192,112,81796,2,0,B|88:192|168:240|136:304,1,210
192,320,82733,2,0,L|264:320,1,70
288,304,83085,5,0,0:0:0:0:
312,288,83202,1,0,0:0:0:0:
336,272,83319,1,0,0:0:0:0:
352,240,83437,1,0,0:0:0:0:
360,184,83671,1,0,0:0:0:0:
360,160,83788,1,0,0:0:0:0:
360,136,83905,1,0,0:0:0:0:
336,88,84140,2,0,L|280:40,5,70,0|0|0|0|0|0,0:0|0:0|0:0|0:0|0:0|0:0,0:0:0:0:
224,48,85546,5,0,0:0:0:0:
176,72,85780,2,0,B|96:128|200:112|128:192,1,140
136,216,86366,1,0,0:0:0:0:
160,296,86718,2,0,B|288:312|208:248|296:272,1,140
320,224,87421,2,0,L|344:144,1,70
320,136,87772,5,0,0:0:0:0:
304,112,87890,1,0,0:0:0:0:
280,96,88007,1,0,0:0:0:0:
256,88,88124,1,0,0:0:0:0:
232,88,88241,1,0,0:0:0:0:
208,88,88358,1,0,0:0:0:0:
184,96,88476,1,0,0:0:0:0:
160,104,88593,1,0,0:0:0:0:
136,120,88710,1,0,0:0:0:0:
112,136,88827,1,0,0:0:0:0:
88,152,88944,1,0,0:0:0:0:
72,176,89062,1,0,0:0:0:0:
64,200,89179,5,0,0:0:0:0:
64,224,89296,1,0,0:0:0:0:
64,248,89413,1,0,0:0:0:0:
72,272,89530,1,0,0:0:0:0:
88,296,89647,1,0,0:0:0:0:
120,312,89765,1,0,0:0:0:0:
144,320,89882,1,0,0:0:0:0:
168,328,89999,2,0,L|248:328,1,70
432,328,90468,1,0,0:0:0:0:
424,56,90702,1,0,0:0:0:0:
400,72,90819,5,0,0:0:0:0:
376,88,90937,1,0,0:0:0:0:
80,328,91171,1,0,0:0:0:0:
80,56,91405,1,0,0:0:0:0:
240,176,91640,1,0,0:0:0:0:
256,192,91757,1,0,0:0:0:0:
272,208,91874,2,0,P|296:256|288:280,1,70
80,328,92343,5,0,0:0:0:0:
80,56,92577,1,0,0:0:0:0:
424,56,92812,1,0,0:0:0:0:
424,336,93046,1,0,0:0:0:0:
400,336,93163,1,0,0:0:0:0:
376,336,93280,1,0,0:0:0:0:
256,192,93515,1,0,0:0:0:0:
256,216,93749,2,0,B|176:216|224:256|120:240,1,140
80,56,94452,2,0,L|144:104,1,70
424,56,94921,2,0,L|368:112,1,70
432,336,95390,2,0,L|368:296,1,70
80,328,95858,2,0,L|144:288,1,70
192,192,96327,5,0,0:0:0:0:
224,192,96444,1,0,0:0:0:0:
256,192,96562,1,0,0:0:0:0:
280,200,96679,1,0,0:0:0:0:
304,216,96796,1,0,0:0:0:0:
328,232,96913,1,0,0:0:0:0:
352,248,97030,1,0,0:0:0:0:
368,272,97147,1,0,0:0:0:0:
376,296,97265,1,0,0:0:0:0:
376,320,97382,1,0,0:0:0:0:
360,336,97499,6,0,L|288:352,1,70
48,336,97968,2,0,L|48:264,1,70
464,48,98437,2,0,L|464:128,1,70
464,336,98905,2,0,L|464:264,1,70
48,48,99374,2,0,L|48:120,1,70
256,192,99843,5,0,0:0:0:0:
352,96,100077,1,0,0:0:0:0:
160,288,100312,1,0,0:0:0:0:
160,96,100546,1,0,0:0:0:0:
352,296,100780,1,0,0:0:0:0:
256,192,101015,1,0,0:0:0:0:
256,200,101249,1,0,0:0:0:0:
256,224,101366,1,0,0:0:0:0:
256,248,101483,1,0,0:0:0:0:
256,280,101601,1,0,0:0:0:0:
272,304,101718,5,0,0:0:0:0:
296,320,101835,1,0,0:0:0:0:
320,328,101952,1,0,0:0:0:0:
344,320,102069,1,0,0:0:0:0:
368,304,102187,1,0,0:0:0:0:
376,280,102304,1,0,0:0:0:0:
376,256,102421,1,0,0:0:0:0:
376,232,102538,1,0,0:0:0:0:
368,208,102655,1,0,0:0:0:0:
352,184,102772,1,0,0:0:0:0:
328,168,102890,5,0,0:0:0:0:
304,152,103007,1,0,0:0:0:0:
280,144,103124,1,0,0:0:0:0:
168,128,103593,2,0,L|168:208,1,70
112,208,104062,2,0,L|112:128,1,70
56,120,104530,2,0,L|56:192,1,70,0|0,0:0|0:0,0:0:0:0:
56,248,104999,2,0,L|120:280,1,70
168,312,105468,5,0,0:0:0:0:
456,320,105702,1,0,0:0:0:0:
168,248,105937,1,0,0:0:0:0:
456,256,106171,1,0,0:0:0:0:
168,184,106405,1,0,0:0:0:0:
456,192,106640,1,0,0:0:0:0:
168,120,106874,1,0,0:0:0:0:
456,128,107108,1,0,0:0:0:0:
432,112,107226,5,0,0:0:0:0:
408,104,107343,1,0,0:0:0:0:
384,96,107460,1,0,0:0:0:0:
360,96,107577,1,0,0:0:0:0:
336,96,107694,1,0,0:0:0:0:
312,104,107812,1,0,0:0:0:0:
296,160,108046,1,0,0:0:0:0:
280,216,108280,1,0,0:0:0:0:
256,264,108515,1,0,0:0:0:0:
216,304,108749,6,0,P|208:352|184:352,1,70
128,288,109218,2,0,P|136:240|160:240,1,70
200,208,109687,2,0,P|256:192|264:200,1,70
304,224,110155,2,0,L|384:224,1,70
432,224,110624,2,0,L|432:152,1,70
432,96,111093,2,0,L|360:96,1,70
304,96,111562,2,0,L|304:168,1,70
304,224,112030,2,0,P|200:240|232:112,1,280
120,72,113437,5,0,0:0:0:0:
120,312,113671,1,0,0:0:0:0:
392,312,113905,1,0,0:0:0:0:
392,72,114140,1,0,0:0:0:0:
336,88,114374,1,0,0:0:0:0:
280,112,114608,1,0,0:0:0:0:
264,136,114726,1,0,0:0:0:0:
248,160,114843,1,0,0:0:0:0:
232,176,114960,1,0,0:0:0:0:
216,200,115077,1,0,0:0:0:0:
216,256,115312,5,0,0:0:0:0:
256,296,115546,1,0,0:0:0:0:
304,328,115780,1,0,0:0:0:0:
360,336,116015,1,0,0:0:0:0:
408,312,116249,1,0,0:0:0:0:
416,288,116366,1,0,0:0:0:0:
416,264,116483,1,0,0:0:0:0:
416,232,116601,1,0,0:0:0:0:
416,208,116718,1,0,0:0:0:0:
416,184,116835,1,0,0:0:0:0:
416,160,116952,5,0,0:0:0:0:
408,136,117069,1,0,0:0:0:0:
392,112,117187,1,0,0:0:0:0:
368,96,117304,1,0,0:0:0:0:
344,80,117421,1,0,0:0:0:0:
320,72,117538,1,0,0:0:0:0:
296,64,117655,1,0,0:0:0:0:
272,64,117772,1,0,0:0:0:0:
240,64,117890,1,0,0:0:0:0:
216,64,118007,1,0,0:0:0:0:
192,72,118124,6,0,B|96:104|192:120|80:168,4,140,0|0|0|0|0,0:0|0:0|0:0|0:0|0:0,0:0:0:0:
256,192,127499,12,0,134999,0:0:0:0:
256,192,135468,5,0,0:0:0:0:
248,216,135585,1,0,0:0:0:0:
224,216,135702,1,0,0:0:0:0:
200,200,135819,1,0,0:0:0:0:
192,176,135937,1,0,0:0:0:0:
200,152,136054,1,0,0:0:0:0:
216,128,136171,1,0,0:0:0:0:
240,120,136288,1,0,0:0:0:0:
264,120,136405,2,0,B|352:120|272:176|384:176,1,140
384,232,137108,5,0,0:0:0:0:
376,256,137226,1,0,0:0:0:0:
368,280,137343,1,0,0:0:0:0:
320,312,137577,1,0,0:0:0:0:
296,320,137694,1,0,0:0:0:0:
272,328,137812,1,0,0:0:0:0:
216,328,138046,2,0,B|256:240|168:224|264:128,1,210
