osu file format v14

[General]
AudioFilename: Blackhole - DioSynth.mp3
AudioLeadIn: 0
PreviewTime: 116339
Countdown: 0
SampleSet: Normal
StackLeniency: 0.7
Mode: 0
LetterboxInBreaks: 1
WidescreenStoryboard: 1

[Editor]
Bookmarks: 10768,20368,29968,39568,49168,58768,68368,77968,87568,97168,106768,116368,125968,135568
DistanceSpacing: 0.9
BeatDivisor: 4
GridSize: 4
TimelineZoom: 1

[Metadata]
Title:DioSynth
TitleUnicode:DioSynth
Artist:Blackhole
ArtistUnicode:Blackhole
Creator:[ UniCiTy ]
Version:Standard
Source:Newgrounds
Tags:audio portal erik mcclure
BeatmapID:322128
BeatmapSetID:126784

[Difficulty]
HPDrainRate:4
CircleSize:3
OverallDifficulty:4
ApproachRate:4.5
SliderMultiplier:0.9
SliderTickRate:1

[Events]
//Background and Video events
0,0,"34133-1920x1080.jpg",0,0
//Break Periods
2,78249,86389
//Storyboard Layer 0 (Background)
//Storyboard Layer 1 (Fail)
//Storyboard Layer 2 (Pass)
//Storyboard Layer 3 (Foreground)
//Storyboard Sound Samples

[TimingPoints]
1249,300,4,1,0,100,1,0
6049,-100,4,1,2,25,0,0
10849,-100,4,1,0,35,0,0
20449,-100,4,1,1,40,0,1
39649,-100,4,1,2,35,0,0
49249,-100,4,1,1,50,0,0
58849,-142.857142857143,4,2,0,45,0,0
68449,-200,4,2,0,35,0,0
87649,-133.333333333333,4,1,1,25,0,0
92449,-100,4,1,1,35,0,0
97249,-100,4,1,0,40,0,1
97399,-100,4,1,0,40,0,0
111649,-100,4,1,1,45,0,0
116449,-90.9090909090909,4,1,1,55,0,1
135649,-90.9090909090909,4,2,0,75,0,0

[Colours]
Combo1 : 68,255,162
Combo2 : 0,6,251
Combo3 : 104,216,253
Combo4 : 29,0,145
Combo5 : 97,250,226

[HitObjects]
164,84,6049,6,0,P|132:112|208:196,1,180,0|2,0:0|0:0,0:0:0:0:
372,148,7249,2,0,P|442:190|405:263,1,180,0|2,0:0|0:0,0:0:0:0:
316,280,8149,1,2,0:0:0:0:
224,272,8449,6,0,P|182:252|148:214,2,90,0|2|0,0:0|0:0|0:0,0:0:0:0:
268,192,9349,1,2,0:0:0:0:
312,112,9649,2,0,P|353:131|387:169,2,90,0|2|0,0:0|0:0|0:0,0:0:0:0:
228,80,10549,1,2,0:0:0:0:
140,92,10849,6,0,B|140:140|140:140|160:180,1,90,0|8,0:0|0:0,0:0:0:0:
136,264,11449,2,0,B|220:264|220:264|276:232|276:232|308:232,2,180
168,348,12949,1,8,0:0:0:0:
232,292,13249,6,0,B|232:248|232:248|244:228|244:228|244:188,1,90,0|8,0:0|0:0,0:0:0:0:
168,160,13849,2,0,P|196:120|348:128,1,180
312,196,14749,2,0,P|356:208|412:188,2,90,8|0|8,0:0|0:0|0:0,0:0:0:0:
336,108,15649,6,0,B|276:108|276:108|200:148|200:148|152:152,2,180
428,108,17149,2,0,B|472:92|472:92|504:56,2,90,8|0|8,0:0|0:0|0:0,0:0:0:0:
372,180,18049,5,0,0:0:0:0:
384,268,18349,2,0,B|296:248|296:248|232:164,2,180,8|8|8,0:0|0:0|0:0,0:0:0:0:
464,232,19849,2,0,L|436:136,1,90,0|8,0:0|0:0,0:0:0:0:
432,56,20449,6,0,B|360:108|360:108|356:200,1,180,0|2,0:0|0:0,0:0:0:0:
276,156,21349,1,0,0:0:0:0:
240,240,21649,2,0,P|200:216|184:164,3,90,2|0|2|0,0:0|0:0|0:0|0:0,0:0:0:0:
160,88,22849,6,0,P|112:112|92:156,1,90,0|2,0:0|0:0,0:0:0:0:
104,232,23449,2,0,B|188:220|172:160|272:168,1,180,2|2,0:0|0:0,0:0:0:0:
252,256,24349,1,0,0:0:0:0:
264,344,24649,2,0,P|316:320|340:284,1,90,2|0,0:0|0:0,0:0:0:0:
376,216,25249,6,0,B|408:248|408:248|436:304,1,90,0|2,0:0|0:0,0:0:0:0:
340,308,25849,2,0,B|299:328|299:328|267:360,1,90,2|0,0:0|0:0,0:0:0:0:
180,344,26449,2,0,B|156:300|156:300|160:240,3,90,2|0|2|0,0:0|0:0|0:0|0:0,0:0:0:0:
248,248,27649,6,0,B|292:224|292:224|280:144|360:104,1,180,0|2,0:0|0:0,0:0:0:0:
388,200,28549,1,2,0:0:0:0:
448,260,28849,2,0,P|472:216|464:160,2,90,2|0|2,0:0|0:0|0:0,0:0:0:0:
360,244,29749,1,0,0:0:0:0:
272,256,30049,6,0,P|200:236|144:144,2,180,2|2|2,0:0|0:0|0:0,0:0:0:0:
308,176,31549,2,0,L|404:176,1,90,0|2,0:0|0:0,0:0:0:0:
440,256,32149,1,0,0:0:0:0:
372,308,32449,6,0,P|352:260|364:220,1,90,2|0,0:0|0:0,0:0:0:0:
396,144,33049,2,0,P|404:100|385:60,1,90,2|0,0:0|0:0,0:0:0:0:
304,20,33649,2,0,P|249:6|115:145,1,270,2|2,0:0|0:0,0:0:0:0:
132,232,34849,6,0,P|184:208|204:168,1,90,2|0,0:0|0:0,0:0:0:0:
164,100,35449,2,0,P|184:56|216:20,1,90,2|0,0:0|0:0,0:0:0:0:
301,24,36049,2,0,P|329:58|348:100,1,90,2|0,0:0|0:0,0:0:0:0:
311,181,36649,2,0,P|338:217|380:232,1,90,2|2,0:0|0:0,0:0:0:0:
328,304,37249,6,0,P|252:344|172:296,2,180,2|2|2,0:0|0:0|0:0,0:0:0:0:
376,228,38749,2,0,P|408:264|416:304,2,90,0|2|0,0:0|0:0|0:0,0:0:0:0:
280,200,39649,6,0,P|216:176|164:92,2,135,2|0|2,0:0|0:0|0:0,0:0:0:0:
312,116,40849,2,0,P|376:140|428:224,2,135,2|0|2,0:0|0:0|0:0,0:0:0:0:
256,184,42049,6,0,P|152:180|80:152,2,180,2|0|2,0:0|0:0|0:0,0:0:0:0:
224,272,43549,1,0,0:0:0:0:
316,272,43849,2,0,L|372:272,1,45,2|0,0:0|0:0,0:0:0:0:
456,188,44449,6,0,P|424:152|336:140,2,135,2|0|2,0:0|0:0|0:0,0:0:0:0:
456,280,45649,2,0,P|424:316|336:328,2,135,2|0|2,0:0|0:0|0:0,0:0:0:0:
380,232,46849,6,0,L|260:232,2,90,2|0|2,0:0|0:0|0:0,0:0:0:0:
420,52,48049,2,0,P|384:28|336:24,3,90,2|0|2|2,0:0|0:0|0:0|0:0,0:0:0:0:
256,60,49249,6,0,P|236:112|304:228,1,180,8|8,0:0|0:0,0:0:0:0:
412,344,50449,2,0,P|432:292|364:176,1,180,8|8,0:0|0:0,0:0:0:0:
208,144,51649,6,0,P|160:132|80:20,2,180,8|0|8,0:0|0:0|0:0,0:0:0:0:
288,104,53149,2,0,P|332:96|380:104,2,90,0|8|0,0:0|0:0|0:0,0:0:0:0:
248,184,54049,6,0,P|252:232|288:276,1,90,8|0,0:0|0:0,0:0:0:0:
364,280,54649,2,0,P|360:232|324:188,1,90,8|0,0:0|0:0,0:0:0:0:
300,120,55249,2,0,P|304:76|336:44,2,90,8|0|8,0:0|0:0|0:0,0:0:0:0:
360,188,56149,1,0,0:0:0:0:
444,172,56449,6,0,P|444:216|412:256,1,90,8|0,0:0|0:0,0:0:0:0:
332,268,57049,2,8,P|293:245|275:198,1,90,8|0,0:0|0:0,0:0:0:0:
304,124,57649,2,0,P|342:102|392:109,1,90,8|0,0:0|0:0,0:0:0:0:
364,192,58249,2,0,P|408:268|500:292,1,180,8|2,0:0|0:0,0:0:0:0:
448,148,59449,6,0,L|428:84,1,62.9999980773926,2|0,0:0|0:0,0:0:0:0:
356,108,60049,2,0,P|364:172|316:220,1,125.999996154785,2|2,0:0|0:0,0:0:0:0:
288,148,60949,1,0,0:0:0:0:
212,136,61249,6,0,L|132:128,2,62.9999980773926,2|0|2,0:0|0:0|0:0,0:0:0:0:
256,200,62149,1,0,0:0:0:0:
328,172,62449,2,0,P|332:220|320:244,2,62.9999980773926,2|0|2,0:0|0:0|0:0,0:0:0:0:
364,104,63349,2,0,L|364:64,2,31.4999990386963,2|2|2,0:0|0:0|0:0,0:0:0:0:
420,156,63949,5,0,0:0:0:0:
484,200,64249,2,0,P|464:224|428:232,1,62.9999980773926,2|0,0:0|0:0,0:0:0:0:
360,212,64849,2,0,L|296:212,3,62.9999980773926,2|0|2|0,0:0|0:0|0:0|0:0,0:0:0:0:
220,204,66049,6,0,P|168:176|208:72,1,188.999994232178,2|0,0:0|0:0,0:0:0:0:
248,136,67249,2,0,P|300:124|340:84,2,94.499997116089,2|0|2,0:0|0:0|0:0,0:0:0:0:
192,136,68449,5,4,0:0:0:0:
268,212,69049,2,0,P|309:226|355:270,1,90
408,340,70249,6,0,P|448:308|460:252,1,90,2|2,0:0|0:0,0:0:0:0:
448,156,71449,2,0,P|416:116|360:104,2,90,2|2|2,0:0|0:0|0:0,0:0:0:0:
384,256,73249,6,0,L|248:256,1,135,2|0,0:0|0:0,0:0:0:0:
220,208,74449,2,0,P|264:188|264:72,1,180,2|2,0:0|0:0,0:0:0:0:
148,92,76249,6,0,P|164:140|212:164,2,90,2|2|2,0:0|0:0|0:0,0:0:0:0:
252,56,78049,5,4,0:0:0:0:
136,128,87649,6,0,L|256:192,1,135.000005149842,8|0,0:0|0:0,0:0:0:0:
376,128,88849,2,0,L|256:192,1,135.000005149842,8|0,0:0|0:0,0:0:0:0:
184,176,89749,1,8,0:0:0:0:
116,208,90049,6,0,P|132:232|176:248,1,67.5000025749208,0|8,0:0|0:0,0:0:0:0:
240,244,90649,2,0,P|270:231|290:204,1,67.5000025749208,0|8,0:0|0:0,0:0:0:0:
328,140,91249,2,0,P|364:188|340:260,1,135.000005149842
272,248,92149,1,8,0:0:0:0:
224,184,92449,6,0,L|192:100,1,90,0|8,0:0|0:0,0:0:0:0:
128,36,93049,2,0,P|100:80|104:124,1,90,0|8,0:0|0:0,0:0:0:0:
112,204,93649,2,0,P|152:192|184:136,2,90,0|8|0,0:0|0:0|0:0,0:0:0:0:
48,140,94549,1,8,0:0:0:0:
256,192,94849,12,0,96949,0:0:0:0:
256,188,97249,6,0,P|300:180|340:152,1,90,2|8,0:0|0:0,0:0:0:0:
348,64,97849,2,0,P|304:72|264:100,1,90,2|8,0:0|0:0,0:0:0:0:
188,140,98449,2,0,P|128:124|104:60,2,135,2|0|2,0:0|0:0|0:0,0:0:0:0:
276,132,99649,6,0,L|368:116,1,90,2|8,0:0|0:0,0:0:0:0:
448,88,100249,2,0,P|448:136|316:192,1,180,2|2,0:0|0:0,0:0:0:0:
256,196,101149,2,0,P|212:196|164:228,2,90,8|2|8,0:0|0:0|0:0,0:0:0:0:
344,212,102049,6,0,L|432:232,1,90,2|8,0:0|0:0,0:0:0:0:
384,308,102649,1,2,0:0:0:0:
300,272,102949,1,8,0:0:0:0:
209,274,103249,2,0,P|171:299|128:308,1,90,2|8,0:0|0:0,0:0:0:0:
80,232,103849,1,2,0:0:0:0:
167,212,104149,1,8,0:0:0:0:
256,180,104449,6,0,P|296:160|320:116,2,90,2|8|2,0:0|0:0|0:0,0:0:0:0:
212,264,105349,1,8,0:0:0:0:
284,320,105649,2,0,P|336:308|412:208,1,180,2|2,0:0|0:0,0:0:0:0:
396,124,106549,1,8,0:0:0:0:
340,196,106849,6,0,P|284:160|264:72,2,135,2|0|2,0:0|0:0|0:0,0:0:0:0:
408,260,108049,2,0,P|464:296|484:384,2,135,2|0|2,0:0|0:0|0:0,0:0:0:0:
316,256,109249,6,0,P|260:280|184:252,2,135,2|0|2,0:0|0:0|0:0,0:0:0:0:
252,188,110449,2,0,P|280:136|264:56,2,135,2|0|2,0:0|0:0|0:0,0:0:0:0:
176,140,111649,6,0,P|164:196|180:240,1,90,0|8,0:0|0:0,0:0:0:0:
124,304,112249,2,0,P|180:316|224:300,1,90,0|8,0:0|0:0,0:0:0:0:
288,264,112849,2,0,P|331:255|374:267,2,90,0|8|0,0:0|0:0|0:0,0:0:0:0:
260,176,113749,1,8,0:0:0:0:
284,88,114049,6,0,P|256:132|132:148,1,180
56,192,114949,1,8,0:0:0:0:
100,272,115249,2,0,P|128:228|252:212,1,180
336,216,116149,1,8,0:0:0:0:
396,148,116449,6,0,P|428:208|424:244,1,99.0000030212403,0|8,0:0|0:0,0:0:0:0:
368,304,117049,2,0,P|336:244|340:208,1,99.0000030212403,0|8,0:0|0:0,0:0:0:0:
312,128,117649,1,0,0:0:0:0:
240,180,117949,1,8,0:0:0:0:
256,268,118249,2,0,P|208:300|144:296,1,99.0000030212403,0|8,0:0|0:0,0:0:0:0:
120,228,118849,5,0,0:0:0:0:
52,168,119149,2,0,P|96:140|152:144,2,99.0000030212403,8|0|8,0:0|0:0|0:0,0:0:0:0:
20,248,120049,2,0,P|76:256|120:232,1,99.0000030212403,8|0,0:0|0:0,0:0:0:0:
184,184,120649,1,8,0:0:0:0:
196,96,120949,1,0,0:0:0:0:
264,40,121249,6,0,P|272:88|304:124,1,99.0000030212403,8|0,0:0|0:0,0:0:0:0:
392,116,121849,1,8,0:0:0:0:
400,204,122149,1,0,0:0:0:0:
360,284,122449,2,0,P|312:296|264:280,2,99.0000030212403,8|0|8,0:0|0:0|0:0,0:0:0:0:
428,228,123349,1,8,0:0:0:0:
472,152,123649,6,0,P|484:104|472:48,1,99.0000030212403,8|0,0:0|0:0,0:0:0:0:
400,100,124249,2,0,P|388:148|400:204,1,99.0000030212403,8|0,0:0|0:0,0:0:0:0:
316,232,124849,2,0,P|244:224|176:304,2,148.50000453186,8|8|8,0:0|0:0|0:0,0:0:0:0:
388,288,126049,6,0,P|412:244|400:192,1,99.0000030212403,0|2,0:0|0:0,0:0:0:0:
324,160,126649,2,0,P|248:184|180:156,2,148.50000453186,10|0|10,0:0|0:0|0:0,0:0:0:0:
392,100,127849,2,0,P|352:64|340:16,1,99.0000030212403,10|8,0:0|0:0,0:0:0:0:
252,20,128449,5,0,0:0:0:0:
204,96,128749,1,10,0:0:0:0:
116,72,129049,2,0,P|52:84|28:108,1,99.0000030212403,10|0,0:0|0:0,0:0:0:0:
20,196,129649,2,0,P|84:184|108:160,1,99.0000030212403,10|0,0:0|0:0,0:0:0:0:
172,100,130249,2,0,P|216:76|264:80,1,99.0000030212403,10|0,0:0|0:0,0:0:0:0:
252,168,130849,6,0,P|328:140|344:32,1,198.000006042481,10|10,0:0|0:0,0:0:0:0:
428,72,131749,1,0,0:0:0:0:
452,156,132049,2,0,P|460:208|448:256,1,99.0000030212403,10|0,0:0|0:0,0:0:0:0:
376,304,132649,2,0,P|368:252|380:204,1,99.0000030212403,10|0,0:0|0:0,0:0:0:0:
360,120,133249,5,10,0:0:0:0:
292,60,133549,1,8,0:0:0:0:
212,20,133849,2,0,P|164:6|112:8,1,99.0000030212403,2|8,0:0|0:0,0:0:0:0:
36,48,134449,1,2,0:0:0:0:
8,132,134749,1,8,0:0:0:0:
24,220,135049,2,0,B|88:296|88:296|184:320,1,198.000006042481,2|4,0:0|0:0,0:0:0:0:
