osu file format v14

[General]
AudioFilename: Blackhole - DioSynth.mp3
AudioLeadIn: 0
PreviewTime: 116339
Countdown: 0
SampleSet: Normal
StackLeniency: 0.7
Mode: 0
LetterboxInBreaks: 1
WidescreenStoryboard: 1

[Editor]
Bookmarks: 10768,20368,29968,39568,49168,58768,68368,77968,87568,97168,106768,116368,125968,135568
DistanceSpacing: 1.4
BeatDivisor: 4
GridSize: 4
TimelineZoom: 1

[Metadata]
Title:DioSynth
TitleUnicode:DioSynth
Artist:Blackhole
ArtistUnicode:Blackhole
Creator:[ UniCiTy ]
Version:Hyper
Source:Newgrounds
Tags:audio portal erik mcclure
BeatmapID:322036
BeatmapSetID:126784

[Difficulty]
HPDrainRate:6
CircleSize:4
OverallDifficulty:6
ApproachRate:7.5
SliderMultiplier:1.4
SliderTickRate:1

[Events]
//Background and Video events
0,0,"34133-1920x1080.jpg",0,0
//Break Periods
2,83049,86824
//Storyboard Layer 0 (Background)
//Storyboard Layer 1 (Fail)
//Storyboard Layer 2 (Pass)
//Storyboard Layer 3 (Foreground)
//Storyboard Sound Samples

[TimingPoints]
1249,300,4,1,0,100,1,0
6049,-100,4,1,2,25,0,0
10849,-100,4,1,0,35,0,0
20449,-100,4,1,1,40,0,1
39649,-100,4,1,2,35,0,0
49249,-100,4,1,1,50,0,0
58849,-142.857142857143,4,2,0,45,0,0
68449,-200,4,2,0,35,0,0
87649,-133.333333333333,4,1,1,25,0,0
92449,-100,4,1,1,35,0,0
97249,-100,4,1,0,40,0,1
97399,-100,4,1,0,40,0,0
106849,-100,4,1,1,45,0,0
116449,-90.9090909090909,4,1,1,55,0,1
135649,-90.9090909090909,4,2,0,75,0,0

[Colours]
Combo1 : 68,255,162
Combo2 : 0,6,251
Combo3 : 104,216,253
Combo4 : 29,0,145
Combo5 : 97,250,226

[HitObjects]
92,96,6049,6,0,P|120:76|156:68,1,70,0|2,0:0|0:0,0:0:0:0:
156,68,6649,1,0,0:0:0:0:
357,68,7249,6,0,P|391:75|420:96,1,70,0|2,0:0|0:0,0:0:0:0:
420,96,7849,1,0,0:0:0:0:
420,96,8149,2,0,L|424:168,1,70,2|2,0:0|0:0,0:0:0:0:
424,248,8449,6,0,P|412:288|320:336,1,140,0|2,0:0|0:0,0:0:0:0:
256,328,8899,1,0,0:0:0:0:
184,304,9049,2,0,P|157:285|141:251,2,70,0|0|2,0:0|0:0|0:0,0:0:0:0:
256,288,9499,1,0,0:0:0:0:
328,272,9649,6,0,P|372:256|432:184,1,140,0|2,0:0|0:0,0:0:0:0:
304,124,10249,2,0,P|260:140|200:212,1,140,0|2,0:0|0:0,0:0:0:0:
176,280,10699,1,2,0:0:0:0:
120,228,10849,6,0,B|96:200|96:164|96:164|128:140|140:92,1,140,0|8,0:0|0:0,0:0:0:0:
60,100,11299,1,0,0:0:0:0:
136,108,11449,1,2,0:0:0:0:
204,80,11599,2,0,L|276:72,2,70,0|8|0,0:0|0:0|0:0,0:0:0:0:
148,32,12049,6,0,P|128:76|184:152,1,140,0|8,0:0|0:0,0:0:0:0:
232,272,12649,2,0,P|252:228|196:152,1,140,0|8,0:0|0:0,0:0:0:0:
140,128,13099,1,0,0:0:0:0:
68,112,13249,6,0,B|60:172|112:196|112:196|124:236,2,140,0|8|0,0:0|0:0|0:0,0:0:0:0:
140,136,13999,2,0,P|176:172|180:200,2,70,0|8|0,0:0|0:0|0:0,0:0:0:0:
172,72,14449,6,0,B|212:96|236:136|236:136|264:136|296:144,1,140,0|8,0:0|0:0,0:0:0:0:
256,208,14899,1,0,0:0:0:0:
216,272,15049,2,0,B|264:284|288:304|288:304|308:332|352:348,1,140,0|8,0:0|0:0,0:0:0:0:
344,268,15499,1,0,0:0:0:0:
368,200,15649,6,0,P|392:168|428:152,2,70,2|0|8,0:0|0:0|0:0,0:0:0:0:
432,224,16099,2,0,B|440:260|456:288|456:288|448:320|464:364,1,140
461,358,16549,1,8,0:0:0:0:
461,358,16699,1,0,0:0:0:0:
388,336,16849,6,0,P|352:320|308:320,1,70
252,344,17149,2,0,P|217:340|185:325,1,70,8|0,0:0|0:0,0:0:0:0:
116,340,17449,2,0,P|136:308|140:276,1,70
208,256,17749,2,0,P|200:216|204:176,1,70,8|0,0:0|0:0,0:0:0:0:
248,128,18049,5,0,0:0:0:0:
312,96,18199,1,0,0:0:0:0:
372,136,18349,2,8,P|372:172|432:256,2,140,8|0|8,0:0|0:0|0:0,0:0:0:0:
412,76,19099,1,0,0:0:0:0:
484,76,19249,6,0,P|472:116|448:140,1,70
384,152,19549,2,0,P|361:178|353:212,1,70,8|0,0:0|0:0,0:0:0:0:
420,240,19849,2,0,P|408:276|376:304,1,70
320,272,20149,2,0,P|280:248|252:248,1,70,8|0,0:0|0:0,0:0:0:0:
189,264,20449,5,0,0:0:0:0:
120,279,20599,2,0,L|40:291,2,70,2|2|0,0:0|0:0|0:0,0:0:0:0:
160,221,21049,2,0,L|240:209,2,70,0|2|2,0:0|0:0|0:0,0:0:0:0:
91,206,21499,1,0,0:0:0:0:
136,152,21649,6,0,P|160:176|200:188,1,70,2|0,0:0|0:0,0:0:0:0:
251,147,21949,2,0,P|263:183|195:257,2,140,2|2|2,0:0|0:0|0:0,0:0:0:0:
261,77,22699,1,2,0:0:0:0:
320,116,22849,6,0,P|336:148|368:168,1,70,0|2,0:0|0:0,0:0:0:0:
426,198,23149,2,0,P|454:234|434:330,2,140,2|0|2,0:0|0:0|0:0,0:0:0:0:
453,132,23899,1,0,0:0:0:0:
408,77,24049,6,0,P|388:49|380:13,1,70
314,55,24349,2,0,P|334:83|342:119,1,70,2|0,0:0|0:0,0:0:0:0:
323,184,24649,1,2,0:0:0:0:
288,245,24799,1,0,0:0:0:0:
227,280,24949,2,0,P|186:290|153:282,1,70,2|2,0:0|0:0,0:0:0:0:
132,220,25249,6,0,L|160:152,3,70,0|2|2|0,0:0|0:0|0:0|0:0,0:0:0:0:
208,105,25849,1,0,0:0:0:0:
275,87,25999,1,2,0:0:0:0:
344,90,26149,2,0,P|384:102|412:126,1,70,2|2,0:0|0:0,0:0:0:0:
410,189,26449,6,0,P|370:177|342:153,1,70,2|0,0:0|0:0,0:0:0:0:
315,97,26749,1,2,0:0:0:0:
323,27,26899,1,2,0:0:0:0:
314,96,27049,2,0,P|306:131|279:164,1,70,2|0,0:0|0:0,0:0:0:0:
216,162,27349,2,0,P|224:127|251:94,1,70,2|0,0:0|0:0,0:0:0:0:
284,42,27649,6,0,P|312:78|272:166,1,140,0|2,0:0|0:0,0:0:0:0:
231,207,28099,1,0,0:0:0:0:
163,225,28249,2,0,P|123:225|95:213,2,70,0|0|2,0:0|0:0|0:0,0:0:0:0:
210,277,28699,1,0,0:0:0:0:
258,327,28849,6,0,P|279:268|219:208,1,140,2|0,0:0|0:0,0:0:0:0:
235,212,29299,1,2,0:0:0:0:
191,158,29449,2,0,P|167:190|167:222,1,70,0|2,0:0|0:0,0:0:0:0:
211,272,29749,2,0,P|235:240|235:208,1,70,2|2,0:0|0:0,0:0:0:0:
208,146,30049,5,0,0:0:0:0:
257,96,30199,1,2,0:0:0:0:
326,103,30349,1,2,0:0:0:0:
363,162,30499,1,0,0:0:0:0:
432,162,30649,2,0,P|420:202|392:226,1,70,0|2,0:0|0:0,0:0:0:0:
330,221,30949,2,0,P|342:181|370:157,1,70,2|0,0:0|0:0,0:0:0:0:
422,127,31249,6,0,L|490:91,2,70,2|0|2,0:0|0:0|0:0,0:0:0:0:
356,101,31699,1,0,0:0:0:0:
305,149,31849,2,0,P|285:181|281:221,2,70,2|0|2,0:0|0:0|0:0,0:0:0:0:
237,129,32299,1,0,0:0:0:0:
175,162,32449,6,0,P|151:194|163:302,1,140,0|2,0:0|0:0,0:0:0:0:
225,285,32899,1,0,0:0:0:0:
251,349,33049,2,0,P|287:341|315:313,2,70,2|0|2,0:0|0:0|0:0,0:0:0:0:
180,348,33499,1,0,0:0:0:0:
114,322,33649,6,0,P|82:260|90:178,1,140,2|2,0:0|0:0,0:0:0:0:
131,138,34099,1,0,0:0:0:0:
163,76,34249,2,0,P|225:44|307:52,1,140,2|2,0:0|0:0,0:0:0:0:
360,26,34699,1,0,0:0:0:0:
380,92,34849,6,0,P|380:132|360:168,1,70,0|2,0:0|0:0,0:0:0:0:
313,203,35149,2,0,L|279:234,2,35,0|0|2,0:0|0:0|0:0,0:0:0:0:
370,163,35449,2,0,P|406:151|458:159,1,70,0|2,0:0|0:0,0:0:0:0:
496,190,35749,1,2,0:0:0:0:
507,258,35899,1,0,0:0:0:0:
465,314,36049,6,0,P|429:290|393:290,1,70,2|0,0:0|0:0,0:0:0:0:
348,332,36349,2,0,P|313:327|286:306,1,70,2|2,0:0|0:0,0:0:0:0:
241,252,36649,2,0,P|221:280|217:314,1,70,2|0,0:0|0:0,0:0:0:0:
161,357,36949,2,0,P|126:353|98:333,1,70,2|0,0:0|0:0,0:0:0:0:
63,272,37249,5,0,0:0:0:0:
80,204,37399,2,0,L|92:136,2,70,2|2|0,0:0|0:0|0:0,0:0:0:0:
63,272,37849,1,0,0:0:0:0:
95,333,37999,2,0,P|111:361|151:381,2,70,2|2|2,0:0|0:0|0:0,0:0:0:0:
113,265,38449,6,0,L|189:253,1,70,2|0,0:0|0:0,0:0:0:0:
252,245,38749,2,0,P|304:241|392:269,2,140,2|0|2,0:0|0:0|0:0,0:0:0:0:
184,227,39499,1,2,0:0:0:0:
232,176,39649,5,2,0:0:0:0:
232,176,39799,2,0,B|232:132|232:132|256:88|256:88|256:40,1,140
326,37,40249,2,0,P|364:55|380:83,3,70,2|0|0|0,0:0|0:0|0:0|0:0,0:0:0:0:
314,106,40849,5,2,0:0:0:0:
315,106,40999,2,0,B|369:152|369:152|436:136,1,140
447,66,41449,2,0,P|479:78|503:106,2,70,2|0|0,0:0|0:0|0:0,0:0:0:0:
381,91,41899,1,0,0:0:0:0:
320,54,42049,6,0,P|308:86|316:122,1,70,2|0,0:0|0:0,0:0:0:0:
338,258,42499,2,0,P|350:226|342:190,1,70,0|2,0:0|0:0,0:0:0:0:
320,53,42949,1,0,0:0:0:0:
348,64,43249,6,0,L|368:136,1,70,2|0,0:0|0:0,0:0:0:0:
296,108,43549,2,0,L|349:160,1,70,0|0,0:0|0:0,0:0:0:0:
276,184,43849,2,0,L|348:202,1,70,2|0,0:0|0:0,0:0:0:0:
343,201,44299,1,0,0:0:0:0:
416,196,44449,6,0,P|400:248|320:268,1,140,2|0,0:0|0:0,0:0:0:0:
323,269,44899,1,2,0:0:0:0:
180,224,45199,2,0,L|112:204,2,70,0|2|0,0:0|0:0|0:0,0:0:0:0:
252,240,45649,5,2,0:0:0:0:
252,240,45799,2,0,P|256:188|344:120,2,140,2|0|0,0:0|0:0|0:0,0:0:0:0:
270,307,46549,1,2,0:0:0:0:
400,240,46849,6,0,P|408:192|376:108,2,140,2|0|2,0:0|0:0|0:0,0:0:0:0:
375,305,47599,1,2,0:0:0:0:
307,323,47749,1,2,0:0:0:0:
239,305,47899,1,0,0:0:0:0:
211,240,48049,6,0,P|205:171|234:108,2,140,2|0|2,0:0|0:0|0:0,0:0:0:0:
289,356,48949,1,0,0:0:0:0:
355,334,49099,1,0,0:0:0:0:
400,280,49249,6,0,L|439:132,1,140,8|8,0:0|0:0,0:0:0:0:
393,89,49699,2,0,P|365:125|365:161,2,70,8|0|0,0:0|0:0|0:0,0:0:0:0:
435,144,50149,2,0,P|423:184|395:208,1,70,8|0,0:0|0:0,0:0:0:0:
328,204,50449,6,0,L|196:145,1,140,0|8,0:0|0:0,0:0:0:0:
162,205,50899,2,0,P|205:218|239:206,2,70,8|0|0,0:0|0:0|0:0,0:0:0:0:
200,146,51349,2,0,P|241:143|273:161,1,70,8|0,0:0|0:0,0:0:0:0:
260,224,51649,6,0,P|296:220|324:196,1,70
385,170,51949,2,0,L|353:238,1,70,8|0,0:0|0:0,0:0:0:0:
334,300,52249,2,0,P|378:300|410:276,1,70
410,218,52549,2,0,P|450:238|466:262,1,70,8|0,0:0|0:0,0:0:0:0:
406,216,52849,6,0,P|366:252|278:252,1,140,0|8,0:0|0:0,0:0:0:0:
234,204,53299,1,0,0:0:0:0:
233,204,53449,2,0,P|221:170|219:134,3,70,0|0|8|0,0:0|0:0|0:0|0:0,0:0:0:0:
188,72,54049,6,0,P|156:100|168:188,1,140,0|8,0:0|0:0,0:0:0:0:
237,204,54499,1,8,0:0:0:0:
295,242,54649,2,0,L|378:261,1,70
396,195,54949,2,0,L|313:176,1,70,8|0,0:0|0:0,0:0:0:0:
278,129,55249,5,0,0:0:0:0:
299,62,55399,1,0,0:0:0:0:
359,26,55549,2,0,P|392:17|426:23,1,70,8|8,0:0|0:0,0:0:0:0:
463,83,55849,2,0,P|429:91|395:85,1,70,8|8,0:0|0:0,0:0:0:0:
396,88,56299,1,8,0:0:0:0:
396,88,56449,6,0,L|344:148,1,70
284,112,56749,2,0,P|276:148|346:214,2,140,8|0|8,0:0|0:0|0:0,0:0:0:0:
221,78,57499,1,0,0:0:0:0:
159,111,57649,6,0,P|187:143|231:151,1,70
276,121,57949,2,0,P|248:89|204:81,1,70,8|0,0:0|0:0,0:0:0:0:
155,58,58249,1,0,0:0:0:0:
86,70,58399,1,0,0:0:0:0:
35,118,58549,2,0,P|27:154|31:190,1,70,8|0,0:0|0:0,0:0:0:0:
51,251,58849,6,0,L|75:299,1,48.9999985046387,6|2,0:0|0:0,0:0:0:0:
136,268,59149,2,0,L|112:220,1,48.9999985046387,2|0,0:0|0:0,0:0:0:0:
87,161,59449,2,0,B|79:137|79:137|79:113,1,48.9999985046387,2|0,0:0|0:0,0:0:0:0:
138,78,59749,2,0,B|146:102|146:102|146:126,1,48.9999985046387,2|2,0:0|0:0,0:0:0:0:
158,193,60049,5,2,0:0:0:0:
199,247,60199,1,0,0:0:0:0:
257,282,60349,1,2,0:0:0:0:
324,293,60499,1,2,0:0:0:0:
392,291,60649,2,0,B|418:287|418:287|448:277,1,48.9999985046387,2|0,0:0|0:0,0:0:0:0:
440,210,60949,2,0,B|413:213|413:213|383:223,1,48.9999985046387,2|0,0:0|0:0,0:0:0:0:
327,242,61249,6,0,P|288:269|263:322,1,97.9999970092774,2|2,0:0|0:0,0:0:0:0:
330,331,61699,1,0,0:0:0:0:
396,345,61849,2,0,L|456:357,2,48.9999985046387,2|0|2,0:0|0:0|0:0,0:0:0:0:
328,331,62299,1,0,0:0:0:0:
264,304,62449,6,0,P|248:288|236:260,1,48.9999985046387,2|0,0:0|0:0,0:0:0:0:
278,208,62749,2,0,P|294:224|306:252,1,48.9999985046387,2|0,0:0|0:0,0:0:0:0:
350,298,63049,1,2,0:0:0:0:
418,288,63199,1,0,0:0:0:0:
470,243,63349,1,2,0:0:0:0:
464,174,63499,1,0,0:0:0:0:
469,242,63649,6,0,P|477:290|449:334,1,97.9999970092774,6|2,0:0|0:0,0:0:0:0:
454,331,64249,2,0,L|407:303,1,48.9999985046387,2|0,0:0|0:0,0:0:0:0:
416,237,64549,2,0,L|463:265,1,48.9999985046387,2|0,0:0|0:0,0:0:0:0:
440,328,64849,6,0,P|398:346|338:342,1,97.9999970092774,2|2,0:0|0:0,0:0:0:0:
290,303,65299,1,0,0:0:0:0:
263,239,65449,2,0,L|249:186,1,48.9999985046387,2|0,0:0|0:0,0:0:0:0:
181,184,65749,2,0,L|195:237,1,48.9999985046387,2|0,0:0|0:0,0:0:0:0:
223,293,66049,5,2,0:0:0:0:
193,355,66199,1,2,0:0:0:0:
126,371,66349,2,0,L|78:347,1,48.9999985046387,2|0,0:0|0:0,0:0:0:0:
40,294,66649,1,0,0:0:0:0:
69,232,66799,1,2,0:0:0:0:
42,168,66949,2,0,P|50:149|55:113,1,48.9999985046387,2|0,0:0|0:0,0:0:0:0:
103,72,67249,6,0,P|122:60|156:58,2,48.9999985046387,2|0|2,0:0|0:0|0:0,0:0:0:0:
78,136,67699,1,0,0:0:0:0:
146,128,67849,2,0,P|178:124|198:128,1,48.9999985046387,2|0,0:0|0:0,0:0:0:0:
245,177,68149,2,0,P|269:181|305:181,1,48.9999985046387,2|0,0:0|0:0,0:0:0:0:
363,173,68449,6,0,P|346:136|287:113,2,105,6|0|2,0:0|0:0|0:0,0:0:0:0:
381,269,69649,2,0,B|397:321|397:321|441:353,2,105,2|0|2,0:0|0:0|0:0,0:0:0:0:
297,218,70849,6,0,P|269:238|193:238,2,105,2|0|2,0:0|0:0|0:0,0:0:0:0:
366,148,72049,2,0,P|394:128|470:128,2,105,2|0|2,0:0|0:0|0:0,0:0:0:0:
328,180,73099,1,0,0:0:0:0:
292,212,73249,6,0,P|264:232|188:232,2,105,2|0|2,0:0|0:0|0:0,0:0:0:0:
264,116,74449,2,0,P|292:96|368:96,2,105,2|0|2,0:0|0:0|0:0,0:0:0:0:
204,192,75649,6,0,P|172:156|168:92,1,105,2|0,0:0|0:0,0:0:0:0:
80,148,76399,2,0,L|96:196,1,35,0|2,0:0|0:0,0:0:0:0:
130,268,76849,2,0,B|202:344|270:292|274:248|322:228|386:264,1,280,0|4,0:0|0:0,0:0:0:0:
256,192,78349,12,4,82849,0:0:0:0:
72,116,87649,5,0,0:0:0:0:
72,116,87799,2,0,P|116:120|188:200,1,157.500006008148,8|0,0:0|0:0,0:0:0:0:
440,268,88849,5,0,0:0:0:0:
440,268,88999,2,0,P|396:264|324:184,1,157.500006008148,8|0,0:0|0:0,0:0:0:0:
323,183,89749,2,0,L|284:148,1,52.5000020027161,8|0,0:0|0:0,0:0:0:0:
216,138,90049,6,0,P|209:162|220:200,1,52.5000020027161
255,242,90349,2,0,P|279:249|317:238,1,52.5000020027161,8|0,0:0|0:0,0:0:0:0:
347,190,90649,2,0,P|354:166|343:128,2,52.5000020027161,0|0|8,0:0|0:0|0:0,0:0:0:0:
386,245,91099,1,0,0:0:0:0:
429,192,91249,6,0,P|432:146|409:88,1,105.000004005432,0|8,0:0|0:0,0:0:0:0:
274,92,91849,2,0,P|254:140|256:192,1,105.000004005432,0|8,0:0|0:0,0:0:0:0:
250,260,92299,1,0,0:0:0:0:
313,230,92449,6,0,L|393:230,1,70
411,294,92749,2,0,P|443:266|423:174,2,140,8|0|8,0:0|0:0|0:0,0:0:0:0:
344,317,93499,1,0,0:0:0:0:
323,250,93649,6,0,P|289:271|274:306,1,70
293,364,93949,2,0,P|249:361|207:284,2,140,8|0|8,0:0|0:0|0:0,0:0:0:0:
295,294,94699,1,0,0:0:0:0:
359,267,94849,6,0,P|351:231|323:203,1,70
331,136,95149,2,0,P|295:144|267:172,1,70,8|0,0:0|0:0,0:0:0:0:
200,164,95449,2,0,P|208:200|236:228,1,70
228,295,95749,2,0,P|264:287|292:259,1,70,8|0,0:0|0:0,0:0:0:0:
338,217,96049,6,0,P|370:237|474:225,2,140,0|8|0,0:0|0:0|0:0,0:0:0:0:
284,87,96949,1,8,0:0:0:0:
255,150,97099,1,0,0:0:0:0:
266,219,97249,6,0,B|290:271|290:271|333:269|358:311,1,140,2|8,0:0|0:0,0:0:0:0:
294,340,97699,1,0,0:0:0:0:
178,260,97999,2,0,P|157:231|153:197,2,70,0|8|0,0:0|0:0|0:0,0:0:0:0:
191,191,98449,6,0,P|227:211|231:311,1,140,2|8,0:0|0:0,0:0:0:0:
301,272,98899,2,0,P|296:339|347:382,1,140
362,313,99349,1,8,0:0:0:0:
428,333,99499,1,0,0:0:0:0:
457,269,99649,6,0,B|445:237|393:201|393:201|345:193,1,140,2|8,0:0|0:0,0:0:0:0:
333,261,100099,2,0,B|288:253|288:253|236:217|224:185,1,140
165,147,100549,2,0,P|153:175|161:215,1,70,8|0,0:0|0:0,0:0:0:0:
143,280,100849,6,0,P|150:313|137:345,2,70,2|0|8,0:0|0:0|0:0,0:0:0:0:
115,215,101299,2,0,B|175:191|199:255|259:219,2,140,2|2|2,0:0|0:0|0:0,0:0:0:0:
51,183,102049,6,0,B|39:251|39:251|83:327,1,140,0|8,0:0|0:0,0:0:0:0:
212,338,102649,2,0,B|224:270|224:270|180:194,1,140,0|8,0:0|0:0,0:0:0:0:
183,68,103249,6,0,B|163:140|163:140|187:204,1,140,0|8,0:0|0:0,0:0:0:0:
309,268,103849,2,0,B|329:196|329:196|305:132,1,140,0|8,0:0|0:0,0:0:0:0:
359,90,104299,1,0,0:0:0:0:
394,150,104449,6,0,P|413:178|450:198,2,70,2|0|8,0:0|0:0|0:0,0:0:0:0:
357,90,104899,1,0,0:0:0:0:
220,59,105199,2,0,P|189:33|154:24,2,70,0|8|0,0:0|0:0|0:0,0:0:0:0:
178,115,105649,6,0,P|166:171|198:259,1,140,2|8,0:0|0:0,0:0:0:0:
248,209,106099,2,0,P|271:274|259:342,1,140
326,325,106549,2,0,P|358:313|394:313,1,70,8|0,0:0|0:0,0:0:0:0:
443,263,106849,6,0,B|455:228|455:228|455:194,1,70
506,147,107149,2,0,B|489:113|489:113|465:89,1,70,8|0,0:0|0:0,0:0:0:0:
400,114,107449,2,0,P|335:137|268:110,1,140,0|8,0:0|0:0,0:0:0:0:
208,80,107899,1,0,0:0:0:0:
157,127,108049,6,0,P|111:178|43:188,3,140,0|8|0|8,0:0|0:0|0:0|0:0,0:0:0:0:
12,125,109099,1,0,0:0:0:0:
61,75,109249,6,0,P|97:61|128:61,1,70
174,114,109549,2,0,P|208:113|240:99,1,70,8|0,0:0|0:0,0:0:0:0:
303,67,109849,1,0,0:0:0:0:
370,47,109999,2,0,P|408:42|439:48,2,70,0|8|0,0:0|0:0|0:0,0:0:0:0:
313,89,110449,6,0,P|302:136|222:187,1,140,0|8,0:0|0:0,0:0:0:0:
202,323,111049,2,0,P|213:276|293:225,1,140,0|8,0:0|0:0,0:0:0:0:
352,246,111499,1,8,0:0:0:0:
406,290,111649,6,0,P|419:328|419:359,2,70,0|0|8,0:0|0:0|0:0,0:0:0:0:
345,253,112099,1,0,0:0:0:0:
277,271,112249,2,0,P|240:268|211:250,1,70
262,201,112549,2,0,P|231:183|197:181,1,70,8|0,0:0|0:0,0:0:0:0:
137,219,112849,6,0,P|110:247|76:256,2,70,0|0|8,0:0|0:0|0:0,0:0:0:0:
73,183,113299,1,0,0:0:0:0:
92,115,113449,2,0,P|114:88|147:74,1,70
208,105,113749,2,0,P|239:91|261:64,1,70,8|0,0:0|0:0,0:0:0:0:
328,42,114049,5,0,0:0:0:0:
395,22,114199,1,0,0:0:0:0:
436,78,114349,1,8,0:0:0:0:
369,99,114499,2,0,P|346:143|367:248,1,140
423,246,114949,2,0,P|406:278|375:296,1,70,8|0,0:0|0:0,0:0:0:0:
315,327,115249,5,0,0:0:0:0:
285,263,115399,2,0,P|275:229|282:195,1,70
286,126,115699,2,0,P|254:70|170:78,2,140,2|2|2,0:0|0:0|0:0,0:0:0:0:
215,131,116449,5,0,0:0:0:0:
138,118,116599,2,0,L|58:102,2,77.0000023498536,8|8|8,0:0|0:0|0:0,0:0:0:0:
175,185,117049,2,0,L|255:201,3,77.0000023498536,0|8|8|0,0:0|0:0|0:0|0:0,0:0:0:0:
259,277,117649,6,0,P|295:265|323:225,1,77.0000023498536
314,158,117949,2,0,P|350:94|426:78,2,154.000004699707,8|8|8,0:0|0:0|0:0,0:0:0:0:
368,212,118699,1,8,0:0:0:0:
358,288,118849,6,0,P|322:272|302:236,1,77.0000023498536,0|8,0:0|0:0,0:0:0:0:
318,164,119149,2,0,P|294:194|259:206,1,77.0000023498536,8|8,0:0|0:0,0:0:0:0:
189,171,119449,2,0,P|218:140|251:131,2,77.0000023498536,0|8|8,0:0|0:0|0:0,0:0:0:0:
195,248,119899,1,0,0:0:0:0:
229,316,120049,6,0,P|156:315|116:249,1,154.000004699707,0|8,0:0|0:0,0:0:0:0:
144,180,120499,1,8,0:0:0:0:
113,109,120649,2,0,P|151:46|225:45,1,154.000004699707,0|8,0:0|0:0,0:0:0:0:
301,30,121099,1,8,0:0:0:0:
341,95,121249,6,0,P|347:132|373:160,1,77.0000023498536,0|8,0:0|0:0,0:0:0:0:
450,161,121549,2,0,P|441:198|411:225,1,77.0000023498536,8|0,0:0|0:0,0:0:0:0:
405,300,121849,2,0,P|369:286|327:289,1,77.0000023498536,0|8,0:0|0:0,0:0:0:0:
277,231,122149,2,0,P|241:247|196:245,1,77.0000023498536,8|0,0:0|0:0,0:0:0:0:
184,321,122449,5,8,0:0:0:0:
131,264,122599,1,0,0:0:0:0:
152,190,122749,2,0,P|175:154|276:154,2,154.000004699707,8|8|8,0:0|0:0|0:0,0:0:0:0:
226,211,123499,1,0,0:0:0:0:
300,229,123649,6,0,P|341:241|380:237,1,77.0000023498536,0|8,0:0|0:0,0:0:0:0:
441,199,123949,2,0,P|410:228|394:264,1,77.0000023498536,8|0,0:0|0:0,0:0:0:0:
400,336,124249,2,0,P|389:294|366:262,1,77.0000023498536,0|8,0:0|0:0,0:0:0:0:
296,242,124549,1,8,0:0:0:0:
221,221,124699,1,0,0:0:0:0:
170,163,124849,6,0,B|160:121|160:121|168:79,1,77.0000023498536
218,31,125149,2,0,B|260:21|260:21|302:29,1,77.0000023498536,8|0,0:0|0:0,0:0:0:0:
370,36,125449,1,0,0:0:0:0:
381,112,125599,1,2,0:0:0:0:
314,154,125749,2,0,P|277:162|238:154,1,77.0000023498536,2|0,0:0|0:0,0:0:0:0:
176,108,126049,6,0,P|144:132|104:140,1,77.0000023498536,0|10,0:0|0:0,0:0:0:0:
52,192,126349,1,10,0:0:0:0:
52,192,126499,1,0,0:0:0:0:
108,243,126649,2,0,P|145:252|176:276,1,77.0000023498536,0|10,0:0|0:0,0:0:0:0:
140,344,126949,2,0,P|170:367|207:376,1,77.0000023498536,10|0,0:0|0:0,0:0:0:0:
284,364,127249,6,0,P|328:336|328:228,1,154.000004699707,10|10,0:0|0:0,0:0:0:0:
324,164,127699,1,10,0:0:0:0:
393,196,127849,2,0,P|365:228|325:240,1,77.0000023498536,10|0,0:0|0:0,0:0:0:0:
263,272,128149,2,0,P|291:304|331:316,1,77.0000023498536,10|0,0:0|0:0,0:0:0:0:
400,312,128449,6,0,L|486:305,1,77.0000023498536,0|10,0:0|0:0,0:0:0:0:
493,230,128749,2,0,L|407:237,1,77.0000023498536,10|0,0:0|0:0,0:0:0:0:
362,292,129049,1,0,0:0:0:0:
303,341,129199,1,10,0:0:0:0:
244,290,129349,1,10,0:0:0:0:
303,241,129499,1,0,0:0:0:0:
346,177,129649,6,0,P|343:137|325:100,1,77.0000023498536,0|10,0:0|0:0,0:0:0:0:
265,57,129949,2,0,P|190:44|129:87,2,154.000004699707,10|0|10,0:0|0:0|0:0,0:0:0:0:
341,47,130699,1,10,0:0:0:0:
414,69,130849,6,0,P|392:103|350:121,1,77.0000023498536,0|10,0:0|0:0,0:0:0:0:
409,178,131149,2,0,P|372:193|326:187,1,77.0000023498536,10|0,0:0|0:0,0:0:0:0:
344,267,131449,2,0,P|304:262|268:230,1,77.0000023498536,0|10,0:0|0:0,0:0:0:0:
243,310,131749,2,0,P|211:286|198:245,1,77.0000023498536,10|0,0:0|0:0,0:0:0:0:
225,180,132049,5,10,0:0:0:0:
244,105,132199,1,0,0:0:0:0:
300,157,132349,2,0,P|337:173|376:172,1,77.0000023498536,10|10,0:0|0:0,0:0:0:0:
448,191,132649,2,0,P|428:227|396:243,2,77.0000023498536,10|0|10,0:0|0:0|0:0,0:0:0:0:
469,117,133099,1,0,0:0:0:0:
403,76,133249,6,0,B|365:87|365:87|337:113,1,77.0000023498536,0|10,0:0|0:0,0:0:0:0:
284,168,133549,1,10,0:0:0:0:
278,244,133699,1,0,0:0:0:0:
230,304,133849,2,0,B|197:327|197:327|160:333,1,77.0000023498536,0|10,0:0|0:0,0:0:0:0:
84,341,134148,1,10,0:0:0:0:
21,299,134298,1,0,0:0:0:0:
19,221,134449,6,0,P|36:184|75:160,1,77.0000023498536,10|0,0:0|0:0,0:0:0:0:
97,234,134749,1,2,0:0:0:0:
159,278,134899,2,0,P|167:206|105:160,1,154.000004699707,2|0,0:0|0:0,0:0:0:0:
23,105,135349,1,8,0:0:0:0:
113,56,135499,1,8,0:0:0:0:
110,158,135649,5,4,0:0:0:0:
