osu file format v14

[General]
AudioFilename: Blackhole - DioSynth.mp3
AudioLeadIn: 0
PreviewTime: 116339
Countdown: 0
SampleSet: Normal
StackLeniency: 0.7
Mode: 0
LetterboxInBreaks: 1
WidescreenStoryboard: 0

[Editor]
Bookmarks: 10768,20368,29968,39568,49168,58768,68368,77968,87568,97168,106768,116368,125968,135568
DistanceSpacing: 1.2
BeatDivisor: 4
GridSize: 4
TimelineZoom: 1.6

[Metadata]
Title:DioSynth
TitleUnicode:DioSynth
Artist:Blackhole
ArtistUnicode:Blackhole
Creator:[ UniCiTy ]
Version:Extra
Source:Newgrounds
Tags:audio portal erik mcclure
BeatmapID:322037
BeatmapSetID:126784

[Difficulty]
HPDrainRate:8
CircleSize:4
OverallDifficulty:8.5
ApproachRate:9
SliderMultiplier:1.9
SliderTickRate:2

[Events]
//Background and Video events
0,0,"34133-1920x1080.jpg",0,0
//Break Periods
//Storyboard Layer 0 (Background)
//Storyboard Layer 1 (Fail)
//Storyboard Layer 2 (Pass)
//Storyboard Layer 3 (Foreground)
//Storyboard Sound Samples

[TimingPoints]
1249,300,4,1,0,100,1,0
6049,-100,4,1,2,25,0,0
10849,-100,4,1,0,35,0,0
20449,-100,4,1,1,40,0,1
39649,-100,4,1,2,35,0,0
49249,-100,4,1,1,50,0,0
58849,-142.857142857143,4,2,0,45,0,0
68449,-200,4,2,0,35,0,0
78349,-200,4,2,0,15,0,0
80449,-200,4,2,0,7,0,0
87649,-100,4,1,1,25,0,0
92449,-100,4,1,1,35,0,0
97249,-100,4,1,0,40,0,1
97399,-100,4,1,0,40,0,0
106849,-100,4,1,1,45,0,0
116449,-90.9090909090909,4,1,1,55,0,1
135649,-90.9090909090909,4,2,0,75,0,0

[Colours]
Combo1 : 68,255,162
Combo2 : 0,6,251
Combo3 : 104,216,253
Combo4 : 29,0,145
Combo5 : 97,250,226

[HitObjects]
128,88,6049,5,0,0:0:0:0:
256,192,6199,1,2,0:0:0:0:
272,200,6649,1,0,0:0:0:0:
384,296,7249,5,0,0:0:0:0:
256,192,7399,1,2,0:0:0:0:
240,184,7849,1,0,0:0:0:0:
240,184,8149,1,0,0:0:0:0:
160,48,8299,1,2,0:0:0:0:
64,176,8449,5,0,0:0:0:0:
256,96,8599,1,2,0:0:0:0:
456,148,8749,2,0,P|480:200|472:240,1,95,0|0,0:0|0:0,0:0:0:0:
384,372,9049,2,0,P|360:320|368:280,1,95,0|2,0:0|0:0,0:0:0:0:
284,104,9349,2,0,P|312:148|300:196,1,95,0|0,0:0|0:0,0:0:0:0:
228,284,9649,5,0,0:0:0:0:
164,164,9799,1,2,0:0:0:0:
284,100,9949,1,0,0:0:0:0:
348,220,10099,1,0,0:0:0:0:
185,257,10249,1,0,0:0:0:0:
190,121,10399,1,2,0:0:0:0:
296,28,10549,1,0,0:0:0:0:
328,28,10624,1,0,0:0:0:0:
360,36,10699,1,0,0:0:0:0:
388,56,10774,1,0,0:0:0:0:
408,80,10849,6,0,P|432:124|432:172,1,95,0|0,0:0|0:0,0:0:0:0:
376,268,11149,1,8,0:0:0:0:
268,232,11299,2,0,P|244:188|244:140,1,95,0|0,0:0|0:0,0:0:0:0:
288,36,11599,2,0,P|312:80|312:128,1,95,0|8,0:0|0:0,0:0:0:0:
268,232,11899,1,0,0:0:0:0:
188,128,12049,6,0,P|148:96|100:96,1,95,0|0,0:0|0:0,0:0:0:0:
164,244,12349,2,0,P|169:294|203:328,1,95,8|0,0:0|0:0,0:0:0:0:
313,325,12649,2,0,P|344:290|348:244,1,95,0|0,0:0|0:0,0:0:0:0:
406,94,12949,2,0,P|359:97|324:128,1,95,8|0,0:0|0:0,0:0:0:0:
256,220,13249,5,0,0:0:0:0:
176,296,13399,2,0,P|140:328|96:336,2,95,0|8|0,0:0|0:0|0:0,0:0:0:0:
336,296,13849,2,0,P|372:328|416:336,1,95,0|0,0:0|0:0,0:0:0:0:
360,192,14149,2,0,P|324:160|280:152,1,95,8|0,0:0|0:0,0:0:0:0:
148,216,14449,5,0,0:0:0:0:
52,144,14599,1,0,0:0:0:0:
148,216,14749,1,8,0:0:0:0:
120,84,14899,1,0,0:0:0:0:
252,120,15049,2,0,B|300:116|300:116|348:124,1,95,0|0,0:0|0:0,0:0:0:0:
456,168,15349,1,8,0:0:0:0:
456,168,15424,1,0,0:0:0:0:
456,168,15499,1,0,0:0:0:0:
352,108,15649,6,0,B|316:76|316:76|268:68,1,95,0|0,0:0|0:0,0:0:0:0:
152,92,15949,2,0,B|188:124|188:124|236:132,1,95,8|0,0:0|0:0,0:0:0:0:
320,208,16249,2,0,P|332:252|372:284,2,95,0|0|8,0:0|0:0|0:0,0:0:0:0:
332,92,16699,1,0,0:0:0:0:
220,64,16849,6,0,L|204:160,1,95,0|0,0:0|0:0,0:0:0:0:
272,252,17149,2,0,L|287:158,1,95,8|0,0:0|0:0,0:0:0:0:
220,64,17449,1,0,0:0:0:0:
112,100,17599,1,0,0:0:0:0:
60,204,17749,1,8,0:0:0:0:
168,168,17899,1,0,0:0:0:0:
280,140,18049,6,0,P|328:132|384:148,2,95,0|0|8,0:0|0:0|0:0,0:0:0:0:
232,244,18499,2,0,P|184:252|128:236,2,95,0|0|0,0:0|0:0|0:0,0:0:0:0:
256,120,18949,1,8,0:0:0:0:
256,264,19099,1,0,0:0:0:0:
372,200,19249,6,0,B|416:180|416:180|452:144,1,95,0|0,0:0|0:0,0:0:0:0:
312,112,19549,2,0,B|328:66|328:66|328:15,1,95,8|0,0:0|0:0,0:0:0:0:
208,96,19849,2,0,B|195:49|195:49|166:7,1,95,0|0,0:0|0:0,0:0:0:0:
92,132,20149,2,0,B|58:97|58:97|12:75,1,95,8|0,0:0|0:0,0:0:0:0:
96,220,20449,5,0,0:0:0:0:
252,220,20599,1,2,0:0:0:0:
111,182,20749,1,10,0:0:0:0:
240,256,20899,1,0,0:0:0:0:
125,146,21049,1,0,0:0:0:0:
228,288,21199,1,2,0:0:0:0:
140,108,21349,1,10,0:0:0:0:
213,326,21499,1,0,0:0:0:0:
296,152,21649,6,0,P|336:120|384:116,1,95,2|0,0:0|0:0,0:0:0:0:
216,232,21949,2,0,P|176:264|128:268,1,95,8|2,0:0|0:0,0:0:0:0:
204,56,22249,1,0,0:0:0:0:
280,156,22399,1,2,0:0:0:0:
196,248,22549,1,10,0:0:0:0:
272,348,22699,1,0,0:0:0:0:
368,268,22849,6,0,P|400:224|404:184,1,95,0|2,0:0|0:0,0:0:0:0:
360,44,23149,2,0,P|328:88|324:128,1,95,10|0,0:0|0:0,0:0:0:0:
308,320,23449,2,0,P|340:276|344:236,1,95,0|2,0:0|0:0,0:0:0:0:
304,12,23749,2,0,P|272:56|268:96,1,95,10|0,0:0|0:0,0:0:0:0:
318,212,24049,5,0,0:0:0:0:
446,251,24199,1,2,0:0:0:0:
366,143,24349,1,2,0:0:0:0:
368,277,24499,1,2,0:0:0:0:
445,168,24649,1,2,0:0:0:0:
424,314,24799,1,0,0:0:0:0:
426,109,24949,1,10,0:0:0:0:
264,207,25099,1,0,0:0:0:0:
180,128,25249,6,0,P|164:76|124:48,2,95,0|2|10,0:0|0:0|0:0,0:0:0:0:
72,192,25699,1,0,0:0:0:0:
180,256,25849,2,0,P|164:308|124:336,2,95,0|2|10,0:0|0:1|0:0,0:0:0:0:
72,192,26299,1,0,0:0:0:0:
200,164,26449,6,0,B|296:140,1,95,2|0,0:0|0:0,0:0:0:0:
352,240,26749,2,0,P|309:259|262:254,1,95,10|0,0:0|0:0,0:0:0:0:
228,48,27049,2,0,P|270:28|317:33,1,95,2|0,0:0|0:0,0:0:0:0:
452,112,27349,2,0,L|348:128,1,95,10|0,0:0|0:0,0:0:0:0:
244,184,27649,5,0,0:0:0:0:
132,152,27799,2,0,P|84:168|60:208,1,95,2|10,0:0|0:0,0:0:0:0:
92,316,28099,1,0,0:0:0:0:
268,200,28249,1,0,0:0:0:0:
380,232,28399,2,0,P|428:216|452:176,1,95,2|10,0:0|0:0,0:0:0:0:
424,64,28699,1,0,0:0:0:0:
316,20,28849,6,0,L|292:116,1,95,2|0,0:0|0:0,0:0:0:0:
196,364,29149,2,0,L|220:268,1,95,10|0,0:0|0:0,0:0:0:0:
232,84,29449,1,2,0:0:0:0:
296,272,29599,1,0,0:0:0:0:
416,296,29749,1,10,0:0:0:0:
240,264,29899,1,2,0:0:0:0:
136,216,30049,6,0,P|96:184|80:136,1,95,0|2,0:0|0:0,0:0:0:0:
272,164,30349,2,0,P|312:196|328:244,1,95,10|0,0:0|0:0,0:0:0:0:
184,235,30649,2,0,P|202:192|240:164,1,95,0|2,0:0|0:0,0:0:0:0:
431,144,30949,2,0,P|413:187|376:216,1,95,10|0,0:0|0:0,0:0:0:0:
266,244,31249,5,2,0:0:0:0:
196,81,31399,1,0,0:0:0:0:
164,191,31549,1,2,0:0:0:0:
297,133,31699,1,10,0:0:0:0:
84,136,31849,2,0,P|64:180|80:232,1,95,0|0,0:0|0:0,0:0:0:0:
128,352,32149,2,0,P|148:308|132:256,1,95,10|0,0:0|0:0,0:0:0:0:
120,148,32449,5,0,0:0:0:0:
140,36,32599,1,2,0:0:0:0:
120,148,32749,1,10,0:0:0:0:
192,52,32899,1,2,0:0:0:0:
120,148,33049,1,0,0:0:0:0:
232,92,33199,1,2,0:0:0:0:
120,148,33349,1,10,0:0:0:0:
251,145,33499,1,2,0:0:0:0:
264,260,33649,6,0,B|288:308|288:308|328:340,1,95,2|0,0:0|0:0,0:0:0:0:
436,328,33949,2,0,B|484:304|484:304|516:264,1,95,10|0,0:0|0:0,0:0:0:0:
500,156,34249,2,0,B|476:108|476:108|436:76,1,95,2|0,0:0|0:0,0:0:0:0:
328,88,34549,2,0,B|280:112|280:112|248:152,1,95,10|0,0:0|0:0,0:0:0:0:
240,176,34774,1,0,0:0:0:0:
228,208,34849,6,0,L|189:315,1,95,0|2,0:0|0:0,0:0:0:0:
300,352,35149,2,0,L|332:262,1,95,10|0,0:0|0:0,0:0:0:0:
368,120,35449,2,0,P|356:76|320:44,1,95,2|0,0:0|0:0,0:0:0:0:
191,44,35749,2,0,P|156:74|144:120,1,95,2|0,0:0|0:0,0:0:0:0:
188,216,36049,6,0,P|212:256|204:308,1,95,2|0,0:0|0:0,0:0:0:0:
312,348,36349,2,0,P|352:324|404:332,1,95,10|0,0:0|0:0,0:0:0:0:
448,224,36649,2,0,P|424:184|432:132,1,95,2|0,0:0|0:0,0:0:0:0:
324,92,36949,2,0,P|284:116|232:108,1,95,10|0,0:0|0:0,0:0:0:0:
132,164,37249,5,0,0:0:0:0:
248,192,37399,2,0,L|348:216,2,95,2|10|2,0:0|0:0|0:0,0:0:0:0:
132,164,37849,1,0,0:0:0:0:
332,120,37999,2,0,L|432:96,2,95,2|10|2,0:0|0:0|0:0,0:0:0:0:
196,152,38449,6,0,P|152:188|140:232,1,95,2|0,0:0|0:0,0:0:0:0:
168,380,38749,2,0,L|192:272,1,95,10|0,0:0|0:0,0:0:0:0:
323,287,39049,2,0,L|344:380,1,95,2|2,0:0|0:0,0:0:0:0:
371,222,39349,2,0,P|353:178|315:151,1,95,10|2,0:0|0:0,0:0:0:0:
256,56,39649,5,2,0:0:0:0:
188,128,39799,1,2,0:0:0:0:
256,328,40099,1,0,0:0:0:0:
324,256,40249,1,2,0:0:0:0:
256,56,40549,1,2,0:0:0:0:
56,116,40849,6,0,P|36:160|44:208,1,95,0|0,0:0|0:0,0:0:0:0:
112,308,41149,1,0,0:0:0:0:
228,348,41299,2,0,P|248:304|240:256,1,95,0|0,0:0|0:0,0:0:0:0:
172,88,41599,2,0,P|152:132|160:180,1,95,0|2,0:0|0:0,0:0:0:0:
280,204,41899,1,0,0:0:0:0:
404,220,42049,6,0,B|424:176|424:176|424:124,1,95,2|0,0:0|0:0,0:0:0:0:
500,32,42349,2,0,B|451:36|451:36|406:62,1,95,0|0,0:0|0:0,0:0:0:0:
288,40,42649,2,0,B|316:79|316:79|361:105,1,95,2|0,0:0|0:0,0:0:0:0:
448,184,42949,1,2,0:0:0:0:
356,280,43099,1,0,0:0:0:0:
236,260,43249,6,0,P|196:232|184:184,1,95,2|0,0:0|0:0,0:0:0:0:
160,12,43549,2,0,P|200:40|212:88,1,95,2|0,0:0|0:0,0:0:0:0:
184,192,43849,1,2,0:0:0:0:
328,64,43999,1,2,0:0:0:0:
328,64,44299,1,0,0:0:0:0:
328,64,44374,1,0,0:0:0:0:
328,64,44449,6,0,L|236:100,1,95,2|0,0:0|0:0,0:0:0:0:
128,72,44749,2,0,B|100:148|168:188|168:188|180:240,1,190,2|2,0:0|0:0,0:0:0:0:
264,164,45199,2,0,P|300:132|344:124,2,95,0|2|0,0:0|0:0|0:0,0:0:0:0:
192,248,45649,5,0,0:0:0:0:
356,128,45799,1,2,0:0:0:0:
356,128,46099,1,2,0:0:0:0:
372,276,46399,2,0,P|396:320|440:336,2,95,0|2|0,0:0|0:0|0:0,0:0:0:0:
352,152,46849,6,0,P|320:104|196:84,1,190,2|2,0:0|0:0,0:0:0:0:
0,200,47449,2,0,P|36:240|84:252,1,95,2|2,0:0|0:0,0:0:0:0:
72,252,47899,1,0,0:0:0:0:
172,220,48049,6,0,P|216:212|268:224,1,95,2|0,0:0|0:0,0:0:0:0:
312,318,48349,2,0,P|266:326|220:316,1,95,2|0,0:0|0:0,0:0:0:0:
136,240,48649,1,2,0:0:0:0:
211,155,48799,1,0,0:0:0:0:
262,258,48949,1,2,0:0:0:0:
338,174,49099,1,0,0:0:0:0:
252,104,49249,5,12,0:0:0:0:
84,120,49399,1,0,0:0:0:0:
252,124,49549,1,8,0:0:0:0:
104,144,49699,1,0,0:0:0:0:
252,144,49849,1,0,0:0:0:0:
124,168,49999,1,0,0:0:0:0:
252,168,50149,1,8,0:0:0:0:
140,188,50299,1,0,0:0:0:0:
84,288,50449,6,0,P|120:324|172:332,1,95,0|0,0:0|0:0,0:0:0:0:
236,316,50749,2,0,P|272:280|280:228,1,95,8|0,0:0|0:0,0:0:0:0:
281,238,51049,1,8,0:0:0:0:
152,52,51199,1,8,0:0:0:0:
152,52,51499,1,0,0:0:0:0:
228,36,51649,6,0,P|276:32|320:56,1,95,0|0,0:0|0:0,0:0:0:0:
360,116,51949,1,8,0:0:0:0:
360,192,52099,1,0,0:0:0:0:
300,240,52249,2,0,P|252:244|208:220,1,95,0|0,0:0|0:0,0:0:0:0:
168,160,52549,1,8,0:0:0:0:
168,84,52699,1,0,0:0:0:0:
212,24,52849,6,0,P|256:8|312:20,1,95,8|0,0:0|0:0,0:0:0:0:
448,48,53149,2,0,P|404:64|348:52,1,95,8|0,0:0|0:0,0:0:0:0:
256,56,53449,1,8,0:0:0:0:
272,128,53599,1,0,0:0:0:0:
232,192,53749,1,8,0:0:0:0:
260,264,53899,1,0,0:0:0:0:
308,320,54049,6,0,P|352:352|408:352,1,95,0|0,0:0|0:0,0:0:0:0:
308,320,54349,2,0,P|264:288|208:288,1,95,8|0,0:0|0:0,0:0:0:0:
384,140,54649,2,0,P|416:96|416:40,1,95,0|0,0:0|0:0,0:0:0:0:
384,140,54949,2,0,P|352:184|352:240,1,95,8|0,0:0|0:0,0:0:0:0:
272,40,55249,5,0,0:0:0:0:
208,80,55399,1,0,0:0:0:0:
212,156,55549,1,8,0:0:0:0:
140,180,55699,1,0,0:0:0:0:
96,244,55849,1,8,0:0:0:0:
280,300,55999,1,8,0:0:0:0:
280,300,56299,1,8,0:0:0:0:
292,224,56449,5,0,0:0:0:0:
304,148,56599,1,0,0:0:0:0:
404,184,56749,1,8,0:0:0:0:
416,108,56899,1,0,0:0:0:0:
316,72,57049,1,0,0:0:0:0:
304,148,57199,1,0,0:0:0:0:
204,112,57349,1,8,0:0:0:0:
192,188,57499,1,0,0:0:0:0:
112,196,57649,6,0,P|136:244|180:264,1,95,0|0,0:0|0:0,0:0:0:0:
272,180,57949,2,0,P|248:132|204:112,1,95,8|0,0:0|0:0,0:0:0:0:
112,80,58249,1,0,0:0:0:0:
80,164,58399,1,0,0:0:0:0:
124,264,58549,1,8,0:0:0:0:
240,296,58699,1,0,0:0:0:0:
368,276,58849,6,0,P|404:256|406:164,1,132.999995941162,4|0,0:0|0:0,0:0:0:0:
280,42,59449,1,10,0:0:0:0:
222,87,59599,1,0,0:0:0:0:
152,62,59749,1,2,0:0:0:0:
108,120,59899,1,0,0:0:0:0:
36,103,60049,5,2,0:0:0:0:
0,260,60349,1,0,0:0:0:0:
152,212,60649,1,2,0:0:0:0:
228,240,60799,1,0,0:0:0:0:
284,180,60949,1,2,0:0:0:0:
360,204,61099,1,2,0:0:0:0:
365,202,61174,1,2,0:0:0:0:
370,200,61249,5,2,0:0:0:0:
444,60,61549,1,2,0:0:0:0:
284,52,61849,1,2,0:0:0:0:
249,116,61999,1,0,0:0:0:0:
182,146,62149,1,2,0:0:0:0:
108,142,62299,1,2,0:0:0:0:
51,95,62449,5,2,0:0:0:0:
217,173,62749,1,0,0:0:0:0:
392,228,63049,1,2,0:0:0:0:
392,228,63199,1,2,0:0:0:0:
264,268,63349,1,0,0:0:0:0:
144,204,63499,1,0,0:0:0:0:
144,204,63574,1,0,0:0:0:0:
144,204,63649,5,4,0:0:0:0:
132,44,63874,1,0,0:0:0:0:
132,44,63949,2,0,P|172:76|224:80,1,99.7499969558717,2|0,0:0|0:0,0:0:0:0:
253,105,64249,2,0,P|252:140|232:180,1,66.4999979705811,2|0,0:0|0:0,0:0:0:0:
184,236,64549,1,2,0:0:0:0:
100,264,64699,1,0,0:0:0:0:
12,272,64849,5,2,0:0:0:0:
160,144,65149,1,0,0:0:0:0:
352,152,65449,1,2,0:0:0:0:
396,212,65599,1,0,0:0:0:0:
344,272,65749,1,0,0:0:0:0:
404,316,65899,1,0,0:0:0:0:
412,320,65974,1,0,0:0:0:0:
420,324,66049,5,0,0:0:0:0:
352,152,66349,1,2,0:0:0:0:
352,152,66649,1,2,0:0:0:0:
292,100,66799,1,0,0:0:0:0:
260,172,66949,1,2,0:0:0:0:
200,120,67099,1,0,0:0:0:0:
128,84,67249,5,2,0:0:0:0:
148,320,67549,1,0,0:0:0:0:
384,300,67849,1,2,0:0:0:0:
400,228,67999,1,0,0:0:0:0:
392,152,68149,1,2,0:0:0:0:
340,100,68299,1,0,0:0:0:0:
264,84,68449,5,6,0:0:0:0:
264,84,68749,1,0,0:0:0:0:
152,152,69049,2,0,P|176:192|236:208,1,95,2|0,0:0|0:0,0:0:0:0:
276,200,69499,1,2,0:0:0:0:
332,192,69649,6,0,P|375:209|399:249,1,95,2|0,0:0|0:0,0:0:0:0:
152,152,70249,1,2,0:0:0:0:
152,152,70399,1,0,0:0:0:0:
152,152,70549,1,2,0:0:0:0:
152,152,70699,1,2,0:0:0:0:
176,240,70849,6,0,L|272:256,1,95,2|0,0:0|0:0,0:0:0:0:
352,120,71449,2,0,L|400:144,1,47.5,2|0,0:0|0:0,0:0:0:0:
308,184,71749,2,0,L|336:232,1,47.5,2|0,0:0|0:0,0:0:0:0:
340,304,72049,6,0,P|300:300|260:244,1,95,2|0,0:0|0:0,0:0:0:0:
232,120,72649,1,2,0:0:0:0:
188,192,72799,1,2,0:0:0:0:
272,196,72949,1,0,0:0:0:0:
232,120,73099,1,2,0:0:0:0:
224,112,73174,1,2,0:0:0:0:
220,104,73249,5,2,0:0:0:0:
132,208,73549,1,0,0:0:0:0:
228,300,73849,2,0,L|288:308,1,47.5,2|0,0:0|0:0,0:0:0:0:
308,236,74149,2,0,L|368:244,1,47.5,2|0,0:0|0:0,0:0:0:0:
380,320,74449,5,2,0:0:0:0:
436,208,74749,1,0,0:0:0:0:
356,120,75049,1,2,0:0:0:0:
304,112,75199,1,0,0:0:0:0:
252,108,75349,1,2,0:0:0:0:
200,104,75499,1,0,0:0:0:0:
148,100,75649,5,2,0:0:0:0:
148,100,75949,1,0,0:0:0:0:
128,252,76249,2,0,L|144:296,1,47.5,2|0,0:0|0:0,0:0:0:0:
224,320,76549,2,0,L|208:276,1,47.5,2|0,0:0|0:0,0:0:0:0:
192,200,76849,6,0,P|192:160|232:120,1,95,2|0,0:0|0:0,0:0:0:0:
384,44,77449,1,2,0:0:0:0:
408,104,77599,1,0,0:0:0:0:
396,168,77749,1,2,0:0:0:0:
408,228,77899,1,2,0:0:0:0:
412,240,77974,1,2,0:0:0:0:
416,252,78049,5,6,0:0:0:0:
256,192,78349,12,4,80149,0:0:0:0:
104,128,80449,6,0,P|132:92|176:72,1,95,2|0,0:0|0:0,0:0:0:0:
252,60,80899,2,0,P|294:40|324:3,1,95,2|2,0:0|0:0,0:0:0:0:
392,28,81349,2,0,L|448:28,1,47.5,2|0,0:0|0:0,0:0:0:0:
412,96,81649,5,2,0:0:0:0:
384,160,81799,1,0,0:0:0:0:
388,232,81949,1,0,0:0:0:0:
412,300,82099,2,0,P|368:300|320:268,1,95,2|0,0:0|0:0,0:0:0:0:
264,236,82549,1,2,0:0:0:0:
192,232,82699,1,0,0:0:0:0:
196,160,82849,6,0,B|232:128|232:128|280:120,1,95,4|0,0:0|0:0,0:0:0:0:
332,72,83299,2,0,B|380:76|380:76|428:104,1,95,2|2,0:0|0:0,0:0:0:0:
480,136,83749,1,0,0:0:0:0:
452,204,83899,1,0,0:0:0:0:
492,264,84049,6,0,P|488:296|444:344,1,95,2|0,0:0|0:0,0:0:0:0:
376,340,84499,2,0,P|342:307|332:261,1,95,2|0,0:0|0:0,0:0:0:0:
300,196,84949,1,2,0:0:0:0:
276,128,85099,1,0,0:0:0:0:
240,68,85249,6,0,P|200:52|100:60,1,142.5,2|0,0:0|0:0,0:0:0:0:
72,200,85999,2,0,L|80:264,1,47.5,0|2,0:0|0:0,0:0:0:0:
108,312,86299,1,0,0:0:0:0:
172,340,86449,5,4,0:0:0:0:
256,192,86599,12,0,87499,0:0:0:0:
256,192,87649,5,0,0:0:0:0:
384,100,87799,1,8,0:0:0:0:
384,100,88249,1,0,0:0:0:0:
256,192,88849,5,0,0:0:0:0:
128,284,88999,1,8,0:0:0:0:
128,284,89449,1,0,0:0:0:0:
108,156,89599,1,0,0:0:0:0:
236,176,89749,1,8,0:0:0:0:
256,304,89899,1,8,0:0:0:0:
256,304,89974,1,8,0:0:0:0:
256,304,90049,6,0,P|292:272|300:224,1,95,0|0,0:0|0:0,0:0:0:0:
232,140,90349,2,0,P|196:172|188:220,1,95,8|0,0:0|0:0,0:0:0:0:
320,200,90649,2,0,L|424:184,2,95,0|0|8,0:0|0:0|0:0,0:0:0:0:
204,212,91099,1,0,0:0:0:0:
104,148,91249,6,0,P|88:100|112:52,1,95,0|0,0:0|0:0,0:0:0:0:
192,120,91549,2,0,L|204:216,1,95,8|0,0:0|0:0,0:0:0:0:
308,214,91849,2,0,L|320:120,1,95,0|0,0:0|0:0,0:0:0:0:
408,60,92149,2,0,P|424:104|408:148,1,95,8|0,0:0|0:0,0:0:0:0:
407,148,92374,1,0,0:0:0:0:
407,148,92449,5,0,0:0:0:0:
388,252,92599,1,0,0:0:0:0:
284,260,92749,1,8,0:0:0:0:
256,360,92899,1,0,0:0:0:0:
180,292,93049,2,0,P|148:256|144:204,1,95,0|0,0:0|0:0,0:0:0:0:
160,64,93349,2,0,P|192:100|196:152,1,95,8|0,0:0|0:0,0:0:0:0:
280,212,93649,6,0,P|328:224|384:212,2,95,0|0|8,0:0|0:0|0:0,0:0:0:0:
256,68,94099,1,0,0:0:0:0:
232,212,94249,2,0,P|184:224|128:212,2,95,0|0|8,0:0|0:0|0:0,0:0:0:0:
256,68,94699,1,0,0:0:0:0:
360,96,94849,6,0,P|400:120|424:160,1,95,0|0,0:0|0:0,0:0:0:0:
324,200,95149,2,0,L|344:296,1,95,8|0,0:0|0:0,0:0:0:0:
168,293,95449,2,0,L|188:200,1,95,0|0,0:0|0:0,0:0:0:0:
87,160,95749,2,0,P|111:120|152:96,1,95,8|0,0:0|0:0,0:0:0:0:
256,120,96049,5,0,0:0:0:0:
256,264,96199,1,0,0:0:0:0:
256,88,96349,1,8,0:0:0:0:
256,296,96499,1,0,0:0:0:0:
320,192,96649,1,0,0:0:0:0:
380,300,96799,1,0,0:0:0:0:
256,296,96949,1,8,0:0:0:0:
320,192,97099,1,0,0:0:0:0:
328,40,97249,5,2,0:0:0:0:
408,112,97399,2,0,P|440:148|448:208,2,95,0|8|0,0:0|0:0|0:0,0:0:0:0:
296,128,97849,2,0,B|256:156|256:156|232:200,1,95,0|0,0:0|0:0,0:0:0:0:
248,288,98149,2,8,B|288:260|288:260|312:216,1,95,8|0,0:0|0:0,0:0:0:0:
168,48,98449,5,2,0:0:0:0:
136,148,98599,1,0,0:0:0:0:
200,232,98749,2,0,P|244:208|260:164,1,95,8|0,0:0|0:0,0:0:0:0:
312,56,99049,2,0,P|352:28|408:32,2,95,0|0|8,0:0|0:0|0:0,0:0:0:0:
260,168,99499,1,0,0:0:0:0:
418,281,99649,6,0,P|400:238|364:208,1,95,2|0,0:0|0:0,0:0:0:0:
256,220,99949,1,8,0:0:0:0:
144,248,100099,2,0,P|107:217|89:174,1,95,0|0,0:0|0:0,0:0:0:0:
120,68,100399,1,0,0:0:0:0:
232,48,100549,2,0,P|216:96|224:144,1,95,8|0,0:0|0:0,0:0:0:0:
280,336,100849,6,0,P|296:288|288:240,1,95,2|0,0:0|0:0,0:0:0:0:
400,168,101149,2,0,P|352:152|304:160,1,95,8|0,0:0|0:0,0:0:0:0:
232,48,101449,2,0,P|216:96|224:144,1,95,0|0,0:0|0:0,0:0:0:0:
112,216,101749,2,0,P|160:232|208:224,1,95,8|0,0:0|0:0,0:0:0:0:
280,120,102049,5,2,0:0:0:0:
420,108,102199,2,0,P|472:136|488:176,2,95,0|8|0,0:0|0:0|0:0,0:0:0:0:
280,120,102649,5,0,0:0:0:0:
168,136,102799,2,0,B|116:128|116:128|84:96,2,95,0|8|0,0:0|0:0|0:0,0:0:0:0:
280,120,103249,5,2,0:0:0:0:
256,224,103399,2,0,P|240:268|244:316,1,95,0|8,0:0|0:0,0:0:0:0:
364,280,103699,1,0,0:0:0:0:
280,120,103849,5,0,0:0:0:0:
176,68,103999,2,0,B|132:44|132:44|112:0,2,95,0|8|0,0:0|0:0|0:0,0:0:0:0:
148,172,104449,6,0,P|120:204|124:256,1,95,2|0,0:0|0:0,0:0:0:0:
188,340,104749,1,8,0:0:0:0:
320,360,104899,1,0,0:0:0:0:
440,256,105049,1,0,0:0:0:0:
308,276,105199,1,0,0:0:0:0:
188,176,105349,1,8,0:0:0:0:
320,196,105499,1,0,0:0:0:0:
424,168,105649,6,0,P|472:136|480:96,2,95,2|0|8,0:0|0:0|0:0,0:0:0:0:
256,120,106099,1,2,0:0:0:0:
88,168,106249,2,0,P|40:136|32:96,2,95,0|2|8,0:0|0:0|0:0,0:0:0:0:
256,120,106699,1,2,0:0:0:0:
424,216,106849,6,0,B|432:264|432:264|428:312,1,95,4|0,0:0|0:0,0:0:0:0:
328,364,107149,2,0,B|320:316|320:316|324:268,1,95,8|0,0:0|0:0,0:0:0:0:
316,124,107449,1,0,0:0:0:0:
328,16,107599,1,0,0:0:0:0:
420,80,107749,1,8,0:0:0:0:
224,60,107899,1,0,0:0:0:0:
420,80,108049,6,0,P|432:132|432:180,1,95,0|0,0:0|0:0,0:0:0:0:
328,220,108349,1,8,0:0:0:0:
420,288,108499,1,0,0:0:0:0:
392,328,108574,1,0,0:0:0:0:
348,352,108649,2,0,P|300:360|240:356,1,95,0|0,0:0|0:0,0:0:0:0:
100,284,108949,2,0,P|148:276|208:280,1,95,8|8,0:0|0:0,0:0:0:0:
356,216,109249,6,0,B|309:219|309:219|261:215,1,95,0|0,0:0|0:0,0:0:0:0:
180,120,109549,1,8,0:0:0:0:
240,12,109699,1,0,0:0:0:0:
304,118,109849,1,0,0:0:0:0:
116,14,109999,1,0,0:0:0:0:
116,14,110074,1,0,0:0:0:0:
116,14,110149,1,0,0:0:0:0:
119,228,110299,1,0,0:0:0:0:
156,336,110449,6,0,P|186:363|237:368,1,95
352,248,110749,2,0,P|321:220|270:215,1,95
132,324,111049,1,0,0:0:0:0:
332,256,111199,1,0,0:0:0:0:
108,308,111349,1,8,0:0:0:0:
312,264,111499,1,8,0:0:0:0:
84,296,111649,6,0,P|40:272|20:232,1,95,2|0,0:0|0:0,0:0:0:0:
0,88,111949,2,0,P|44:112|64:152,1,95,8|0,0:0|0:0,0:0:0:0:
136,240,112249,1,0,0:0:0:0:
208,148,112399,2,0,P|230:106|271:85,2,95,0|8|0,0:0|0:0|0:0,0:0:0:0:
228,252,112849,6,0,P|252:296|292:316,1,95,2|0,0:0|0:0,0:0:0:0:
416,316,113149,2,0,P|460:292|480:252,1,95,8|0,0:0|0:0,0:0:0:0:
392,172,113449,1,0,0:0:0:0:
304,84,113599,1,0,0:0:0:0:
304,84,113674,1,0,0:0:0:0:
304,84,113749,1,8,0:0:0:0:
276,204,113899,1,0,0:0:0:0:
160,224,114049,6,0,P|124:200|112:152,1,95,2|0,0:0|0:0,0:0:0:0:
208,80,114349,2,0,P|253:90|280:127,1,95,8|0,0:0|0:0,0:0:0:0:
228,240,114649,1,0,0:0:0:0:
348,240,114799,1,0,0:0:0:0:
352,240,114874,1,0,0:0:0:0:
356,240,114949,1,8,0:0:0:0:
456,292,115099,1,0,0:0:0:0:
436,184,115249,6,0,L|408:88,1,95,2|0,0:0|0:0,0:0:0:0:
232,56,115549,2,0,L|260:152,1,95,8|2,0:0|0:0,0:0:0:0:
372,188,115849,1,0,0:0:0:0:
300,284,115999,2,0,L|326:375,2,95,2|8|2,0:0|0:0|0:0,0:0:0:0:
268,176,116449,5,0,0:0:0:0:
140,128,116599,1,8,0:0:0:0:
164,264,116749,1,8,0:0:0:0:
164,264,116899,1,8,0:0:0:0:
308,264,117049,1,0,0:0:0:0:
436,312,117199,1,8,0:0:0:0:
412,176,117349,1,8,0:0:0:0:
412,176,117499,1,8,0:0:0:0:
328,88,117649,6,0,P|296:44|240:32,1,104.500003189087,8|0,0:0|0:0,0:0:0:0:
264,172,117949,2,0,P|296:216|352:228,1,104.500003189087,8|0,0:0|0:0,0:0:0:0:
464,176,118249,2,0,P|432:132|376:120,1,104.500003189087,8|8,0:0|0:0,0:0:0:0:
400,260,118549,2,0,P|432:304|488:316,1,104.500003189087,8|0,0:0|0:0,0:0:0:0:
476,192,118849,5,0,0:0:0:0:
328,144,118999,1,8,0:0:0:0:
360,296,119149,1,8,0:0:0:0:
360,296,119299,1,8,0:0:0:0:
208,328,119449,5,0,0:0:0:0:
256,180,119599,1,8,0:0:0:0:
360,296,119749,1,8,0:0:0:0:
360,296,119899,1,8,0:0:0:0:
408,152,120049,6,0,P|440:104|448:52,1,104.500003189087,8|0,0:0|0:0,0:0:0:0:
316,172,120349,2,0,P|284:220|276:272,1,104.500003189087,0|0,0:0|0:0,0:0:0:0:
160,344,120649,1,8,0:0:0:0:
56,256,120799,1,8,0:0:0:0:
92,124,120949,1,8,0:0:0:0:
220,80,121099,1,0,0:0:0:0:
332,148,121249,6,0,P|356:204|344:248,1,104.500003189087,0|8,0:0|0:0,0:0:0:0:
192,212,121549,1,8,0:0:0:0:
192,212,121699,1,0,0:0:0:0:
128,72,121849,2,0,P|184:48|228:60,1,104.500003189087,0|8,0:0|0:0,0:0:0:0:
192,212,122149,1,8,0:0:0:0:
192,212,122299,1,0,0:0:0:0:
160,352,122449,6,0,P|211:346|248:311,1,104.500003189087,8|0,0:0|0:0,0:0:0:0:
416,288,122749,2,0,P|410:236|375:199,1,104.500003189087,8|0,0:0|0:0,0:0:0:0:
248,96,123049,1,8,0:0:0:0:
160,200,123199,1,0,0:0:0:0:
264,288,123349,1,8,0:0:0:0:
352,184,123499,1,8,0:0:0:0:
240,120,123649,6,0,L|136:72,1,104.500003189087,0|8,0:0|0:0,0:0:0:0:
145,76,123949,1,8,0:0:0:0:
145,76,124099,1,0,0:0:0:0:
28,192,124249,2,0,L|132:240,1,104.500003189087,0|8,0:0|0:0,0:0:0:0:
122,235,124549,1,8,0:0:0:0:
122,235,124699,1,0,0:0:0:0:
276,224,124849,6,0,P|314:189|328:139,1,104.500003189087,0|8,0:0|0:0,0:0:0:0:
244,48,125149,2,0,P|205:82|191:132,1,104.500003189087,8|0,0:0|0:0,0:0:0:0:
200,276,125449,1,8,0:0:0:0:
340,248,125599,1,0,0:0:0:0:
424,116,125749,1,8,0:0:0:0:
284,144,125899,1,8,0:0:0:0:
144,124,126049,5,0,0:0:0:0:
52,212,126199,1,0,0:0:0:0:
52,212,126274,1,0,0:0:0:0:
52,212,126349,1,10,0:0:0:0:
144,296,126499,2,0,P|188:336|232:344,2,104.500003189087,0|10|0,0:0|0:0|0:0,0:0:0:0:
208,168,126949,1,10,0:0:0:0:
208,168,127024,1,0,0:0:0:0:
208,168,127099,1,0,0:0:0:0:
208,168,127174,1,0,0:0:0:0:
208,168,127249,6,0,L|296:240,1,104.500003189087,2|0,0:0|0:0,0:0:0:0:
436,232,127549,2,0,L|348:160,1,104.500003189087,10|8,0:0|0:0,0:0:0:0:
320,52,127849,2,0,P|268:72|244:112,1,104.500003189087,10|0,0:0|0:0,0:0:0:0:
192,332,128149,2,0,P|244:312|268:272,1,104.500003189087,10|0,0:0|0:0,0:0:0:0:
296,144,128449,5,0,0:0:0:0:
420,84,128599,1,10,0:0:0:0:
296,144,128749,1,10,0:0:0:0:
440,132,128899,1,0,0:0:0:0:
296,144,129049,1,0,0:0:0:0:
460,176,129199,1,10,0:0:0:0:
296,144,129349,1,10,0:0:0:0:
480,224,129499,1,0,0:0:0:0:
480,224,129649,6,0,L|372:196,1,104.500003189087,0|10,0:0|0:0,0:0:0:0:
92,144,129949,2,0,L|200:172,1,104.500003189087,10|0,0:0|0:0,0:0:0:0:
380,196,130249,1,10,0:0:0:0:
380,196,130324,1,0,0:0:0:0:
380,196,130399,1,0,0:0:0:0:
192,172,130549,1,10,0:0:0:0:
380,196,130699,1,0,0:0:0:0:
212,100,130849,6,0,P|160:108|123:142,1,104.500003189087,0|10,0:0|0:0,0:0:0:0:
212,280,131149,1,10,0:0:0:0:
212,280,131299,1,0,0:0:0:0:
56,236,131449,2,0,P|41:286|56:334,1,104.500003189087,0|10,0:0|0:0,0:0:0:0:
212,280,131749,1,10,0:0:0:0:
212,280,131899,1,0,0:0:0:0:
328,264,132049,6,0,P|372:232|380:184,2,104.500003189087,10|0|10,0:0|0:0|0:0,0:0:0:0:
256,144,132499,1,10,0:0:0:0:
184,264,132649,2,0,P|140:232|132:184,2,104.500003189087,10|0|10,0:0|0:0|0:0,0:0:0:0:
184,264,133099,1,8,0:0:0:0:
316,200,133249,5,0,0:0:0:0:
456,156,133399,1,10,0:0:0:0:
408,16,133549,1,10,0:0:0:0:
268,60,133699,1,0,0:0:0:0:
256,244,133849,5,0,0:0:0:0:
157,354,133999,1,10,0:0:0:0:
48,255,134149,1,10,0:0:0:0:
146,144,134299,1,0,0:0:0:0:
288,116,134449,6,0,P|328:140|384:144,1,104.500003189087,2|0,0:0|0:0,0:0:0:0:
492,56,134749,1,2,0:0:0:0:
508,192,134899,2,2,P|508:292|412:364,1,209.000006378174,2|0,0:0|0:0,0:0:0:0:
284,352,135349,1,10,0:0:0:0:
196,160,135499,1,2,0:0:0:0:
407,180,135649,5,6,0:0:0:0:
