osu file format v14

[General]
AudioFilename: Blackhole - DioSynth.mp3
AudioLeadIn: 0
PreviewTime: 116339
Countdown: 0
SampleSet: Normal
StackLeniency: 0.7
Mode: 0
LetterboxInBreaks: 1
WidescreenStoryboard: 1

[Editor]
Bookmarks: 10768,20368,29968,39568,49168,58768,68368,77968,87568,97168,106768,116368,125968,135568
DistanceSpacing: 0.9
BeatDivisor: 4
GridSize: 4
TimelineZoom: 1

[Metadata]
Title:DioSynth
TitleUnicode:DioSynth
Artist:Blackhole
ArtistUnicode:Blackhole
Creator:[ UniCiTy ]
Version:Basic
Source:Newgrounds
Tags:audio portal erik mcclure
BeatmapID:323938
BeatmapSetID:126784

[Difficulty]
HPDrainRate:1.5
CircleSize:2.5
OverallDifficulty:1
ApproachRate:2
SliderMultiplier:0.6
SliderTickRate:1

[Events]
//Background and Video events
0,0,"34133-1920x1080.jpg",0,0
//Break Periods
2,39849,47689
2,78249,86089
//Storyboard Layer 0 (Background)
//Storyboard Layer 1 (Fail)
//Storyboard Layer 2 (Pass)
//Storyboard Layer 3 (Foreground)
//Storyboard Sound Samples

[TimingPoints]
1249,300,4,1,0,100,1,0
6049,-100,4,1,2,25,0,0
10849,-100,4,1,0,35,0,0
20449,-100,4,1,1,40,0,1
39649,-100,4,1,2,35,0,0
49249,-100,4,1,1,50,0,0
58849,-142.857142857143,4,2,0,45,0,0
68449,-142.857142857143,4,2,0,35,0,0
87649,-133.333333333333,4,1,1,25,0,0
92449,-100,4,1,1,35,0,0
97249,-100,4,1,0,40,0,1
97399,-100,4,1,0,40,0,0
111649,-100,4,1,1,45,0,0
116449,-90.9090909090909,4,1,1,55,0,1
135649,-90.9090909090909,4,2,0,75,0,0

[Colours]
Combo1 : 68,255,162
Combo2 : 0,6,251
Combo3 : 104,216,253
Combo4 : 29,0,145
Combo5 : 97,250,226

[HitObjects]
80,72,6049,6,0,L|204:72,1,120,6|0,0:0|0:0,0:0:0:0:
296,144,7249,2,0,L|172:144,1,120,2|0,0:0|0:0,0:0:0:0:
56,144,8449,6,0,P|56:172|116:240,2,120,2|2|0,0:0|0:0|0:0,0:0:0:0:
56,84,9949,2,0,L|56:20,2,60,2|0|2,0:0|0:0|0:0,0:0:0:0:
60,140,10849,6,0,B|72:200|144:216|144:216|144:288|216:308,1,240,8|0,0:0|0:0,0:0:0:0:
328,308,12649,2,0,P|324:260|268:212,1,120,2|2,0:0|0:0,0:0:0:0:
188,128,13849,2,0,L|188:4,2,120,8|2|8,0:0|0:0|0:0,0:0:0:0:
100,212,15649,6,0,P|54:248|45:306,1,120,2|8,0:0|0:0,0:0:0:0:
164,336,16849,2,0,B|196:304|228:232|228:232|260:304|292:336,1,240,2|2,0:0|0:0,0:0:0:0:
396,276,18649,6,0,P|352:220|332:172,1,120,8|2,0:0|0:0,0:0:0:0:
256,84,19849,1,8,0:0:0:0:
124,92,20449,6,0,P|128:120|192:192,1,120,2|2,0:0|0:0,0:0:0:0:
300,224,21649,2,0,P|343:263|360:320,1,120,2|2,0:0|0:0,0:0:0:0:
240,316,22849,6,0,B|184:277|181:216|181:216|243:108,1,240,2|2,0:0|0:0,0:0:0:0:
352,64,24649,1,2,0:0:0:0:
460,116,25249,6,0,P|448:136|256:140,1,240,2|0,0:0|0:0,0:0:0:0:
172,64,27049,2,0,P|136:40|56:40,1,120,2|2,0:0|0:0,0:0:0:0:
48,156,28249,5,0,0:0:0:0:
152,216,28849,2,0,B|187:245|202:288|202:288|238:311,1,120,2|2,0:0|0:0,0:0:0:0:
348,304,30049,6,0,B|384:284|464:304|464:304|464:240|436:184,1,240,2|2,0:0|0:0,0:0:0:0:
380,80,31849,1,2,0:0:0:0:
276,144,32449,6,0,P|308:192|304:260,1,120,2|0,0:0|0:0,0:0:0:0:
220,336,33649,2,0,P|188:288|192:220,1,120,2|0,0:0|0:0,0:0:0:0:
92,156,34849,6,0,P|136:116|204:108,1,120,2|0,0:0|0:0,0:0:0:0:
312,124,36049,1,2,0:0:0:0:
368,228,36649,1,0,0:0:0:0:
280,312,37249,6,0,P|232:280|168:280,1,120,2|0,0:0|0:0,0:0:0:0:
64,224,38449,2,0,B|116:256|116:256|176:256,2,120,2|0|2,0:0|0:0|0:0,0:0:0:0:
164,56,49249,6,0,L|192:176,1,120,8|8,0:0|0:0,0:0:0:0:
300,224,50449,2,0,L|272:104,1,120,0|8,0:0|0:0,0:0:0:0:
312,60,51349,1,8,0:0:0:0:
368,32,51649,6,0,P|404:20|488:24,1,120,0|8,0:0|0:0,0:0:0:0:
448,144,52849,2,0,P|412:156|328:152,1,120,0|8,0:0|0:0,0:0:0:0:
212,160,54049,6,0,L|152:164,2,60,8|0|8,0:0|0:0|0:0,0:0:0:0:
316,224,55249,2,0,L|376:220,2,60,0|8|8,0:0|0:0|0:0,0:0:0:0:
180,248,56449,6,0,L|120:252,3,60,8|0|8|0,0:0|0:0|0:0|0:0,0:0:0:0:
60,248,57649,2,0,P|40:228|44:140,1,120,8|0,0:0|0:0,0:0:0:0:
116,72,58849,5,2,0:0:0:0:
212,96,59449,1,0,0:0:0:0:
312,80,60049,2,0,P|336:92|376:184,1,125.999996154785,2|0,0:0|0:0,0:0:0:0:
376,204,61249,5,2,0:0:0:0:
272,200,61849,1,0,0:0:0:0:
176,240,62449,2,0,B|168:200|176:156|176:156|152:120,1,125.999996154785,0|0,0:0|0:0,0:0:0:0:
128,76,63649,6,0,P|156:48|204:40,2,83.9999974365235,2|0|2,0:0|0:0|0:0,0:0:0:0:
128,180,65449,1,0,0:0:0:0:
256,192,66049,12,0,67849,0:0:0:0:
84,80,68449,6,0,P|136:88|196:184,1,167.999994873047,6|0,0:0|0:0,0:0:0:0:
364,288,70849,2,0,P|312:280|252:184,1,167.999994873047,2|0,0:0|0:0,0:0:0:0:
416,72,73249,6,0,P|400:88|260:120,2,167.999994873047,2|0|2,0:0|0:0|0:0,0:0:0:0:
436,180,76249,2,0,L|448:272,2,83.9999974365235,0|2|0,0:0|0:0|0:0,0:0:0:0:
420,80,78049,5,4,0:0:0:0:
96,88,87649,5,8,0:0:0:0:
128,268,88849,1,8,0:0:0:0:
232,244,89449,1,0,0:0:0:0:
332,284,90049,6,0,P|376:284|420:264,1,90.0000034332277,8|0,0:0|0:0,0:0:0:0:
440,160,91249,2,0,P|396:160|352:180,1,90.0000034332277,8|0,0:0|0:0,0:0:0:0:
260,256,92449,6,0,P|220:284|120:168,1,240,8|0,0:0|0:0,0:0:0:0:
168,64,94249,1,8,0:0:0:0:
192,184,94849,6,0,P|208:224|280:264,1,120,0|8,0:0|0:0,0:0:0:0:
388,240,96049,2,0,P|372:200|300:160,1,120,8|8,0:0|0:0,0:0:0:0:
200,160,97249,6,0,B|116:128|116:128|132:76|96:32,1,180,2|8,0:0|0:0,0:0:0:0:
64,88,98449,2,0,P|92:108|156:16,1,180,2|8,0:0|0:0,0:0:0:0:
176,80,99649,6,0,P|168:116|220:248,1,180,2|8,0:0|0:0,0:0:0:0:
276,256,100849,2,0,L|372:268,2,90,2|0|8,0:0|0:0|0:0,0:0:0:0:
224,228,102049,6,0,P|196:192|188:112,1,120,2|0,0:0|0:0,0:0:0:0:
304,144,103249,2,0,P|332:180|340:260,1,120,2|0,0:0|0:0,0:0:0:0:
232,300,104449,5,2,0:0:0:0:
136,228,105049,2,0,P|104:192|32:168,2,120,0|2|0,0:0|0:0|0:0,0:0:0:0:
236,296,106849,6,8,P|314:301|393:238,1,180,2|8,0:0|0:0,0:0:0:0:
408,204,108049,2,0,P|418:186|484:152,2,90,2|0|2,0:0|0:0|0:0,0:0:0:0:
348,192,109249,6,0,P|312:144|252:124,1,120,2|0,0:0|0:0,0:0:0:0:
144,168,110449,2,0,P|180:216|240:236,1,120,2|0,0:0|0:0,0:0:0:0:
348,252,111649,6,0,L|408:272,2,60,2|8|2,0:0|0:0|0:0,0:0:0:0:
256,176,112849,2,0,L|196:156,2,60,2|8|2,0:0|0:0|0:0,0:0:0:0:
344,96,114049,6,0,P|380:140|372:212,1,120,2|8,0:0|0:0,0:0:0:0:
284,280,115249,2,0,P|248:236|256:164,1,120,2|2,0:0|0:0,0:0:0:0:
356,96,116449,6,0,P|348:128|268:176,1,132.00000402832,8|0,0:0|0:0,0:0:0:0:
136,176,117649,2,0,L|64:176,2,66.0000020141602,8|0|8,0:0|0:0|0:0,0:0:0:0:
172,300,118849,6,0,P|237:301|292:268,2,132.00000402832,8|0|8,0:0|0:0|0:0,0:0:0:0:
192,236,120349,2,0,L|120:236,2,66.0000020141602,0|8|0,0:0|0:0|0:0,0:0:0:0:
248,236,121249,6,0,P|288:232|360:168,1,132.00000402832,8|0,0:0|0:0,0:0:0:0:
368,120,122149,1,8,0:0:0:0:
388,72,122449,2,0,P|408:48|452:32,2,66.0000020141602,8|0|8,0:0|0:0|0:0,0:0:0:0:
348,200,123649,6,0,P|340:164|264:96,1,132.00000402832,8|0,0:0|0:0,0:0:0:0:
212,100,124549,1,8,0:0:0:0:
152,112,124849,2,0,P|96:108|40:56,1,132.00000402832,8|0,0:0|0:0,0:0:0:0:
64,176,126049,6,0,L|96:240,1,66.0000020141602,0|10,0:0|0:0,0:0:0:0:
140,280,126649,2,0,P|204:252|272:252,2,132.00000402832,10|0|10,0:0|0:0|0:0,0:0:0:0:
32,360,128449,5,0,0:0:0:0:
32,300,128749,2,0,P|54:238|106:199,2,132.00000402832,10|10|10,0:0|0:0|0:0,0:0:0:0:
88,328,130249,2,0,P|120:328|160:316,1,66.0000020141602,0|10,0:0|0:0,0:0:0:0:
200,296,130849,6,0,P|248:272|328:268,1,132.00000402832,10|0,0:0|0:0,0:0:0:0:
400,160,132049,2,0,P|340:187|274:188,1,132.00000402832,10|0,0:0|0:0,0:0:0:0:
224,168,132949,1,10,0:0:0:0:
172,144,133249,6,0,P|132:136|64:256,1,198.000006042481,10|0,0:0|0:0,0:0:0:0:
100,288,134449,2,0,B|132:280|176:236|176:236|204:248|224:248,2,132.00000402832,10|2|4,0:0|0:0|0:0,0:0:0:0:
