osu file format v14

[General]
AudioFilename: Blackhole - DioSynth.mp3
AudioLeadIn: 0
PreviewTime: 116339
Countdown: 0
SampleSet: Soft
StackLeniency: 0.7
Mode: 0
LetterboxInBreaks: 1
WidescreenStoryboard: 1

[Editor]
Bookmarks: 10768,20368,29968,39568,49168,58768,68368,77968,87568,97168,106768,116368,125968,135568
DistanceSpacing: 1.2
BeatDivisor: 4
GridSize: 4
TimelineZoom: 1.6

[Metadata]
Title:DioSynth
TitleUnicode:DioSynth
Artist:Blackhole
ArtistUnicode:Blackhole
Creator:[ UniCiTy ]
Version:Another
Source:Newgrounds
Tags:audio portal erik mcclure
BeatmapID:322035
BeatmapSetID:126784

[Difficulty]
HPDrainRate:7
CircleSize:4
OverallDifficulty:7
ApproachRate:8.5
SliderMultiplier:1.6
SliderTickRate:2

[Events]
//Background and Video events
0,0,"34133-1920x1080.jpg",0,0
//Break Periods
2,83049,86974
//Storyboard Layer 0 (Background)
//Storyboard Layer 1 (Fail)
//Storyboard Layer 2 (Pass)
//Storyboard Layer 3 (Foreground)
//Storyboard Sound Samples

[TimingPoints]
1249,300,4,1,0,100,1,0
6049,-100,4,1,2,25,0,0
10849,-100,4,1,0,35,0,0
20449,-100,4,1,1,40,0,1
39649,-100,4,1,2,35,0,0
49249,-100,4,1,1,50,0,0
58849,-142.857142857143,4,2,0,45,0,0
68449,-200,4,2,0,35,0,0
87649,-100,4,1,1,25,0,0
92449,-100,4,1,1,35,0,0
97249,-100,4,1,0,40,0,1
97399,-100,4,1,0,40,0,0
106849,-100,4,1,1,45,0,0
116449,-90.9090909090909,4,1,1,55,0,1
135649,-90.9090909090909,4,2,0,75,0,0

[Colours]
Combo1 : 68,255,162
Combo2 : 0,6,251
Combo3 : 104,216,253
Combo4 : 29,0,145
Combo5 : 97,250,226

[HitObjects]
120,72,6049,5,0,0:0:0:0:
120,72,6199,1,2,0:0:0:0:
256,192,6649,1,0,0:0:0:0:
392,312,7249,5,0,0:0:0:0:
392,312,7399,1,2,0:0:0:0:
256,192,7849,1,0,0:0:0:0:
256,192,8149,1,2,0:0:0:0:
296,116,8299,1,2,0:0:0:0:
368,64,8449,6,0,P|408:48|452:48,1,80,0|0,0:0|0:0,0:0:0:0:
500,116,8749,2,0,P|460:132|416:132,1,80,2|0,0:0|0:0,0:0:0:0:
336,112,9049,2,0,L|252:84,2,80,0|0|2,0:0|0:0|0:0,0:0:0:0:
368,196,9499,1,0,0:0:0:0:
448,232,9649,6,0,L|473:307,2,80,0|0|2,0:0|0:0|0:0,0:0:0:0:
448,144,10099,1,0,0:0:0:0:
388,80,10249,1,0,0:0:0:0:
292,208,10399,1,0,0:0:0:0:
412,104,10549,1,10,0:0:0:0:
268,176,10699,1,8,0:0:0:0:
268,176,10774,1,8,0:0:0:0:
268,176,10849,6,0,P|232:196|208:232,1,80,2|0,0:0|0:0,0:0:0:0:
236,312,11149,2,0,P|272:292|296:256,1,80,8|0,0:0|0:0,0:0:0:0:
364,204,11449,1,0,0:0:0:0:
432,260,11599,2,0,P|455:292|490:311,2,80,0|8|0,0:0|0:0|0:0,0:0:0:0:
388,184,12049,6,0,L|348:104,1,80,0|0,0:0|0:0,0:0:0:0:
168,96,12349,2,0,L|208:176,1,80,8|0,0:0|0:0,0:0:0:0:
88,228,12649,2,0,L|128:308,1,80,0|0,0:0|0:0,0:0:0:0:
256,304,12949,2,0,L|296:384,1,80,8|0,0:0|0:0,0:0:0:0:
392,336,13249,6,0,P|436:320|484:328,2,80,0|0|8,0:0|0:0|0:0,0:0:0:0:
320,280,13699,1,0,0:0:0:0:
256,216,13849,2,0,P|212:232|164:224,2,80,0|0|8,0:0|0:0|0:0,0:0:0:0:
188,148,14299,1,0,0:0:0:0:
252,76,14449,6,0,B|272:72|272:72|296:72|296:72|312:68|312:68|332:68,1,80,0|0,0:0|0:0,0:0:0:0:
456,104,14749,2,0,B|436:116|420:124|420:124|408:124|384:136,1,80,8|0,0:0|0:0,0:0:0:0:
224,200,15049,2,0,B|256:192|272:192|292:184|292:184|304:184|320:200,1,80,0|0,0:0|0:0,0:0:0:0:
456,184,15349,2,0,B|436:196|436:196|416:200|408:208|400:208|388:216|388:216|368:220,1,80,8|0,0:0|0:0,0:0:0:0:
296,248,15649,5,0,0:0:0:0:
220,292,15799,1,0,0:0:0:0:
132,292,15949,1,8,0:0:0:0:
64,236,16099,1,0,0:0:0:0:
20,160,16249,2,8,P|8:115|14:78,2,80,0|0|8,0:0|0:0|0:0,0:0:0:0:
106,173,16699,1,0,0:0:0:0:
186,136,16849,6,0,P|226:120|270:128,1,80,0|0,0:0|0:0,0:0:0:0:
274,212,17149,2,0,P|290:252|282:296,1,80,8|0,0:0|0:0,0:0:0:0:
198,300,17449,2,0,P|158:316|114:308,1,80,0|0,0:0|0:0,0:0:0:0:
110,224,17749,2,0,P|94:184|102:140,1,80,8|0,0:0|0:0,0:0:0:0:
145,73,18049,5,0,0:0:0:0:
239,59,18199,2,0,P|277:52|319:27,2,80,0|8|0,0:0|0:0|0:0,0:0:0:0:
145,73,18649,1,0,0:0:0:0:
226,123,18799,2,0,P|262:131|306:123,1,80,0|8,0:0|0:0,0:0:0:0:
388,77,19099,1,0,0:0:0:0:
436,160,19249,5,0,0:0:0:0:
380,232,19399,1,0,0:0:0:0:
296,280,19549,2,0,P|256:296|216:296,1,80,8|0,0:0|0:0,0:0:0:0:
104,148,19849,2,0,P|144:132|184:132,1,80,0|0,0:0|0:0,0:0:0:0:
264,300,20149,2,0,P|224:316|184:316,1,80,8|0,0:0|0:0,0:0:0:0:
124,244,20449,5,0,0:0:0:0:
104,136,20599,2,0,L|92:52,2,80,2|2|2,0:0|0:0|0:0,0:0:0:0:
124,244,21049,1,0,0:0:0:0:
220,232,21199,2,0,P|256:212|284:172,1,80,2|2,0:0|0:0,0:0:0:0:
296,88,21499,1,0,0:0:0:0:
368,40,21649,6,0,P|384:84|376:124,1,80,2|0,0:0|0:0,0:0:0:0:
372,268,21949,2,0,P|356:224|364:184,1,80,2|2,0:0|0:0,0:0:0:0:
388,100,22249,1,2,0:0:0:0:
424,16,22399,1,0,0:0:0:0:
508,48,22549,1,2,0:0:0:0:
472,132,22699,1,0,0:0:0:0:
436,212,22849,6,0,L|396:300,1,80,0|2,0:0|0:0,0:0:0:0:
344,352,23149,1,2,0:0:0:0:
260,384,23299,1,2,0:0:0:0:
172,368,23449,2,0,L|84:328,1,80,0|2,0:0|0:0,0:0:0:0:
36,272,23749,1,2,0:0:0:0:
4,188,23899,1,0,0:0:0:0:
32,96,24049,6,0,P|56:64|96:44,1,80,2|0,0:0|0:0,0:0:0:0:
184,56,24349,2,0,P|216:80|236:120,1,80,2|2,0:0|0:0,0:0:0:0:
224,208,24649,2,0,P|200:240|160:260,1,80,2|0,0:0|0:0,0:0:0:0:
72,248,24949,2,0,P|40:224|20:184,1,80,2|2,0:0|0:0,0:0:0:0:
32,96,25249,5,0,0:0:0:0:
124,80,25399,2,0,P|164:72|200:48,1,80,2|2,0:0|0:0,0:0:0:0:
280,8,25699,1,0,0:0:0:0:
272,104,25849,2,0,P|264:144|232:184,1,80,0|2,0:0|0:0,0:0:0:0:
116,264,26149,2,0,P|124:224|156:184,1,80,2|0,0:0|0:0,0:0:0:0:
232,152,26449,5,2,0:0:0:0:
324,120,26599,1,0,0:0:0:0:
420,128,26749,1,2,0:0:0:0:
476,204,26899,1,2,0:0:0:0:
464,296,27049,2,0,P|452:336|424:368,1,80,2|0,0:0|0:0,0:0:0:0:
348,272,27349,2,0,P|360:232|388:200,1,80,2|0,0:0|0:0,0:0:0:0:
496,156,27649,5,0,0:0:0:0:
408,168,27799,1,2,0:0:0:0:
328,208,27949,1,2,0:0:0:0:
240,196,28099,1,2,0:0:0:0:
188,124,28249,1,0,0:0:0:0:
240,196,28399,1,2,0:0:0:0:
312,248,28549,1,2,0:0:0:0:
328,336,28699,1,0,0:0:0:0:
408,288,28849,6,0,P|444:264|464:220,1,80,2|0,0:0|0:0,0:0:0:0:
448,124,29149,2,0,P|396:148|360:212,1,120,2|2,0:0|0:0,0:0:0:0:
336,228,29449,2,0,P|332:272|312:300,1,80,2|0,0:0|0:0,0:0:0:0:
240,356,29749,2,0,L|196:336,3,40,2|0|2|0,0:0|0:0|0:0|0:0,0:0:0:0:
180,328,30049,6,0,L|88:288,1,80,0|2,0:0|0:0,0:0:0:0:
32,180,30349,2,0,L|124:220,1,80,2|0,0:0|0:0,0:0:0:0:
188,240,30649,1,0,0:0:0:0:
276,248,30799,1,2,0:0:0:0:
360,220,30949,1,2,0:0:0:0:
392,136,31099,1,0,0:0:0:0:
392,136,31249,6,0,L|316:160,1,80,2|0,0:0|0:0,0:0:0:0:
284,272,31549,2,0,L|360:248,1,80,2|0,0:0|0:0,0:0:0:0:
440,188,31849,1,2,0:0:0:0:
464,100,31999,1,2,0:0:0:0:
440,188,32149,1,0,0:0:0:0:
460,272,32299,1,2,0:0:0:0:
409,344,32449,6,0,P|377:368|337:376,1,80,0|2,0:0|0:0,0:0:0:0:
257,339,32749,1,2,0:0:0:0:
216,261,32899,1,0,0:0:0:0:
228,173,33049,2,0,P|260:149|300:141,1,80,0|2,0:0|0:0,0:0:0:0:
380,178,33349,1,2,0:0:0:0:
421,256,33499,1,0,0:0:0:0:
421,256,33649,6,0,L|477:320,1,80,2|2,0:0|0:0,0:0:0:0:
350,222,33949,2,0,L|294:158,1,80,2|0,0:0|0:0,0:0:0:0:
212,116,34249,1,2,0:0:0:0:
180,236,34399,1,0,0:0:0:0:
216,348,34549,2,0,L|236:384,2,40,2|0|2,0:0|0:0|0:0,0:0:0:0:
124,300,34849,6,0,P|117:260|99:225,1,80,0|2,0:0|0:0,0:0:0:0:
104,120,35149,2,0,P|122:84|128:45,1,80,2|2,0:0|0:0,0:0:0:0:
236,76,35449,1,0,0:0:0:0:
316,108,35599,1,2,0:0:0:0:
280,188,35749,1,2,0:0:0:0:
332,260,35899,1,0,0:0:0:0:
420,276,36049,6,0,P|456:288|492:320,2,80,2|0|2,0:0|0:0|0:0,0:0:0:0:
332,260,36499,1,0,0:0:0:0:
244,276,36649,2,0,P|208:288|172:320,2,80,2|2|0,0:0|0:0|0:0,0:0:0:0:
332,260,37099,1,2,0:0:0:0:
376,172,37249,6,0,B|380:148|380:148|392:124|392:124|396:96|396:96|400:80,1,80,0|2,0:0|0:0,0:0:0:0:
296,24,37549,2,2,B|296:68|296:84|292:92|292:92|296:108,1,80,2|0,0:0|0:0,0:0:0:0:
216,188,37849,2,0,B|220:160|220:160|216:148|216:148|212:128|212:128|216:112|212:88,1,80,0|2,0:0|0:0,0:0:0:0:
136,16,38149,2,0,B|136:40|136:40|140:60|140:60|140:68|132:80|136:100|136:100|136:112,1,80,2|0,0:0|0:0,0:0:0:0:
96,184,38449,5,2,0:0:0:0:
128,264,38599,1,0,0:0:0:0:
208,304,38749,1,2,0:0:0:0:
176,224,38899,1,2,0:0:0:0:
204,140,39049,1,0,0:0:0:0:
236,220,39199,1,2,0:0:0:0:
316,260,39349,1,2,0:0:0:0:
284,180,39499,1,0,0:0:0:0:
304,96,39649,5,2,0:0:0:0:
304,96,39799,2,0,P|344:112|372:216,1,160,2|0,0:0|0:0,0:0:0:0:
152,304,40399,2,0,L|72:344,2,80,0|2|0,0:0|0:0|0:0,0:0:0:0:
232,264,40849,5,2,0:0:0:0:
232,264,40999,2,0,B|281:238|281:238|304:195|304:195|354:170,1,160,2|0,0:0|0:0,0:0:0:0:
220,40,41599,2,0,P|256:28|304:36,1,80,0|2,0:0|0:0,0:0:0:0:
368,88,41899,1,0,0:0:0:0:
416,164,42049,5,2,0:0:0:0:
292,196,42199,1,2,0:0:0:0:
116,164,42499,2,0,P|100:204|108:248,2,80,0|2|0,0:0|0:0|0:0,0:0:0:0:
184,104,42949,1,2,0:0:0:0:
272,76,43099,1,0,0:0:0:0:
360,48,43249,6,0,L|440:24,1,80,2|0,0:0|0:0,0:0:0:0:
344,136,43549,2,0,L|424:112,1,80,2|0,0:0|0:0,0:0:0:0:
480,176,43849,1,2,0:0:0:0:
452,288,43999,1,2,0:0:0:0:
452,288,44299,2,0,L|412:300,1,40,0|0,0:0|0:0,0:0:0:0:
360,304,44449,6,0,P|284:288|208:316,1,160,2|0,0:0|0:0,0:0:0:0:
140,372,44899,1,2,0:0:0:0:
72,188,45199,2,0,P|64:148|36:108,2,80,0|2|0,0:0|0:0|0:0,0:0:0:0:
96,272,45649,1,2,0:0:0:0:
96,272,45799,2,0,B|171:244|171:244|237:193,2,160,2|0|2,0:0|0:0|0:0,0:0:0:0:
16,232,46549,2,0,P|0:184|4:148,1,80,2|0,0:0|0:0,0:0:0:0:
56,84,46849,5,2,0:0:0:0:
208,188,47149,1,0,0:0:0:0:
356,288,47449,1,2,0:0:0:0:
408,200,47599,1,0,0:0:0:0:
404,104,47749,2,0,P|396:60|368:28,1,80,2|0,0:0|0:0,0:0:0:0:
272,72,48049,5,2,0:0:0:0:
272,72,48199,1,0,0:0:0:0:
224,152,48349,2,0,P|204:188|208:232,1,80,2|0,0:0|0:0,0:0:0:0:
287,305,48649,2,0,P|307:269|303:225,1,80,2|0,0:0|0:0,0:0:0:0:
232,168,48949,2,0,P|212:204|216:248,1,80,2|0,0:0|0:0,0:0:0:0:
272,312,49249,6,0,P|312:320|356:308,1,80,8|0,0:0|0:0,0:0:0:0:
412,248,49549,2,0,P|404:208|420:156,1,80,8|8,0:0|0:0,0:0:0:0:
436,84,49849,2,0,P|444:44|436:4,1,80,0|0,0:0|0:0,0:0:0:0:
368,48,50149,2,0,P|360:88|368:128,1,80,8|0,0:0|0:0,0:0:0:0:
400,200,50449,5,0,0:0:0:0:
404,280,50599,1,0,0:0:0:0:
352,344,50749,2,0,P|316:364|276:364,1,80,8|0,0:0|0:0,0:0:0:0:
200,332,51049,1,8,0:0:0:0:
200,332,51199,1,8,0:0:0:0:
308,192,51499,1,8,0:0:0:0:
216,192,51649,6,0,L|132:192,2,80,0|0|8,0:0|0:0|0:0,0:0:0:0:
308,192,52099,1,0,0:0:0:0:
384,160,52249,2,0,P|420:140|460:144,1,80,0|0,0:0|0:0,0:0:0:0:
436,224,52549,2,0,P|400:244|360:240,1,80,8|0,0:0|0:0,0:0:0:0:
284,200,52849,5,8,0:0:0:0:
284,200,52999,1,0,0:0:0:0:
204,152,53149,2,0,L|128:104,1,80,8|8,0:0|0:0,0:0:0:0:
28,188,53449,2,0,P|68:196|108:188,1,80,8|0,0:0|0:0,0:0:0:0:
232,172,53749,2,0,P|192:164|152:172,1,80,8|0,0:0|0:0,0:0:0:0:
66,157,54049,5,0,0:0:0:0:
98,75,54199,1,0,0:0:0:0:
185,82,54349,2,0,P|229:82|269:58,1,80,8|0,0:0|0:0,0:0:0:0:
345,88,54649,1,0,0:0:0:0:
313,170,54799,2,0,P|313:214|337:254,2,80,0|8|0,0:0|0:0|0:0,0:0:0:0:
355,93,55249,6,0,P|403:117|423:149,1,80,8|0,0:0|0:0,0:0:0:0:
386,220,55549,2,0,P|338:196|318:164,1,80,8|8,0:0|0:0,0:0:0:0:
292,92,55849,1,8,0:0:0:0:
192,120,55999,1,8,0:0:0:0:
192,120,56299,1,8,0:0:0:0:
228,192,56449,6,0,B|248:236|248:236|252:252|252:252|264:268,1,80,0|0,0:0|0:0,0:0:0:0:
188,332,56749,2,0,P|224:352|272:356,1,80,8|0,0:0|0:0,0:0:0:0:
360,384,57049,2,0,P|380:348|376:308,1,80,0|0,0:0|0:0,0:0:0:0:
464,268,57349,2,0,P|436:224|408:208,1,80,8|0,0:0|0:0,0:0:0:0:
320,184,57649,5,0,0:0:0:0:
228,148,57799,1,0,0:0:0:0:
350,196,57949,1,8,0:0:0:0:
228,148,58099,1,0,0:0:0:0:
116,136,58249,2,0,P|72:144|40:164,1,80,8|0,0:0|0:0,0:0:0:0:
61,262,58549,2,0,P|105:254|137:234,1,80,8|0,0:0|0:0,0:0:0:0:
220,177,58849,6,0,L|288:160,1,55.9999982910157,6|0,0:0|0:0,0:0:0:0:
154,140,59149,2,0,L|137:72,1,55.9999982910157,2|0,0:0|0:0,0:0:0:0:
118,208,59449,2,0,L|50:225,1,55.9999982910157,2|0,0:0|0:0,0:0:0:0:
186,244,59749,2,0,L|203:312,1,55.9999982910157,8|0,0:0|0:0,0:0:0:0:
167,193,60049,5,2,0:0:0:0:
226,161,60199,1,0,0:0:0:0:
292,168,60349,1,2,0:0:0:0:
331,222,60499,1,0,0:0:0:0:
335,289,60649,2,0,B|340:316|340:316|357:342,1,55.9999982910157,2|2,0:0|0:0,0:0:0:0:
434,342,60949,2,0,B|427:316|427:316|412:289,1,55.9999982910157,10|0,0:0|0:0,0:0:0:0:
389,175,61249,5,0,0:0:0:0:
351,111,61399,2,0,B|335:88|335:88|303:71,2,55.9999982910157,2|2|0,0:0|0:0|0:0,0:0:0:0:
389,175,61849,1,0,0:0:0:0:
313,193,61999,2,0,L|253:206,2,55.9999982910157,2|2|2,0:0|0:0|0:0,0:0:0:0:
374,251,62449,5,2,0:0:0:0:
301,257,62599,1,0,0:0:0:0:
239,296,62749,1,2,0:0:0:0:
175,261,62899,1,2,0:0:0:0:
170,188,63049,2,0,L|164:121,1,55.9999982910157,2|0,0:0|0:0,0:0:0:0:
261,159,63349,2,0,L|267:226,1,55.9999982910157,2|0,0:0|0:0,0:0:0:0:
268,245,63574,1,2,0:0:0:0:
278,277,63649,6,0,B|299:302|299:302|334:316,1,55.9999982910157,2|0,0:0|0:0,0:0:0:0:
443,350,63949,2,0,B|422:325|422:325|387:311,1,55.9999982910157,2|0,0:0|0:0,0:0:0:0:
296,232,64249,2,8,B|301:264|301:264|324:293,1,55.9999982910157,2|0,0:0|0:0,0:0:0:0:
402,377,64549,2,8,B|396:344|396:344|373:315,1,55.9999982910157,2|0,0:0|0:0,0:0:0:0:
336,200,64849,2,8,B|324:230|324:230|330:267,1,55.9999982910157,2|0,0:0|0:0,0:0:0:0:
355,379,65149,2,8,B|366:348|366:348|360:311,1,55.9999982910157,2|0,0:0|0:0,0:0:0:0:
382,202,65449,2,8,B|357:223|357:223|343:258,1,55.9999982910157,2|0,0:0|0:0,0:0:0:0:
309,366,65749,2,8,B|334:345|334:345|348:309,1,55.9999982910157,2|0,0:0|0:0,0:0:0:0:
340,252,66049,5,0,0:0:0:0:
276,220,66199,1,2,0:0:0:0:
228,168,66349,1,2,0:0:0:0:
220,96,66499,1,0,0:0:0:0:
160,140,66649,1,0,0:0:0:0:
226,168,66799,1,2,0:0:0:0:
299,177,66949,1,2,0:0:0:0:
367,155,67099,1,0,0:0:0:0:
426,113,67249,6,0,L|412:169,1,55.9999982910157,2|0,0:0|0:0,0:0:0:0:
382,234,67549,1,2,0:0:0:0:
321,274,67699,1,2,0:0:0:0:
248,276,67849,2,0,B|220:276|220:276|192:264,1,55.9999982910157,2|0,0:0|0:0,0:0:0:0:
168,340,68149,2,0,B|196:340|196:340|224:352,1,55.9999982910157,2|0,0:0|0:0,0:0:0:0:
296,332,68449,5,2,0:0:0:0:
384,296,68749,1,0,0:0:0:0:
436,220,69049,1,2,0:0:0:0:
436,220,69199,1,0,0:0:0:0:
436,220,69349,1,2,0:0:0:0:
436,220,69499,1,0,0:0:0:0:
432,120,69649,5,2,0:0:0:0:
344,156,69949,1,0,0:0:0:0:
292,232,70249,1,2,0:0:0:0:
292,232,70399,1,0,0:0:0:0:
292,232,70549,1,2,0:0:0:0:
292,232,70699,1,0,0:0:0:0:
264,320,70849,6,0,P|244:344|192:368,2,80,2|0|2,0:0|0:0|0:0,0:0:0:0:
300,244,71599,2,0,L|300:200,2,40,0|2|0,0:0|0:0|0:0,0:0:0:0:
336,320,72049,6,0,P|356:344|408:368,2,80,2|0|2,0:0|0:0|0:0,0:0:0:0:
300,244,72799,1,0,0:0:0:0:
300,200,72949,1,2,0:0:0:0:
300,156,73099,1,0,0:0:0:0:
300,112,73249,5,2,0:0:0:0:
300,112,73549,1,0,0:0:0:0:
440,56,73849,2,0,L|480:52,1,40,2|0,0:0|0:0,0:0:0:0:
364,56,74149,2,0,L|324:52,1,40,2|0,0:0|0:0,0:0:0:0:
248,44,74449,5,2,0:0:0:0:
248,44,74749,1,0,0:0:0:0:
108,56,75049,2,0,L|60:64,1,40,2|0,0:0|0:0,0:0:0:0:
188,96,75349,2,0,L|232:100,1,40,2|0,0:0|0:0,0:0:0:0:
140,176,75649,5,2,0:0:0:0:
136,192,75949,1,0,0:0:0:0:
160,284,76249,2,0,L|208:296,1,40,2|0,0:0|0:0,0:0:0:0:
276,280,76549,2,0,L|324:268,1,40,2|0,0:0|0:0,0:0:0:0:
396,216,76849,5,2,0:0:0:0:
396,216,77149,1,0,0:0:0:0:
396,216,77449,1,2,0:0:0:0:
452,112,77599,1,0,0:0:0:0:
396,216,77749,1,2,0:0:0:0:
452,112,77899,1,0,0:0:0:0:
452,112,77974,1,0,0:0:0:0:
452,112,78049,5,4,0:0:0:0:
256,192,78349,12,4,82849,0:0:0:0:
256,192,87649,5,0,0:0:0:0:
256,192,87799,1,8,0:0:0:0:
436,68,88249,1,0,0:0:0:0:
436,68,88849,5,0,0:0:0:0:
436,68,88999,1,8,0:0:0:0:
256,192,89449,1,0,0:0:0:0:
256,192,89749,2,0,P|260:232|288:268,1,80,8|8,0:0|0:0,0:0:0:0:
360,308,90049,5,0,0:0:0:0:
448,320,90199,1,0,0:0:0:0:
360,308,90349,2,0,P|320:284|304:252,1,80,8|0,0:0|0:0,0:0:0:0:
216,120,90649,2,0,P|256:144|272:176,1,80,0|0,0:0|0:0,0:0:0:0:
312,340,90949,2,0,P|284:296|280:260,1,80,8|0,0:0|0:0,0:0:0:0:
280,180,91249,5,0,0:0:0:0:
332,108,91399,1,0,0:0:0:0:
412,56,91549,2,0,P|448:36|488:32,1,80,8|0,0:0|0:0,0:0:0:0:
412,56,91849,2,0,P|453:56|489:73,1,80,0|0,0:0|0:0,0:0:0:0:
316,64,92149,2,0,P|274:63|238:46,1,80,8|0,0:0|0:0,0:0:0:0:
152,40,92449,5,0,0:0:0:0:
72,80,92599,1,0,0:0:0:0:
52,164,92749,2,0,P|76:196|80:248,1,80,8|0,0:0|0:0,0:0:0:0:
52,320,93049,1,0,0:0:0:0:
140,332,93199,2,0,P|188:344|228:340,2,80,0|8|0,0:0|0:0|0:0,0:0:0:0:
304,316,93649,5,0,0:0:0:0:
384,284,93799,2,0,L|472:256,2,80,0|8|0,0:0|0:0|0:0,0:0:0:0:
304,316,94249,1,0,0:0:0:0:
284,232,94399,2,0,L|268:144,2,80,0|8|0,0:0|0:0|0:0,0:0:0:0:
372,280,94849,6,0,P|440:255|457:163,1,160,0|8,0:0|0:0,0:0:0:0:
376,192,95299,1,0,0:0:0:0:
312,132,95449,2,0,L|252:72,2,80,0|0|8,0:0|0:0|0:0,0:0:0:0:
376,192,95899,1,0,0:0:0:0:
360,280,96049,6,0,P|320:292|200:276,1,160,0|8,0:0|0:0,0:0:0:0:
112,232,96499,1,0,0:0:0:0:
108,128,96649,2,0,P|148:116|268:132,1,160,0|8,0:0|0:0,0:0:0:0:
298,213,97099,1,0,0:0:0:0:
301,221,97174,1,0,0:0:0:0:
303,229,97249,5,0,0:0:0:0:
408,56,97549,2,0,P|432:88|440:128,1,80,8|0,0:0|0:0,0:0:0:0:
408,328,97999,2,0,P|432:296|440:256,2,80,0|8|0,0:0|0:0|0:0,0:0:0:0:
316,304,98449,6,0,P|244:288|160:304,1,160,2|8,0:0|0:0,0:0:0:0:
96,208,98899,2,0,P|176:224|252:208,1,160,0|0,0:0|0:0,0:0:0:0:
252,207,99349,1,8,0:0:0:0:
332,164,99499,1,0,0:0:0:0:
412,116,99649,6,0,L|488:76,2,80,2|0|8,0:0|0:0|0:0,0:0:0:0:
348,44,100099,1,0,0:0:0:0:
252,208,100399,2,0,L|176:248,2,80,0|8|0,0:0|0:0|0:0,0:0:0:0:
424,276,100849,6,0,P|456:244|468:208,1,80,2|0,0:0|0:0,0:0:0:0:
384,164,101149,2,0,P|395:120|388:83,1,80,8|0,0:0|0:0,0:0:0:0:
296,116,101449,2,0,P|264:148|252:184,1,80,2|0,0:0|0:0,0:0:0:0:
336,228,101749,2,0,P|324:271|331:308,1,80,8|0,0:0|0:0,0:0:0:0:
416,352,102049,6,0,P|452:328|440:216,1,160,2|8,0:0|0:0,0:0:0:0:
408,32,102649,2,0,P|372:56|384:168,1,160,2|8,0:0|0:0,0:0:0:0:
288,364,103249,6,0,P|320:292|300:212,1,160,2|8,0:0|0:0,0:0:0:0:
244,20,103849,2,0,P|212:92|232:172,1,160,2|8,0:0|0:0,0:0:0:0:
228,169,104299,1,0,0:0:0:0:
304,228,104449,6,0,P|352:244|384:244,2,80,2|0|8,0:0|0:0|0:0,0:0:0:0:
208,156,104899,2,0,P|160:140|128:140,2,80,0|2|0,0:0|0:0|0:0,0:0:0:0:
304,156,105349,2,0,P|352:140|384:140,1,80,8|0,0:0|0:0,0:0:0:0:
452,208,105649,6,0,P|468:248|464:292,1,80,2|0,0:0|0:0,0:0:0:0:
404,348,105949,1,8,0:0:0:0:
384,260,106099,2,0,P|352:188|272:148,2,160,2|0|0,0:0|0:0|0:0,0:0:0:0:
316,328,106849,6,0,P|276:336|236:332,1,80,4|0,0:0|0:0,0:0:0:0:
184,252,107149,2,0,P|223:244|262:247,1,80,8|0,0:0|0:0,0:0:0:0:
352,280,107449,1,0,0:0:0:0:
420,212,107599,1,0,0:0:0:0:
424,176,107674,1,0,0:0:0:0:
432,136,107749,2,0,B|436:96|436:96|428:56,1,80,8|0,0:0|0:0,0:0:0:0:
336,32,108049,6,0,P|304:56|188:64,1,160,0|8,0:0|0:0,0:0:0:0:
112,124,108499,1,0,0:0:0:0:
112,220,108649,2,0,B|114:261|114:261|128:299,1,80
312,276,108949,2,0,B|309:234|309:234|295:196,1,80,8|0,0:0|0:0,0:0:0:0:
212,248,109249,5,0,0:0:0:0:
160,168,109399,2,0,P|152:128|164:84,1,80,0|8,0:0|0:0,0:0:0:0:
232,24,109699,1,0,0:0:0:0:
296,96,109849,2,0,B|312:112|320:132|320:132|384:132|436:148,1,160,0|8,0:0|0:0,0:0:0:0:
464,240,110299,1,0,0:0:0:0:
400,312,110449,6,0,P|360:328|320:328,1,80
268,252,110749,2,0,P|308:236|348:236,1,80,8|0,0:0|0:0,0:0:0:0:
400,312,111049,1,0,0:0:0:0:
320,362,111199,1,0,0:0:0:0:
241,312,111349,1,8,0:0:0:0:
326,266,111499,1,0,0:0:0:0:
400,312,111649,5,2,0:0:0:0:
320,362,111799,1,0,0:0:0:0:
241,312,111949,2,0,P|220:276|216:232,1,80,8|0,0:0|0:0,0:0:0:0:
308,160,112249,2,0,P|329:196|333:240,1,80
241,312,112549,2,0,P|220:276|216:232,1,80,8|0,0:0|0:0,0:0:0:0:
280,168,112849,5,2,0:0:0:0:
316,80,112999,1,0,0:0:0:0:
220,92,113149,2,8,P|184:132|180:164,1,80,8|0,0:0|0:0,0:0:0:0:
136,284,113449,2,0,P|172:244|176:212,1,80,0|0,0:0|0:0,0:0:0:0:
248,100,113749,2,0,L|216:184,1,80,8|0,0:0|0:0,0:0:0:0:
224,264,114049,5,2,0:0:0:0:
224,264,114199,1,0,0:0:0:0:
320,264,114349,2,0,L|404:264,1,80,8|0,0:0|0:0,0:0:0:0:
444,180,114649,1,0,0:0:0:0:
444,180,114799,1,0,0:0:0:0:
348,180,114949,2,0,L|264:180,1,80,8|0,0:0|0:0,0:0:0:0:
168,208,115249,6,0,P|140:240|128:276,1,80,2|0,0:0|0:0,0:0:0:0:
232,288,115549,2,0,P|264:316|300:328,1,80,8|2,0:0|0:0,0:0:0:0:
312,224,115849,2,0,P|340:192|352:156,1,80,0|0,0:0|0:0,0:0:0:0:
248,144,116149,2,0,P|216:116|180:104,1,80,10|0,0:0|0:0,0:0:0:0:
92,96,116449,5,0,0:0:0:0:
96,184,116599,2,0,P|132:216|176:220,1,88.000002685547,8|8,0:0|0:0,0:0:0:0:
284,176,116899,2,0,P|248:144|204:140,2,88.000002685547,0|0|8,0:0|0:0|0:0,0:0:0:0:
269,262,117349,1,8,0:0:0:0:
332,323,117499,1,0,0:0:0:0:
419,314,117649,6,8,P|460:296|488:257,1,88.000002685547,8|0,0:0|0:0,0:0:0:0:
504,176,117949,2,0,P|472:108|380:104,1,176.000005371094,8|8,0:0|0:0,0:0:0:0:
296,132,118399,1,0,0:0:0:0:
220,92,118549,1,8,0:0:0:0:
144,140,118699,1,0,0:0:0:0:
72,88,118849,6,0,L|48:172,1,88.000002685547,0|8,0:0|0:0,0:0:0:0:
48,264,119149,1,8,0:0:0:0:
108,340,119299,1,0,0:0:0:0:
172,268,119449,2,0,L|150:182,2,88.000002685547,0|0|0,0:0|0:0|0:0,0:0:0:0:
244,332,119899,1,0,0:0:0:0:
332,368,120049,6,0,P|384:380|428:372,1,88.000002685547,8|0,0:0|0:0,0:0:0:0:
512,328,120349,2,0,P|460:316|416:324,1,88.000002685547,8|8,0:0|0:0,0:0:0:0:
332,296,120649,1,8,0:0:0:0:
256,232,120799,2,0,P|224:204|180:200,2,88.000002685547,0|8|0,0:0|0:0|0:0,0:0:0:0:
336,196,121249,5,0,0:0:0:0:
408,148,121399,1,8,0:0:0:0:
440,68,121549,1,8,0:0:0:0:
408,148,121699,1,0,0:0:0:0:
329,107,121849,2,0,P|285:101|248:78,1,88.000002685547,0|8,0:0|0:0,0:0:0:0:
201,205,122149,2,0,P|230:172|270:154,1,88.000002685547,0|8,0:0|0:0,0:0:0:0:
186,51,122449,6,8,P|195:93|187:136,1,88.000002685547,8|0,0:0|0:0,0:0:0:0:
195,224,122749,1,8,0:0:0:0:
254,288,122899,1,8,0:0:0:0:
332,327,123049,2,0,P|378:342|425:342,1,88.000002685547,8|0,0:0|0:0,0:0:0:0:
351,227,123349,2,0,P|305:212|258:212,1,88.000002685547,8|0,0:0|0:0,0:0:0:0:
172,148,123649,5,0,0:0:0:0:
186,43,123799,1,8,0:0:0:0:
260,120,123949,1,8,0:0:0:0:
155,102,124099,1,0,0:0:0:0:
232,31,124249,1,0,0:0:0:0:
218,135,124399,1,8,0:0:0:0:
144,59,124549,1,8,0:0:0:0:
248,77,124699,1,0,0:0:0:0:
320,160,124849,6,0,L|408:160,1,88.000002685547,8|0,0:0|0:0,0:0:0:0:
492,180,125149,2,0,P|456:232|384:240,1,132.00000402832,8|0,0:0|0:0,0:0:0:0:
348,236,125449,1,8,0:0:0:0:
260,248,125599,1,0,0:0:0:0:
180,284,125749,1,8,0:0:0:0:
96,256,125899,1,0,0:0:0:0:
60,176,126049,6,0,P|48:128|64:88,2,88.000002685547,0|10|10,0:0|0:0|0:0,0:0:0:0:
96,256,126499,1,0,0:0:0:0:
168,208,126649,2,0,P|216:196|256:212,2,88.000002685547,0|10|10,0:0|0:0|0:0,0:0:0:0:
96,256,127099,1,0,0:0:0:0:
120,172,127249,6,0,P|140:132|184:112,1,88.000002685547,10|0,0:0|0:0,0:0:0:0:
280,40,127549,2,0,P|260:80|216:100,1,88.000002685547,10|10,0:0|0:0,0:0:0:0:
168,192,127849,2,0,P|180:236|212:268,1,88.000002685547,10|0,0:0|0:0,0:0:0:0:
364,328,128149,2,0,P|352:284|320:252,1,88.000002685547,10|10,0:0|0:0,0:0:0:0:
256,196,128449,5,0,0:0:0:0:
216,120,128599,1,10,0:0:0:0:
304,120,128749,1,10,0:0:0:0:
376,72,128899,1,10,0:0:0:0:
384,160,129049,1,0,0:0:0:0:
460,120,129199,1,10,0:0:0:0:
460,208,129349,1,10,0:0:0:0:
380,248,129499,1,0,0:0:0:0:
456,296,129649,6,0,L|464:348,2,44.0000013427735,10|0|0,0:0|0:0|0:0,0:0:0:0:
380,248,129949,2,0,P|328:240|248:264,1,132.00000402832,10|0,0:0|0:0,0:0:0:0:
212,280,130249,2,0,P|168:296|116:296,1,88.000002685547,10|0,0:0|0:0,0:0:0:0:
44,276,130549,2,0,L|4:260,2,44.0000013427735,10|0|0,0:0|0:0|0:0,0:0:0:0:
132,292,130849,5,0,0:0:0:0:
216,268,130999,1,10,0:0:0:0:
296,308,131149,1,10,0:0:0:0:
376,268,131299,1,10,0:0:0:0:
440,332,131449,1,0,0:0:0:0:
376,268,131599,1,10,0:0:0:0:
372,180,131749,1,10,0:0:0:0:
404,96,131899,1,0,0:0:0:0:
404,96,132049,6,0,P|436:64|480:52,1,88.000002685547,10|0,0:0|0:0,0:0:0:0:
372,180,132349,2,0,P|340:212|296:224,1,88.000002685547,10|10,0:0|0:0,0:0:0:0:
220,188,132649,1,2,0:0:0:0:
144,144,132799,1,10,0:0:0:0:
64,176,132949,1,10,0:0:0:0:
8,108,133099,1,0,0:0:0:0:
8,108,133249,6,0,P|8:152|28:192,1,88.000002685547,0|10,0:0|0:0,0:0:0:0:
92,252,133549,1,10,0:0:0:0:
176,280,133699,1,0,0:0:0:0:
264,280,133849,2,0,P|306:268|339:238,1,88.000002685547,0|10,0:0|0:0,0:0:0:0:
360,152,134149,1,10,0:0:0:0:
324,72,134299,1,0,0:0:0:0:
244,36,134449,6,2,P|201:47|168:77,1,88.000002685547,2|0,0:0|0:0,0:0:0:0:
217,181,134749,1,10,0:0:0:0:
268,284,134899,2,0,P|228:324|88:324,1,176.000005371094,10|0,0:0|0:0,0:0:0:0:
28,240,135349,1,10,0:0:0:0:
68,116,135499,1,0,0:0:0:0:
156,212,135649,5,4,0:0:0:0:
