osu file format v14

[General]
AudioFilename: BLACK or WHITE.mp3
AudioLeadIn: 0
PreviewTime: 52137
Countdown: 0
SampleSet: Soft
StackLeniency: 0.7
Mode: 0
LetterboxInBreaks: 0
WidescreenStoryboard: 0

[Editor]
Bookmarks: 49945
DistanceSpacing: 1.1
BeatDivisor: 4
GridSize: 32
TimelineZoom: 2.159999

[Metadata]
Title:BLACK or WHITE?
TitleUnicode:BLACK or WHITE?
Artist:BlackYooh vs. siromaru
ArtistUnicode:BlackYooh vs. siromaru
Creator:Fast
Version:SCV's INFINITE
Source:SOUND VOLTEX II -infinite infection-
Tags:SDVX BlackY KAC 2013 happy623 GUHROOVY HelloSCV Gurvy Gamu
BeatmapID:358362
BeatmapSetID:144158

[Difficulty]
HPDrainRate:7.5
CircleSize:4.5
OverallDifficulty:8
ApproachRate:9.3
SliderMultiplier:1.7
SliderTickRate:2

[Events]
//Background and Video events
0,0,"bg.jpg",0,0
//Break Periods
2,76803,79941
//Storyboard Layer 0 (Background)
//Storyboard Layer 1 (Fail)
//Storyboard Layer 2 (Pass)
//Storyboard Layer 3 (Foreground)
//Storyboard Sound Samples

[TimingPoints]
1360,324.324324324324,4,1,1,60,1,0
11414,-80,4,1,1,60,0,0
11738,-100,4,1,1,80,0,0
21792,-166.666666666667,4,1,1,80,0,0
22116,-83.3333333333333,4,1,1,80,0,0
22441,-166.666666666667,4,1,1,80,0,0
22684,-166.666666666667,4,2,1,35,0,0
22765,-83.3333333333333,4,1,1,80,0,0
23089,-166.666666666667,4,1,1,80,0,0
23332,-166.666666666667,4,2,1,35,0,0
23414,-83.3333333333333,4,1,1,80,0,0
23738,-166.666666666667,4,1,1,80,0,0
23981,-166.666666666667,4,2,1,35,0,0
24062,-100,4,1,1,80,0,0
24387,-166.666666666667,4,1,1,80,0,0
24630,-166.666666666667,4,2,1,35,0,0
24711,-83.3333333333333,4,1,1,80,0,0
25035,-166.666666666667,4,1,1,80,0,0
25278,-166.666666666667,4,2,1,35,0,0
25359,-83.3333333333333,4,1,1,80,0,0
25684,-166.666666666667,4,1,1,80,0,0
25927,-166.666666666667,4,2,1,35,0,0
26008,-100,4,1,1,80,0,0
26332,-166.666666666667,4,1,1,80,0,0
26576,-166.666666666667,4,2,1,35,0,0
26657,-100,4,1,1,80,0,0
27305,-166.666666666667,4,1,1,80,0,0
28603,-125,4,1,1,80,0,0
29900,-100,4,1,1,80,0,0
32495,-166.666666666667,4,2,1,40,0,0
37684,-166.666666666667,4,2,1,60,0,0
42873,-100,4,2,1,80,0,0
51954,-100,4,1,1,60,0,0
53251,-100,4,1,1,80,0,1
58116,-100,4,1,1,80,0,0
58359,-100,4,2,1,35,0,0
58441,-100,4,1,1,80,0,1
63305,-100,4,1,1,80,0,0
63630,-100,4,1,1,80,0,1
66224,-166.666666666667,4,1,1,80,0,0
66468,-166.666666666667,4,2,1,35,0,0
66549,-100,4,1,1,80,0,1
68738,-100,4,1,1,80,0,0
68819,-100,4,1,1,80,0,1
74008,-100,4,1,1,80,0,0
80495,-166.666666666667,4,2,1,30,0,0
81143,-166.666666666667,4,2,1,40,0,0
81792,-125,4,2,1,50,0,0
82441,-125,4,2,1,60,0,0
83089,-125,4,2,1,70,0,0
83738,-125,4,2,1,80,0,0
84387,-83.3333333333333,4,1,1,80,0,0
84711,-166.666666666667,4,1,1,80,0,0
84954,-166.666666666667,4,2,1,35,0,0
85035,-83.3333333333333,4,1,1,80,0,0
85359,-166.666666666667,4,1,1,80,0,0
85603,-166.666666666667,4,2,1,35,0,0
85684,-100,4,1,1,70,0,0
86981,-83.3333333333333,4,1,1,80,0,0
87305,-166.666666666667,4,1,1,80,0,0
87549,-166.666666666667,4,2,1,35,0,0
87630,-83.3333333333333,4,1,1,80,0,0
87954,-166.666666666667,4,1,1,80,0,0
88197,-166.666666666667,4,2,1,35,0,0
88278,-100,4,1,1,70,0,0
89576,-83.3333333333333,4,1,1,70,0,0
89900,-166.666666666667,4,1,1,70,0,0
90224,-83.3333333333333,4,1,1,70,0,0
90549,-166.666666666667,4,1,1,70,0,0
90873,-83.3333333333333,4,1,1,70,0,0
91197,-166.666666666667,4,1,1,70,0,0
91522,-100,4,1,1,70,0,0
91846,-166.666666666667,4,1,1,70,0,0
92170,-83.3333333333333,4,1,1,70,0,0
92495,-166.666666666667,4,1,1,70,0,0
92819,-83.3333333333333,4,1,1,70,0,0
93143,-166.666666666667,4,1,1,70,0,0
93468,-100,4,1,1,70,0,0
94765,-166.666666666667,4,1,1,70,0,0
95008,-166.666666666667,4,2,1,35,0,0
95089,-100,4,1,1,80,0,1
96224,-100,4,2,1,35,0,1
96305,-100,4,1,1,80,0,1
96468,-100,4,2,1,35,0,1
96549,-100,4,1,1,80,0,1
96873,-100,4,2,1,35,0,1
96954,-100,4,1,1,80,0,1
97116,-100,4,2,1,35,0,1
97197,-100,4,1,1,80,0,1
99954,-125,4,1,1,80,0,1
100197,-125,4,2,1,35,0,1
100278,-100,4,1,1,80,0,1
109684,-125,4,1,1,80,0,1
110008,-166.666666666667,4,1,1,80,0,0
110332,-100,4,1,1,50,0,1
110981,-100,4,1,1,60,0,1
111630,-100,4,1,1,70,0,1
112278,-100,4,1,1,80,0,1
115846,-100,4,1,1,80,0,0
116008,-100,4,2,1,94,0,0
116170,-100,4,2,1,90,0,0
116332,-100,4,2,1,86,0,0
116495,-100,4,2,1,82,0,0
116657,-100,4,2,1,70,0,0
116819,-100,4,2,1,66,0,0
116981,-100,4,2,1,62,0,0
117143,-100,4,2,1,58,0,0
117305,-100,4,2,1,54,0,0
117468,-100,4,2,1,50,0,0
117630,-100,4,2,1,46,0,0
117792,-100,4,2,1,42,0,0
117954,-100,4,2,1,39,0,0
118116,-100,4,2,1,37,0,0
118278,-100,4,2,1,35,0,0
118441,-100,4,2,1,33,0,0
118603,-100,4,2,1,31,0,0
118765,-100,4,2,1,29,0,0
118927,-100,4,2,1,27,0,0
119089,-100,4,2,1,25,0,0
119251,-100,4,2,1,23,0,0
119414,-100,4,2,1,21,0,0
119576,-100,4,2,1,19,0,0
119738,-100,4,2,1,17,0,0
119900,-100,4,2,1,15,0,0
120062,-100,4,2,1,13,0,0
120224,-100,4,2,1,11,0,0
120387,-100,4,2,1,9,0,0
120549,-100,4,2,1,7,0,0
120711,-100,4,2,1,5,0,0

[Colours]
Combo1 : 82,82,82
Combo2 : 132,132,132
Combo3 : 177,184,203

[HitObjects]
144,232,1360,5,4,0:0:0:0:
167,249,1441,1,0,0:0:0:0:
196,256,1522,1,0,0:0:0:0:
225,252,1603,1,0,0:0:0:0:
251,237,1684,2,0,L|284:204,3,42.5,2|0|0|0,0:2|0:0|0:0|0:0,0:0:0:0:
312,176,2008,5,0,0:0:0:0:
339,166,2089,1,0,0:0:0:0:
369,170,2171,1,0,0:0:0:0:
395,183,2252,1,0,0:0:0:0:
414,206,2333,2,0,L|433:248,3,42.5,2|0|0|0,0:2|0:0|0:0|0:0,0:0:0:0:
448,284,2657,21,0,0:0:0:0:
452,254,2738,1,0,0:0:0:0:
457,225,2819,1,0,0:0:0:0:
461,195,2900,1,0,0:0:0:0:
466,166,2981,2,0,L|476:104,3,42.5,2|0|0|0,0:2|0:0|0:0|0:0,0:0:0:0:
476,84,3306,5,0,0:0:0:0:
465,56,3387,1,0,0:0:0:0:
445,34,3468,1,0,0:0:0:0:
418,23,3549,1,0,0:0:0:0:
388,24,3630,2,0,L|332:24,3,42.5,2|0|0|0,0:2|0:0|0:0|0:0,0:0:0:0:
312,52,3954,21,0,0:0:0:0:
299,78,4035,1,0,0:0:0:0:
278,99,4117,1,0,0:0:0:0:
250,110,4198,1,0,0:0:0:0:
221,110,4279,2,0,L|172:88,3,42.5,2|0|0|0,0:2|0:0|0:0|0:0,0:0:0:0:
144,72,4603,5,0,0:0:0:0:
144,101,4684,1,0,0:0:0:0:
145,131,4765,1,0,0:0:0:0:
146,161,4846,1,0,0:0:0:0:
147,190,4927,2,0,L|120:248,3,42.5,2|0|0|0,0:2|0:0|0:0|0:0,0:0:0:0:
88,244,5252,21,0,0:0:0:0:
113,259,5333,1,0,0:0:0:0:
138,275,5414,1,0,0:0:0:0:
163,291,5495,1,0,0:0:0:0:
188,307,5576,2,0,L|232:296,3,42.5,2|0|0|0,0:2|0:0|0:0|0:0,0:0:0:0:
252,260,5900,5,0,0:0:0:0:
275,277,5981,1,0,0:0:0:0:
303,285,6062,1,0,0:0:0:0:
333,282,6144,1,0,0:0:0:0:
359,268,6225,2,0,L|380:324,3,42.5,2|0|0|0,0:2|0:0|0:0|0:0,0:0:0:0:
412,328,6549,21,2,0:2:0:0:
434,307,6630,1,2,0:2:0:0:
456,287,6711,1,0,0:0:0:0:
462,259,6792,1,2,0:2:0:0:
469,230,6873,2,0,L|452:180,3,42.5,2|0|0|0,0:2|0:0|0:0|0:0,0:0:0:0:
440,152,7198,5,2,0:2:0:0:
431,123,7279,1,0,0:0:0:0:
433,94,7360,1,2,0:2:0:0:
448,68,7441,1,2,0:2:0:0:
471,49,7522,2,0,L|416:32,3,42.5,2|0|0|0,0:2|0:0|0:0|0:0,0:0:0:0:
388,32,7846,21,2,0:2:0:0:
358,38,7927,1,2,0:2:0:0:
329,44,8008,1,0,0:0:0:0:
300,50,8089,1,2,0:2:0:0:
271,56,8171,2,0,L|208:68,3,42.5,2|0|0|0,0:2|0:0|0:0|0:0,0:0:0:0:
192,84,8495,5,2,0:2:0:0:
172,105,8576,1,0,0:0:0:0:
162,133,8657,1,2,0:2:0:0:
164,163,8738,1,2,0:2:0:0:
177,189,8819,21,2,0:2:0:0:
172,231,8900,1,0,0:0:0:0:
167,273,8981,1,0,0:0:0:0:
161,315,9062,1,0,0:0:0:0:
156,358,9144,6,0,L|108:368,1,42.5,6|0,0:2|0:0,0:0:0:0:
52,304,9306,2,0,L|93:295,1,42.5,2|0,0:2|0:0,0:0:0:0:
108,216,9468,2,0,L|59:225,1,42.5,6|0,0:2|0:0,0:0:0:0:
16,160,9630,2,0,L|57:151,1,42.5,2|0,0:2|0:0,0:0:0:0:
60,72,9792,22,0,L|108:84,1,42.5,6|0,0:2|0:0,0:0:0:0:
224,24,9954,2,0,L|237:71,1,42.5,2|0,0:2|0:0,0:0:0:0:
352,136,10117,2,0,L|317:171,1,42.5,6|0,0:2|0:0,0:0:0:0:
312,300,10279,2,0,L|264:288,1,42.5,2|0,0:2|0:0,0:0:0:0:
252,300,10765,5,2,0:2:0:0:
244,266,10846,1,0,0:0:0:0:
236,233,10927,1,2,0:2:0:0:
228,200,11008,1,0,0:0:0:0:
221,167,11089,1,2,0:2:0:0:
213,134,11171,1,0,0:0:0:0:
205,101,11252,1,2,0:2:0:0:
196,68,11333,1,0,0:0:0:0:
188,36,11414,22,0,P|132:80|56:48,1,159.375
52,40,11738,5,4,0:0:0:0:
88,188,11900,1,2,0:2:0:0:
84,212,11981,1,0,0:0:0:0:
80,236,12062,1,0,0:0:0:0:
228,200,12225,2,0,L|288:208,1,42.5
348,216,12387,21,0,0:0:0:0:
324,48,12549,1,2,0:2:0:0:
312,72,12630,1,0,0:0:0:0:
300,96,12711,1,0,0:0:0:0:
456,240,12873,2,0,L|448:188,1,42.5
436,120,13035,5,0,0:0:0:0:
384,292,13198,1,2,0:2:0:0:
360,296,13279,1,0,0:0:0:0:
336,300,13360,1,0,0:0:0:0:
108,296,13522,2,0,L|156:268,1,42.5
224,284,13684,2,0,L|228:200,1,85
228,176,13927,1,0,0:0:0:0:
228,152,14008,22,0,L|248:108,1,42.5,2|2,0:2|0:2,0:0:0:0:
352,172,14171,2,0,L|310:165,1,42.5,2|0,0:2|0:0,0:0:0:0:
320,88,14333,2,0,L|404:102,1,85,0|2,0:0|0:2,0:0:0:0:
464,152,14576,1,0,0:0:0:0:
464,152,14657,1,0,0:0:0:0:
336,300,14819,2,0,L|344:240,1,42.5
352,172,14981,5,0,0:0:0:0:
252,284,15144,1,2,0:2:0:0:
228,292,15225,1,0,0:0:0:0:
204,300,15306,1,0,0:0:0:0:
72,344,15468,2,0,L|48:308,1,42.5
0,248,15630,21,0,0:0:0:0:
103,134,15792,1,2,0:2:0:0:
100,160,15873,1,0,0:0:0:0:
96,185,15954,1,0,0:0:0:0:
204,72,16117,1,0,0:0:0:0:
204,72,16198,1,0,0:0:0:0:
204,72,16279,6,0,L|256:96,1,42.5,2|0,0:2|0:0,0:0:0:0:
352,100,16441,2,0,L|305:133,1,42.5,2|0,0:2|0:0,0:0:0:0:
256,212,16603,2,0,L|250:154,1,42.5,2|0,0:2|0:0,0:0:0:0:
304,36,16765,5,4,0:0:0:0:
336,200,16927,2,0,P|332:244|304:276,1,85,0|2,2:0|2:2,0:0:0:0:
180,224,17252,5,0,0:0:0:0:
103,134,17414,1,2,0:2:0:0:
108,110,17495,1,0,0:0:0:0:
115,85,17576,1,0,0:0:0:0:
20,192,17738,2,0,L|32:240,1,42.5
52,308,17900,5,0,0:0:0:0:
180,224,18062,1,2,0:2:0:0:
204,232,18144,1,0,0:0:0:0:
228,240,18225,1,0,0:0:0:0:
344,328,18387,2,0,L|352:280,1,42.5,0|0,0:0|0:0,0:0:0:0:
368,208,18549,21,0,0:0:0:0:
424,64,18711,1,2,0:2:0:0:
432,88,18792,1,0,0:0:0:0:
440,112,18873,1,0,0:0:0:0:
316,100,19035,1,0,0:0:0:0:
292,96,19117,1,0,0:0:0:0:
268,92,19198,6,0,L|216:84,1,42.5,2|0,0:2|0:0,0:0:0:0:
196,200,19360,2,0,L|222:167,1,42.5,2|2,0:2|0:2,0:0:0:0:
156,128,19522,2,0,L|103:193,1,85,0|2,0:0|0:2,0:0:0:0:
100,272,19765,1,0,0:0:0:0:
100,272,19846,1,0,0:0:0:0:
256,264,20008,2,0,L|300:300,1,42.5
352,340,20171,21,0,0:0:0:0:
492,248,20333,1,2,0:2:0:0:
468,240,20414,1,0,0:0:0:0:
444,232,20495,2,0,L|392:212,1,42.5
416,140,20657,2,0,L|455:155,1,42.5
344,168,20819,6,0,L|288:180,1,42.5,2|0,0:2|0:0,0:0:0:0:
188,112,20981,2,0,L|170:166,1,42.5,2|0,0:2|0:0,3:0:0:0:
52,200,21144,2,0,L|90:242,1,42.5,2|0,0:2|0:0,0:0:0:0:
92,364,21306,2,0,L|148:352,1,42.5,2|0,0:2|0:0,3:0:0:0:
208,280,21468,21,2,0:2:0:0:
237,284,21549,1,2,0:2:0:0:
266,288,21630,1,2,0:2:0:0:
296,292,21711,1,2,0:2:0:0:
325,297,21792,2,0,L|412:312,1,76.4999976654053,2|0,0:2|0:0,0:0:0:0:
416,312,22117,6,0,L|380:208,1,101.999996887207,2|2,0:2|0:2,0:0:0:0:
428,28,22441,6,0,P|444:63|445:100,1,76.4999976654053,4|0,0:0|0:0,0:0:0:0:
304,92,22765,22,0,L|180:108,1,101.999996887207,2|2,0:2|0:2,0:0:0:0:
36,201,23089,6,0,L|112:208,1,76.4999976654053,4|0,0:0|0:0,0:0:0:0:
108,332,23414,22,0,L|7:323,1,101.999996887207,2|2,0:2|0:2,0:0:0:0:
232,356,23738,6,0,P|264:340|312:340,1,76.4999976654053,4|0,0:0|0:0,0:0:0:0:
408,268,24062,6,0,L|440:172,1,85,2|2,0:2|0:2,0:0:0:0:
372,40,24387,22,0,L|348:113,1,76.4999976654053,4|0,0:0|0:0,0:0:0:0:
248,204,24711,22,0,L|236:92,1,101.999996887207,2|2,0:2|0:2,0:2:0:0:
124,20,25035,6,0,P|104:60|104:108,1,76.4999976654053,4|0,0:0|0:0,0:0:0:0:
0,160,25360,22,0,L|39:254,1,101.999996887207,2|2,0:2|0:2,0:0:0:0:
128,341,25684,6,0,P|100:367|64:376,1,76.4999976654053,4|0,0:0|0:0,0:0:0:0:
204,272,26008,22,0,L|292:280,1,85,2|2,0:2|0:2,0:0:0:0:
456,204,26333,6,0,L|376:212,1,76.4999976654053,4|0,0:0|0:0,0:0:0:0:
272,172,26657,6,0,L|256:104,2,56.6666666666667
175,28,26981,2,0,L|188:84,2,56.6666666666667,4|0|0,0:0|0:0|0:0,0:0:0:0:
132,176,27306,6,0,L|116:112,1,50.9999984436036,2|0,0:2|0:0,0:0:0:0:
40,248,27630,2,0,L|56:184,1,50.9999984436036
136,316,27954,2,0,L|120:252,1,50.9999984436036
40,384,28279,2,0,L|56:320,1,50.9999984436036
208,272,28603,22,0,L|276:304,1,68,2|0,0:2|0:0,0:0:0:0:
408,192,28927,2,0,L|340:224,1,68,0|0,0:0|0:0,0:0:0:0:
176,140,29252,2,0,L|244:172,1,68,0|0,0:0|0:0,0:0:0:0:
376,56,29576,2,0,L|308:88,1,68,0|0,0:0|0:0,0:0:0:0:
108,76,29900,6,0,L|80:164,1,85,2|0,0:2|0:0,0:0:0:0:
208,272,30225,2,0,L|233:191,1,85
172,132,30549,2,0,L|144:220,1,85,0|0,0:0|0:0,0:0:0:0:
272,328,30873,2,0,L|297:247,1,85,0|0,0:0|0:0,0:0:0:0:
440,228,31198,70,0,L|432:176,1,42.5,2|0,0:2|0:0,0:0:0:0:
352,80,31360,2,0,L|359:123,1,42.5
430,238,31522,6,0,L|422:186,1,42.5,2|0,0:2|0:0,0:0:0:0:
343,91,31684,2,0,L|349:133,1,42.5
420,248,31846,22,0,L|412:196,1,42.5,2|0,0:2|0:0,0:0:0:0:
333,101,32008,2,0,L|339:143,1,42.5
408,260,32170,5,2,0:2:0:0:
374,234,32251,1,0,0:0:0:0:
332,228,32332,1,0,0:0:0:0:
292,244,32414,1,0,0:0:0:0:
272,280,32495,22,0,L|211:281,1,50.9999984436036,4|0,0:0|0:0,0:0:0:0:
156,240,32819,2,0,P|124:208|112:152,2,101.999996887207,0|2|0,0:0|0:0|0:0,0:0:0:0:
196,164,33630,1,0,0:0:0:0:
264,112,33792,6,0,L|316:124,1,50.9999984436036
417,199,34117,2,0,L|368:188,1,50.9999984436036
252,96,34441,1,2,0:0:0:0:
244,80,34765,2,0,L|244:136,1,50.9999984436036
184,244,35089,22,0,L|140:200,1,50.9999984436036
100,140,35414,1,0,0:0:0:0:
64,216,35576,1,0,0:0:0:0:
28,292,35738,2,0,P|64:292|120:324,1,101.999996887207,2|0,0:0|0:0,0:0:0:0:
188,376,36225,1,0,0:0:0:0:
268,352,36387,6,0,L|320:336,1,50.9999984436036
296,176,36711,2,0,L|247:190,1,50.9999984436036
236,276,37035,2,0,L|333:246,1,101.999996887207,2|0,0:0|0:0,0:0:0:0:
416,224,37522,1,0,0:0:0:0:
452,148,37684,22,0,L|456:80,1,50.9999984436036,2|0,0:0|0:0,0:0:0:0:
279,127,38008,2,0,L|296:176,1,50.9999984436036,0|0,0:0|0:0,0:0:0:0:
312,48,38333,1,2,0:0:0:0:
228,44,38495,1,0,0:0:0:0:
152,80,38657,1,2,0:0:0:0:
116,156,38819,1,0,0:0:0:0:
120,240,38981,6,0,L|128:304,1,50.9999984436036,2|0,0:0|0:0,0:0:0:0:
224,176,39306,2,0,L|208:240,1,50.9999984436036
204,348,39630,1,2,0:0:0:0:
216,340,39954,2,0,L|272:340,1,50.9999984436036,2|0,0:0|0:0,0:0:0:0:
416,320,40279,22,0,L|364:292,1,50.9999984436036,2|0,0:0|0:0,0:0:0:0:
264,204,40603,2,0,L|308:179,1,50.9999984436036,0|0,0:0|0:0,0:0:0:0:
472,180,40927,1,2,0:0:0:0:
388,164,41089,1,0,0:0:0:0:
340,96,41252,1,2,0:0:0:0:
360,12,41414,1,0,0:0:0:0:
308,80,41576,6,0,L|236:92,1,50.9999984436036,2|0,0:0|0:0,0:0:0:0:
108,76,41900,2,0,L|57:84,1,50.9999984436036
169,24,42225,2,0,P|185:72|165:128,1,101.999996887207,2|2,0:0|0:0,0:0:0:0:
116,184,42711,1,0,0:0:0:0:
148,264,42873,21,4,0:0:0:0:
165,287,42954,1,0,0:0:0:0:
190,302,43035,1,0,0:0:0:0:
220,305,43117,1,0,0:0:0:0:
248,296,43198,1,2,0:2:0:0:
272,276,43279,1,0,0:0:0:0:
288,252,43360,1,0,0:0:0:0:
312,236,43441,1,0,0:0:0:0:
340,236,43522,6,0,L|388:250,3,42.5,2|0|0|0,0:2|0:0|0:0|0:0,0:0:0:0:
416,272,43846,2,0,L|452:237,3,42.5,0|0|0|0,0:0|0:0|0:0|0:0,3:0:0:0:
488,244,44171,21,2,0:2:0:0:
480,215,44252,1,0,0:0:0:0:
473,186,44333,1,0,0:0:0:0:
466,157,44414,1,0,0:0:0:0:
459,128,44495,1,0,0:0:0:0:
452,99,44576,1,0,0:0:0:0:
445,70,44657,1,0,0:0:0:0:
438,41,44738,1,0,0:0:0:0:
428,12,44819,6,0,L|352:48,1,85,2|0,0:0|0:0,0:0:0:0:
164,84,45144,2,0,P|192:44|268:36,1,127.5,2|0,0:0|0:0,0:0:0:0:
296,108,45468,21,0,0:0:0:0:
290,137,45549,1,0,0:0:0:0:
296,166,45630,1,0,0:0:0:0:
312,190,45711,1,0,0:0:0:0:
336,207,45792,1,2,0:2:0:0:
368,212,45873,1,0,0:0:0:0:
392,228,45954,1,0,0:0:0:0:
408,253,46035,1,0,0:0:0:0:
413,282,46117,6,0,L|404:340,3,42.5,2|0|0|0,0:2|0:0|0:0|0:0,0:0:0:0:
364,328,46441,2,0,L|309:349,3,42.5
300,308,46765,21,2,0:2:0:0:
276,289,46846,1,0,0:0:0:0:
253,271,46927,1,0,0:0:0:0:
229,252,47008,1,0,0:0:0:0:
206,234,47089,1,2,0:2:0:0:
183,215,47171,1,0,0:0:0:0:
159,197,47252,1,0,0:0:0:0:
136,178,47333,1,0,0:0:0:0:
112,160,47414,6,0,L|96:116,3,42.5,2|0|0|0,0:2|0:0|0:0|0:0,0:0:0:0:
140,112,47738,2,0,L|148:65,3,42.5,2|0|0|0,0:2|0:0|0:0|0:0,0:0:0:0:
188,84,48062,21,0,0:0:0:0:
207,61,48144,1,0,0:0:0:0:
226,38,48225,1,0,0:0:0:0:
245,15,48306,1,0,0:0:0:0:
260,40,48387,1,2,0:2:0:0:
278,63,48468,1,0,0:0:0:0:
304,76,48549,1,0,0:0:0:0:
334,76,48630,1,0,0:0:0:0:
360,63,48711,6,0,L|396:36,3,42.5,2|0|0|0,0:2|0:0|0:0|0:0,0:0:0:0:
400,80,49035,2,0,L|404:132,3,42.5
404,164,49360,21,2,0:2:0:0:
374,166,49441,1,0,0:0:0:0:
347,178,49522,1,0,0:0:0:0:
326,200,49603,1,0,0:0:0:0:
314,227,49684,1,0,0:0:0:0:
313,256,49765,1,0,0:0:0:0:
321,284,49846,1,0,0:0:0:0:
339,308,49927,1,0,0:0:0:0:
364,324,50008,6,0,L|452:352,1,85,2|0,0:0|0:0,0:0:0:0:
512,208,50333,2,0,L|360:256,1,127.5,2|0,0:0|0:0,0:0:0:0:
314,227,50657,21,0,0:0:0:0:
288,212,50738,1,0,0:0:0:0:
258,207,50819,1,0,0:0:0:0:
230,213,50900,1,0,0:0:0:0:
205,229,50981,1,2,0:2:0:0:
187,253,51062,1,0,0:0:0:0:
179,281,51144,1,0,0:0:0:0:
181,311,51225,1,0,0:0:0:0:
192,340,51306,6,0,L|144:344,3,42.5,2|0|0|0,0:2|0:0|0:0|0:0,0:0:0:0:
128,308,51630,2,0,L|96:272,3,42.5
108,236,51954,21,0,0:0:0:0:
260,288,52117,2,0,L|344:264,1,85,0|0,0:0|0:0,0:0:0:0:
256,156,52441,2,0,L|240:112,1,42.5
212,40,52603,5,0,0:0:0:0:
348,36,52765,1,0,0:0:0:0:
484,32,52927,2,0,B|504:88|504:88|484:160,1,127.5,0|0,0:0|0:0,0:0:0:0:
480,160,53252,22,0,L|396:196,1,85,6|0,0:2|2:0,0:0:0:0:
256,156,53576,1,0,0:0:0:0:
296,300,53738,1,2,0:2:0:0:
290,327,53819,1,2,0:2:0:0:
284,355,53900,1,2,0:2:0:0:
128,308,54062,1,2,0:2:0:0:
368,264,54225,2,0,B|376:292|376:292|364:360,1,85,4|2,0:0|0:2,0:0:0:0:
224,248,54549,5,4,0:0:0:0:
352,184,54711,2,0,L|393:191,1,42.5,2|0,0:2|0:0,0:0:0:0:
468,204,54873,1,4,0:0:0:0:
336,96,55035,2,0,L|294:103,1,42.5,2|0,0:2|0:0,0:0:0:0:
220,116,55198,1,4,0:0:0:0:
372,16,55360,2,0,L|413:23,1,42.5,2|0,0:2|0:0,0:0:0:0:
488,36,55522,1,4,0:0:0:0:
468,204,55684,21,0,0:0:0:0:
468,204,55765,1,0,0:0:0:0:
468,204,55846,1,4,0:0:0:0:
416,112,56008,1,0,0:0:0:0:
368,264,56171,1,2,0:2:0:0:
340,268,56252,1,0,0:0:0:0:
312,272,56333,1,2,0:2:0:0:
280,276,56414,1,0,0:0:0:0:
252,280,56495,1,2,0:2:0:0:
116,232,56657,1,2,0:2:0:0:
228,144,56819,1,4,0:0:0:0:
164,312,56981,1,2,0:2:0:0:
264,64,57144,5,4,0:0:0:0:
288,356,57468,1,4,0:0:0:0:
72,148,57792,1,4,0:0:0:0:
368,264,58117,2,0,B|432:272|432:272|496:256,1,127.5,4|0,0:0|0:0,0:0:0:0:
488,248,58441,22,0,B|484:204|484:204|492:164,1,85,4|0,0:0|0:0,0:0:0:0:
512,36,58765,1,0,0:0:0:0:
380,80,58927,1,2,0:2:0:0:
352,72,59008,1,2,0:2:0:0:
324,64,59089,1,2,0:2:0:0:
404,164,59252,1,2,0:2:0:0:
256,32,59414,2,0,B|248:60|248:60|260:128,1,85,4|2,0:0|0:2,0:0:0:0:
288,268,59738,5,4,0:0:0:0:
188,160,59900,2,0,L|174:92,1,42.5,2|0,0:2|0:0,0:0:0:0:
160,40,60062,1,4,0:0:0:0:
176,244,60225,2,0,L|111:222,1,42.5,2|0,0:2|0:0,0:0:0:0:
58,208,60387,1,4,0:0:0:0:
248,296,60549,2,0,L|196:341,1,42.5,2|0,0:2|0:0,0:0:0:0:
157,380,60711,1,4,0:0:0:0:
376,288,60873,21,0,0:0:0:0:
368,256,60954,1,0,0:0:0:0:
360,224,61035,2,0,L|376:132,1,85,4|0,0:0|0:0,0:0:0:0:
464,32,61360,2,0,L|484:80,1,42.5,2|0,0:2|0:0,0:0:0:0:
320,72,61522,2,0,L|368:56,1,42.5,2|0,0:2|0:0,0:0:0:0:
452,152,61684,1,2,0:2:0:0:
276,148,61846,1,2,0:2:0:0:
472,236,62008,1,4,0:0:0:0:
232,72,62171,1,2,0:2:0:0:
388,212,62333,5,4,0:0:0:0:
144,72,62657,1,4,0:0:0:0:
496,316,62981,1,4,0:0:0:0:
304,228,63306,1,4,0:0:0:0:
312,216,63630,22,0,L|240:304,1,85,4|0,0:0|0:0,0:0:0:0:
120,292,63954,1,0,0:0:0:0:
212,132,64117,1,2,0:2:0:0:
216,160,64198,1,2,0:2:0:0:
220,188,64279,1,2,0:2:0:0:
268,56,64441,1,2,0:2:0:0:
132,168,64603,1,4,0:0:0:0:
364,120,64765,1,2,0:2:0:0:
124,80,64927,5,4,0:0:0:0:
140,252,65089,2,0,L|176:284,1,42.5,2|0,0:2|0:0,0:0:0:0:
236,336,65252,1,4,0:0:0:0:
296,136,65414,2,0,L|279:181,1,42.5,2|0,0:2|0:0,0:0:0:0:
252,256,65576,1,4,0:0:0:0:
461,222,65738,2,0,L|413:229,1,42.5,2|0,0:2|0:0,0:0:0:0:
336,244,65900,1,4,0:0:0:0:
463,145,66062,21,0,0:0:0:0:
463,145,66144,1,0,0:0:0:0:
463,145,66225,2,0,L|461:222,1,76.4999976654053
460,240,66549,5,4,0:0:0:0:
236,336,66711,1,4,0:0:0:0:
356,128,66873,1,4,0:0:0:0:
380,368,67035,1,4,0:0:0:0:
216,188,67198,1,4,0:0:0:0:
216,188,67522,21,4,0:0:0:0:
380,368,67765,1,4,0:0:0:0:
356,128,68008,1,4,0:0:0:0:
236,336,68252,1,4,0:0:0:0:
460,240,68495,1,4,0:0:0:0:
456,220,68576,1,0,0:0:0:0:
452,200,68657,1,0,0:0:0:0:
448,180,68738,1,0,0:0:0:0:
444,160,68819,5,4,0:0:0:0:
280,252,68981,1,2,0:2:0:0:
188,208,69144,1,2,0:2:0:0:
214,175,69225,1,0,0:0:0:0:
251,156,69306,1,0,0:0:0:0:
294,154,69387,1,0,0:0:0:0:
333,170,69468,21,4,0:0:0:0:
148,68,69630,1,2,0:2:0:0:
60,124,69792,1,2,0:2:0:0:
56,166,69873,1,0,0:0:0:0:
52,208,69954,1,0,0:0:0:0:
48,251,70035,1,0,0:0:0:0:
45,293,70117,5,4,0:0:0:0:
236,336,70279,1,2,0:2:0:0:
332,304,70441,1,2,0:2:0:0:
338,261,70522,1,0,0:0:0:0:
372,237,70603,1,0,0:0:0:0:
407,213,70684,1,0,0:0:0:0:
416,172,70765,21,4,0:0:0:0:
432,336,70927,1,2,0:2:0:0:
488,244,71089,1,2,0:2:0:0:
490,201,71171,1,0,0:0:0:0:
493,159,71252,1,0,0:0:0:0:
497,116,71333,1,0,0:0:0:0:
500,74,71414,6,0,L|448:74,3,42.5,4|0|0|0,0:0|0:0|0:0|0:0,0:0:0:0:
340,100,71738,2,0,L|284:80,3,42.5,2|0|2|0,0:2|0:0|0:2|0:0,0:0:0:0:
180,116,72062,2,0,L|152:28,1,85,2|2,0:2|0:2,0:0:0:0:
256,168,72387,21,2,0:2:0:0:
250,197,72468,1,0,0:0:0:0:
245,226,72549,1,0,0:0:0:0:
240,255,72630,1,0,0:0:0:0:
234,285,72711,2,0,B|260:320|260:320|344:336|344:336|364:372,1,170,4|2,0:0|0:2,0:0:0:0:
368,360,73360,6,0,L|376:312,1,42.5,2|0,0:2|0:0,0:0:0:0:
472,280,73522,2,0,L|464:232,1,42.5,2|0,0:2|0:0,0:0:0:0:
352,204,73684,2,0,L|360:156,1,42.5,2|0,0:2|0:0,0:0:0:0:
464,116,73846,2,0,L|448:68,1,42.5,2|0,0:2|0:0,0:0:0:0:
348,20,74008,21,4,2:0:0:0:
256,192,74049,12,2,76603,2:0:0:0:
192,280,80495,38,0,L|212:232,1,50.9999984436036,2|0,0:2|0:0,0:0:0:0:
204,108,80819,2,0,L|184:156,1,50.9999984436036,0|0,0:0|0:0,0:0:0:0:
268,172,81144,2,0,L|328:172,1,50.9999984436036,2|0,0:2|0:0,0:0:0:0:
128,216,81468,2,0,L|68:216,1,50.9999984436036
44,72,81792,6,0,L|120:56,1,68,2|0,0:2|0:0,0:0:0:0:
334,157,82117,2,0,L|268:172,1,68
56,88,82441,2,0,L|132:72,1,68,2|0,0:2|0:0,0:0:0:0:
346,173,82765,2,0,L|279:187,1,68
68,108,83089,22,0,L|106:100,2,34,2|0|0,0:2|0:0|0:0,0:0:0:0:
260,200,83414,2,0,L|222:192,2,34,2|0|0,0:2|0:0|0:0,0:0:0:0:
48,276,83738,2,0,L|88:272,2,34,2|0|0,0:2|0:0|0:0,0:0:0:0:
220,336,84062,2,0,L|240:304,2,34,2|0|0,0:2|0:0|0:0,0:0:0:0:
388,296,84387,6,0,L|392:188,1,101.999996887207,2|2,0:2|0:2,0:0:0:0:
375,48,84711,6,0,P|413:47|448:64,1,76.4999976654053,4|0,0:0|0:0,0:0:0:0:
240,72,85035,22,0,L|132:48,1,101.999996887207,2|2,0:2|0:2,0:0:0:0:
0,184,85360,6,0,L|74:200,1,76.4999976654053,4|0,0:0|0:0,0:0:0:0:
148,252,85684,6,0,L|232:228,1,85,4|0,0:0|2:0,0:0:0:0:
412,176,86008,2,0,L|328:152,1,85,4|0,0:0|2:0,0:0:0:0:
124,132,86333,2,0,L|208:108,1,85,4|0,0:0|2:0,0:0:0:0:
388,56,86657,2,0,L|304:32,1,85,4|0,0:0|2:0,0:0:0:0:
124,30,86981,6,0,L|124:132,1,101.999996887207,2|2,0:2|0:2,0:0:0:0:
103,276,87306,6,0,P|138:260|175:265,1,76.4999976654053,4|0,0:0|0:0,0:0:0:0:
316,288,87630,22,0,L|301:187,1,101.999996887207,2|2,0:2|0:2,0:0:0:0:
279,31,87954,6,0,P|307:58|343:68,1,76.4999976654053,4|0,0:0|0:0,0:0:0:0:
424,60,88279,5,4,0:0:0:0:
356,180,88441,1,0,0:0:0:0:
368,200,88522,1,0,0:0:0:0:
380,220,88603,1,4,0:0:0:0:
448,332,88765,1,0,0:0:0:0:
424,324,88846,1,0,0:0:0:0:
396,316,88927,2,0,L|340:328,2,56.6666666666667,6|2|2,0:2|0:2|0:2,0:0:0:0:
452,172,89252,2,0,L|508:160,2,56.6666666666667,6|2|2,0:2|0:2|0:2,0:0:0:0:
312,104,89576,6,0,L|212:125,1,101.999996887207,2|2,0:2|0:2,0:0:0:0:
32,104,89900,6,0,P|64:85|110:88,1,76.4999976654053,4|0,0:0|0:0,0:0:0:0:
96,224,90225,22,0,L|68:336,1,101.999996887207,2|2,0:2|0:2,0:0:0:0:
232,380,90549,6,0,L|224:292,1,76.4999976654053,4|0,0:0|0:0,0:0:0:0:
184,168,90873,22,0,L|292:180,1,101.999996887207,2|2,0:2|0:2,0:0:0:0:
489,177,91198,6,0,L|416:156,1,76.4999976654053,4|0,0:0|0:0,0:0:0:0:
388,32,91522,22,0,L|470:56,1,85,2|2,0:2|0:2,0:0:0:0:
280,104,91846,6,0,P|260:71|255:33,1,76.4999976654053,4|0,0:0|0:0,0:0:0:0:
148,124,92171,22,0,L|164:224,1,101.999996887207,2|2,0:2|0:2,0:0:0:0:
288,316,92495,6,0,L|275:240,1,76.4999976654053,4|0,0:0|0:0,0:0:0:0:
160,336,92819,22,0,L|44:352,1,101.999996887207,2|2,0:2|0:2,0:0:0:0:
16,228,93144,6,0,L|30:152,1,76.4999976654053,4|0,0:0|0:0,0:0:0:0:
36,132,93468,21,2,0:2:0:0:
128,180,93630,1,0,0:0:0:0:
228,168,93792,1,0,0:0:0:0:
304,100,93954,1,0,0:0:0:0:
400,132,94117,1,0,0:0:0:0:
395,165,94198,1,0,0:0:0:0:
391,199,94279,1,0,0:0:0:0:
387,233,94360,1,0,0:0:0:0:
383,266,94441,21,2,0:2:0:0:
344,249,94522,1,0,0:0:0:0:
302,248,94603,1,2,0:2:0:0:
264,265,94684,1,0,0:0:0:0:
235,296,94765,22,0,P|204:320|156:324,1,76.4999976654053,2|0,0:2|0:0,0:0:0:0:
152,324,95089,21,4,0:0:0:0:
320,336,95252,2,0,L|332:376,2,42.5,0|0|2,0:0|0:0|0:2,0:0:0:0:
312,168,95576,1,0,0:0:0:0:
312,168,95657,1,2,0:2:0:0:
312,168,95738,1,0,0:0:0:0:
172,244,95900,1,2,0:2:0:0:
188,112,96062,22,0,B|160:76|160:76|116:60,1,85,2|0,0:2|2:0,0:0:0:0:
0,128,96306,2,0,L|81:156,1,85,2|0,0:2|2:0,0:0:0:0:
172,208,96549,1,2,0:2:0:0:
316,140,96711,54,0,L|328:44,1,85,2|0,0:2|0:0,0:0:0:0:
444,20,96954,2,0,L|433:104,1,85,2|0,0:2|0:0,0:0:0:0:
408,208,97198,1,2,0:2:0:0:
432,324,97360,21,2,0:2:0:0:
409,298,97441,1,0,0:0:0:0:
382,279,97522,1,0,0:0:0:0:
350,267,97603,1,0,0:0:0:0:
316,265,97684,1,2,0:2:0:0:
282,271,97765,1,0,0:0:0:0:
252,285,97846,1,0,0:0:0:0:
226,308,97927,1,0,0:0:0:0:
204,336,98008,6,0,L|152:328,3,42.5,2|0|0|0,0:2|0:0|0:0|0:0,0:0:0:0:
124,344,98333,2,0,L|96:308,3,42.5,2|0|0|0,0:2|0:0|0:0|0:0,0:0:0:0:
56,320,98657,22,0,L|64:264,1,56.6666666666667,2|0,0:2|0:0,0:0:0:0:
76,184,98873,1,2,0:2:0:0:
152,72,98981,2,0,L|160:128,1,56.6666666666667,2|0,0:2|0:0,0:0:0:0:
172,208,99197,1,2,0:2:0:0:
240,320,99306,54,0,L|248:264,1,56.6666666666667,2|0,0:2|0:0,0:0:0:0:
260,184,99522,1,2,0:2:0:0:
308,56,99630,2,0,L|316:112,2,56.6666666666667,2|0|2,0:2|0:0|0:2,0:0:0:0:
408,100,99954,22,0,L|388:204,1,102,2|0,0:2|0:0,0:0:0:0:
380,204,100279,6,0,L|388:292,1,85,0|0,0:0|0:0,0:0:0:0:
472,364,100603,1,2,0:2:0:0:
304,284,100765,1,0,0:0:0:0:
304,284,100846,1,0,0:0:0:0:
304,284,100927,2,0,L|216:292,1,85,2|0,0:2|0:0,0:0:0:0:
112,208,101252,22,0,L|144:168,2,42.5,2|0|0,0:2|0:0|0:0,0:0:0:0:
28,264,101495,2,0,L|-4:224,2,42.5,2|0|0,0:2|0:0|0:0,0:0:0:0:
120,308,101738,2,0,L|120:360,1,42.5,2|0,0:2|0:0,0:0:0:0:
208,360,101900,53,2,0:2:0:0:
227,331,101981,1,0,0:0:0:0:
246,303,102062,1,0,0:0:0:0:
265,275,102144,1,0,0:0:0:0:
284,247,102225,1,2,0:2:0:0:
303,219,102306,1,0,0:0:0:0:
322,191,102387,1,0,0:0:0:0:
344,164,102468,1,0,0:0:0:0:
364,136,102549,22,0,L|400:220,1,85,2|0,0:2|0:0,0:0:0:0:
356,288,102873,1,0,0:0:0:0:
280,112,103035,1,0,0:0:0:0:
456,160,103198,6,0,L|492:244,1,85,2|0,0:2|0:0,0:0:0:0:
356,288,103522,1,0,0:0:0:0:
432,80,103684,1,0,0:0:0:0:
280,112,103846,22,0,L|180:76,1,85,2|0,0:2|0:0,0:0:0:0:
64,204,104171,1,0,0:0:0:0:
96,196,104252,1,0,0:0:0:0:
128,188,104333,1,0,0:0:0:0:
160,180,104414,1,0,0:0:0:0:
192,172,104495,53,2,0:2:0:0:
268,332,104738,1,2,0:2:0:0:
370,185,104981,1,2,0:2:0:0:
168,280,105144,21,4,0:0:0:0:
272,236,105306,2,0,L|284:144,1,85,0|2,0:0|0:2,0:0:0:0:
320,32,105630,1,2,0:2:0:0:
288,40,105711,1,2,0:2:0:0:
256,48,105792,1,2,0:2:0:0:
384,116,105954,1,2,0:2:0:0:
244,160,106117,2,0,L|152:144,1,85,0|2,0:0|0:2,0:0:0:0:
83,293,106441,6,0,L|168:280,1,85,4|0,0:0|0:0,0:0:0:0:
272,332,106765,1,2,0:2:0:0:
372,200,106927,1,2,0:2:0:0:
368,232,107008,1,2,0:2:0:0:
364,264,107089,1,2,0:2:0:0:
492,188,107252,1,2,0:2:0:0:
292,180,107414,2,0,P|308:148|356:120,1,85,0|2,0:0|0:2,0:0:0:0:
453,279,107738,21,4,0:0:0:0:
423,274,107819,1,0,0:0:0:0:
394,270,107900,1,2,0:2:0:0:
364,265,107981,1,0,0:0:0:0:
336,232,108062,53,4,0:0:0:0:
306,237,108144,1,0,0:0:0:0:
277,243,108225,1,2,0:2:0:0:
248,249,108306,1,0,0:0:0:0:
208,232,108387,22,0,L|172:228,6,21.25,4|0|0|0|2|0|0,0:0|0:0|0:0|0:0|0:2|0:0|0:0,0:0:0:0:
164,252,108711,2,0,L|124:252,6,21.25,4|0|0|0|2|0|0,0:0|0:0|0:0|0:0|0:2|0:0|0:0,0:0:0:0:
120,252,109035,5,4,0:0:0:0:
204,328,109198,1,2,0:2:0:0:
272,152,109360,1,4,0:0:0:0:
368,344,109522,1,2,0:2:0:0:
376,160,109684,22,0,L|336:96,1,68,4|2,0:0|0:2,0:0:0:0:
212,92,110008,54,0,L|152:84,1,50.9999984436036,4|2,0:0|0:2,0:0:0:0:
76,108,110333,21,4,0:0:0:0:
52,288,110495,1,4,0:0:0:0:
136,288,110657,2,0,P|128:244|96:208,1,85,2|2,0:2|0:2,0:0:0:0:
96,360,110981,5,4,0:0:0:0:
264,272,111144,1,4,0:0:0:0:
336,320,111306,2,0,P|300:348|258:355,1,85,2|2,0:2|0:2,0:0:0:0:
304,124,111630,21,4,0:0:0:0:
424,268,111792,1,4,0:0:0:0:
464,192,111954,2,0,B|468:172|468:172|460:104,1,85,2|2,0:2|0:2,0:0:0:0:
296,40,112279,53,4,0:0:0:0:
220,224,112441,1,4,0:0:0:0:
144,184,112603,2,0,B|117:179|117:179|48:196,1,85,2|2,0:2|0:2,0:0:0:0:
96,324,112927,21,4,0:0:0:0:
119,305,113008,1,0,0:0:0:0:
147,296,113089,1,0,0:0:0:0:
176,296,113171,1,0,0:0:0:0:
204,307,113252,1,2,0:2:0:0:
195,279,113333,1,0,0:0:0:0:
198,249,113414,1,0,0:0:0:0:
211,223,113495,1,0,0:0:0:0:
232,203,113576,5,2,0:2:0:0:
206,189,113657,1,0,0:0:0:0:
187,167,113738,1,0,0:0:0:0:
177,139,113819,1,0,0:0:0:0:
179,109,113900,1,2,0:2:0:0:
159,131,113981,1,0,0:0:0:0:
132,143,114062,1,0,0:0:0:0:
103,145,114144,1,0,0:0:0:0:
75,135,114225,22,0,L|60:188,1,42.5,2|0,0:2|0:0,0:0:0:0:
166,249,114387,2,0,L|196:280,1,42.5,2|0,0:2|0:0,0:0:0:0:
292,200,114549,2,0,L|333:189,1,42.5,2|0,0:2|0:0,0:0:0:0:
292,72,114711,2,0,L|303:31,1,42.5,2|0,0:2|0:0,3:0:0:0:
136,32,114873,6,0,L|148:92,1,56.6666666666667,2|0,0:2|0:0,0:0:0:0:
164,164,115089,1,2,0:2:0:0:
360,152,115197,22,0,L|302:132,1,56.6666666666667,2|0,0:2|0:0,0:0:0:0:
232,111,115413,1,2,0:2:0:0:
244,196,115846,5,4,0:0:0:0:
256,192,115887,12,0,120711,0:0:0:0:
