osu file format v14

[General]
AudioFilename: BLACK or WHITE.mp3
AudioLeadIn: 0
PreviewTime: 52137
Countdown: 0
SampleSet: Soft
StackLeniency: 0.7
Mode: 0
LetterboxInBreaks: 0
WidescreenStoryboard: 0

[Editor]
DistanceSpacing: 0.5
BeatDivisor: 4
GridSize: 4
TimelineZoom: 1.9

[Metadata]
Title:BLACK or WHITE?
TitleUnicode:BLACK or WHITE?
Artist:BlackYooh vs. siromaru
ArtistUnicode:BlackYooh vs. siromaru
Creator:Fast
Version:Gurvy's EXHAUST
Source:SOUND VOLTEX II -infinite infection-
Tags:SDVX BlackY KAC 2013 happy623 GUHROOVY HelloSCV Gurvy Gamu
BeatmapID:358682
BeatmapSetID:144158

[Difficulty]
HPDrainRate:7
CircleSize:4
OverallDifficulty:7.5
ApproachRate:9
SliderMultiplier:1.45
SliderTickRate:2

[Events]
//Background and Video events
0,0,"bg.jpg",0,0
//Break Periods
2,76803,83787
//Storyboard Layer 0 (Background)
//Storyboard Layer 1 (Fail)
//Storyboard Layer 2 (Pass)
//Storyboard Layer 3 (Foreground)
//Storyboard Sound Samples

[TimingPoints]
1360,324.324324324324,4,2,0,75,1,0
8819,-100,4,1,0,10,0,0
9143,-80,4,1,0,100,0,0
10441,-100,4,2,0,50,0,0
10765,-100,4,1,2,100,0,0
11414,-100,4,2,0,100,0,0
11454,-100,4,2,0,70,0,0
11495,-100,4,2,0,50,0,0
11738,-100,4,2,0,75,0,0
16927,-80,4,1,0,75,0,0
17170,-80,4,1,0,10,0,0
17251,-100,4,2,0,75,0,0
21792,-133.333333333333,4,2,0,75,0,0
22035,-133.333333333333,4,2,0,10,0,0
22116,-80,4,2,0,50,0,1
22278,-80,4,2,0,30,0,1
22441,-80,4,2,0,75,0,1
24387,-133.333333333333,4,2,0,75,0,1
24711,-80,4,2,0,75,0,1
25359,-133.333333333333,4,2,0,75,0,1
25684,-80,4,2,0,75,0,1
26008,-133.333333333333,4,2,0,75,0,1
26332,-80,4,2,0,75,0,1
26657,-133.333333333333,4,2,0,75,0,0
26981,-100,4,2,0,75,0,0
27305,-133.333333333333,4,2,0,75,0,0
28603,-100,4,2,0,75,0,0
29900,-80,4,2,0,75,0,0
31197,-100,4,2,0,75,0,0
32495,-133.333333333333,4,2,1,50,0,0
42873,-80,4,2,0,75,0,0
53251,-80,4,1,2,75,0,1
66468,-80,4,1,2,10,0,1
66549,-80,4,1,2,75,0,1
74008,-200,4,2,0,75,0,0
84387,-133.333333333333,4,2,0,75,0,0
84711,-80,4,2,0,75,0,0
85035,-133.333333333333,4,2,0,75,0,0
85359,-80,4,2,0,75,0,0
85684,-133.333333333333,4,2,0,75,0,0
86981,-100,4,2,0,75,0,0
89576,-133.333333333333,4,2,0,75,0,0
89900,-80,4,2,0,75,0,0
90224,-133.333333333333,4,2,0,75,0,0
90549,-80,4,2,0,75,0,0
90873,-133.333333333333,4,2,0,75,0,0
91197,-80,4,2,0,75,0,0
91522,-133.333333333333,4,2,0,75,0,0
91846,-80,4,2,0,75,0,0
92170,-133.333333333333,4,2,0,75,0,0
92495,-80,4,2,0,75,0,0
92819,-133.333333333333,4,2,0,75,0,0
93143,-80,4,2,0,75,0,0
94765,-200,4,2,0,75,0,0
95089,-83.3333333333333,4,2,0,75,0,1
95414,-80,4,1,2,75,0,1
97359,-100,4,1,2,75,0,1
98657,-80,4,1,2,75,0,1
99954,-133.333333333333,4,1,2,75,0,1
100278,-80,4,1,2,75,0,1
115846,-80,4,2,0,65,0,0
116819,-80,4,2,0,50,0,0
118116,-80,4,2,0,35,0,0
119414,-80,4,2,0,20,0,0
120711,-80,4,2,0,5,0,0

[Colours]
Combo1 : 177,184,203
Combo2 : 132,132,132

[HitObjects]
256,192,6549,12,0,8819,0:0:0:0:
200,200,9143,6,0,L|112:180,1,90.625,2|2,0:0|0:0,0:0:0:0:
116,100,9468,2,0,L|208:120,1,90.625,2|2,0:0|0:0,0:0:0:0:
312,200,9792,6,0,L|400:180,1,90.625,2|2,0:0|0:0,0:0:0:0:
396,100,10116,2,0,L|304:120,1,90.625,2|2,0:0|0:0,0:0:0:0:
256,272,10441,6,0,P|304:296|356:284,1,108.75,2|0,0:0|0:0,0:0:0:0:
384,256,10765,6,0,L|396:292,1,36.25,8|0,0:0|0:0,0:0:0:0:
471,227,10927,2,0,L|455:191,1,36.25,8|0,0:0|0:0,0:0:0:0:
364,160,11089,5,8,0:0:0:0:
328,163,11170,1,0,0:0:0:0:
294,150,11251,1,8,0:0:0:0:
268,125,11332,1,0,0:0:0:0:
256,91,11414,2,2,L|256:72,6,18.125,2|2|2|2|2|2|2,0:0|0:0|0:0|0:0|0:0|0:0|0:0,0:0:0:0:
172,36,11738,6,0,P|160:104|96:132,1,145,4|8,0:0|0:0,0:0:0:0:
24,192,12224,1,0,0:0:0:0:
72,272,12387,2,0,L|144:268,1,72.5
188,284,12630,1,0,0:0:0:0:
188,284,12711,2,0,L|260:280,1,72.5,8|0,0:0|0:0,0:0:0:0:
328,216,13035,6,0,P|360:280|332:344,1,145,0|8,0:0|0:0,0:0:0:0:
240,192,13522,1,0,0:0:0:0:
328,216,13684,2,0,L|400:212,1,72.5
436,180,13927,1,0,0:0:0:0:
436,180,14008,2,0,L|432:144,1,36.25,8|0,0:0|0:0,0:0:0:0:
416,124,14170,2,0,L|412:87,1,36.25
328,64,14332,6,0,B|276:64|276:64|236:76|236:76|184:76,1,145,0|8,0:0|0:0,0:0:0:0:
100,120,14819,1,0,0:0:0:0:
64,208,14981,2,0,B|100:212|100:212|136:208,1,72.5
172,180,15224,1,0,0:0:0:0:
172,180,15305,2,0,L|176:252,1,72.5,8|0,0:0|0:0,0:0:0:0:
112,324,15630,6,0,P|180:348|244:320,1,145,0|8,0:0|0:0,0:0:0:0:
312,256,16116,1,0,0:0:0:0:
312,256,16197,1,0,0:0:0:0:
312,256,16278,2,0,L|340:280,1,36.25
400,328,16441,2,0,L|412:292,1,36.25
424,212,16603,2,0,L|388:224,2,36.25,8|0|0,0:0|0:0|0:0,0:0:0:0:
320,64,16927,6,0,B|256:76|256:76|184:64,1,135.9375,4|0,0:0|0:0,0:0:0:0:
140,52,17251,6,0,L|136:124,1,72.5,8|0,0:0|0:0,0:0:0:0:
100,152,17495,1,0,0:0:0:0:
64,180,17576,2,0,B|72:144|72:144|64:108,1,72.5
12,248,17900,1,8,0:0:0:0:
100,260,18062,1,0,0:0:0:0:
100,260,18143,1,0,0:0:0:0:
100,260,18224,2,0,L|172:268,1,72.5
256,308,18549,5,8,0:0:0:0:
296,224,18711,1,0,0:0:0:0:
296,224,18792,1,0,0:0:0:0:
296,224,18873,1,0,0:0:0:0:
256,140,19035,6,0,L|220:144,1,36.25,0|0,0:0|0:0,0:0:0:0:
348,148,19197,2,0,L|384:144,1,36.25,8|0,0:0|0:0,0:0:0:0:
212,220,19359,2,0,L|176:224,1,36.25
384,228,19522,6,0,P|392:264|384:300,1,72.5,0|0,0:0|0:0,0:0:0:0:
292,316,19846,1,8,0:0:0:0:
258,303,19927,1,0,0:0:0:0:
222,307,20008,1,0,0:0:0:0:
191,325,20089,1,0,0:0:0:0:
172,355,20170,2,0,L|100:352,1,72.5,0|0,0:0|0:0,0:0:0:0:
10,326,20495,2,0,L|6:286,3,36.25,8|0|0|0,0:0|0:0|0:0|0:0,0:0:0:0:
42,262,20819,6,0,L|46:226,3,36.25,0|0|0|0,0:0|0:0|0:0|0:0,0:0:0:0:
10,198,21143,2,0,L|6:162,3,36.25,8|0|0|0,0:0|0:0|0:0|0:0,0:0:0:0:
48,140,21468,5,0,0:0:0:0:
83,145,21549,1,0,0:0:0:0:
117,133,21630,1,0,0:0:0:0:
142,107,21711,1,0,0:0:0:0:
152,72,21792,2,0,L|237:71,1,81.5625031113626,4|0,0:0|0:0,0:0:0:0:
312,72,22116,5,4,0:0:0:0:
312,72,22278,1,0,0:0:0:0:
448,196,22441,2,0,P|404:244|336:248,1,135.9375,2|0,0:0|0:0,0:0:0:0:
268,216,22765,5,0,0:0:0:0:
268,216,22927,1,0,0:0:0:0:
92,264,23089,2,0,P|156:244|212:276,1,135.9375,2|0,0:0|0:0,0:0:0:0:
256,340,23414,5,0,0:0:0:0:
256,340,23576,1,0,0:0:0:0:
392,268,23738,2,0,L|396:128,1,135.9375,2|0,0:0|0:0,0:0:0:0:
400,56,24062,5,0,0:0:0:0:
400,56,24224,1,0,0:0:0:0:
316,92,24387,2,0,L|232:84,1,81.5625031113626,2|0,0:0|0:0,0:0:0:0:
160,76,24711,5,4,0:0:0:0:
160,76,24873,1,0,0:0:0:0:
48,220,25035,2,0,P|112:200|168:232,1,135.9375,2|0,0:0|0:0,0:0:0:0:
192,280,25359,6,0,L|248:276,1,54.3750020742417
428,292,25684,2,0,P|368:260|356:196,1,135.9375,2|0,0:0|0:0,0:0:0:0:
392,156,26008,6,0,L|448:164,1,54.3750020742417
296,64,26332,2,0,L|160:76,1,135.9375,2|0,0:0|0:0,0:0:0:0:
124,116,26657,6,0,L|116:152,2,36.2500013828278
208,164,26981,2,0,L|216:212,2,48.3333333333333,2|0|0,0:0|0:0|0:0,0:0:0:0:
304,136,27305,6,0,L|360:132,1,54.3750020742417,4|0,0:0|0:0,0:0:0:0:
356,216,27630,2,0,L|416:232,1,54.3750020742417,2|0,0:0|0:0,0:0:0:0:
364,308,27954,2,0,L|408:344,1,54.3750020742417
280,268,28278,5,2,0:0:0:0:
172,252,28441,1,0,0:0:0:0:
108,340,28603,6,0,L|44:296,1,72.5,4|0,0:0|0:0,0:0:0:0:
92,192,28927,2,0,L|64:120,1,72.5,2|0,0:0|0:0,0:0:0:0:
204,120,29251,2,0,L|220:48,1,72.5
288,196,29576,5,2,0:0:0:0:
256,304,29738,1,0,0:0:0:0:
360,276,29900,6,0,B|404:268|404:268|448:284,1,90.625,4|0,0:0|0:0,0:0:0:0:
272,160,30224,2,0,B|264:116|264:116|284:72,1,90.625,2|0,0:0|0:0,0:0:0:0:
232,320,30549,2,0,B|192:332|192:332|144:316,1,90.625
68,264,30873,5,2,0:0:0:0:
120,100,31035,1,0,0:0:0:0:
44,156,31197,5,0,0:0:0:0:
69,181,31278,1,0,0:0:0:0:
103,194,31359,1,2,0:0:0:0:
139,194,31441,1,0,0:0:0:0:
172,179,31522,1,0,0:0:0:0:
205,164,31603,1,0,0:0:0:0:
241,164,31684,1,2,0:0:0:0:
274,177,31765,1,0,0:0:0:0:
296,204,31846,6,0,L|303:240,3,36.25,0|0|2|0,0:0|0:0|0:0|0:0,0:0:0:0:
324,308,32170,2,0,L|332:344,3,36.25,0|0|2|0,0:0|0:0|0:0|0:0,0:0:0:0:
324,308,32495,6,0,L|216:304,1,108.750004148483,4|0,0:0|0:0,0:0:0:0:
140,276,32981,1,0,0:0:0:0:
96,208,33143,2,0,L|92:152,1,54.3750020742417,2|0,0:0|0:0,0:0:0:0:
168,64,33468,2,0,L|172:120,1,54.3750020742417
236,168,33792,6,0,P|288:176|340:160,1,108.750004148483
416,304,34441,2,0,P|372:268|320:268,1,108.750004148483,2|0,0:0|0:0,0:0:0:0:
248,304,34927,1,0,0:0:0:0:
184,356,35089,6,0,L|152:252,1,108.750004148483
96,192,35576,1,0,0:0:0:0:
56,120,35738,2,0,L|60:64,2,54.3750020742417,2|0|0,0:0|0:0|0:0,0:0:0:0:
96,192,36224,1,0,0:0:0:0:
16,188,36387,5,0,0:0:0:0:
256,160,36711,1,0,0:0:0:0:
144,280,37035,1,2,0:0:0:0:
164,120,37359,1,0,0:0:0:0:
248,260,37684,6,0,B|276:252|300:264|300:264|324:276|356:268,1,108.750004148483
380,116,38170,5,0,0:0:0:0:
396,200,38332,1,0,0:0:0:0:
456,144,38495,1,0,0:0:0:0:
324,56,38657,2,0,L|268:52,1,54.3750020742417,2|0,0:0|0:0,0:0:0:0:
188,44,38981,2,0,B|176:96|176:96|192:152,1,108.750004148483
336,224,39630,2,0,B|284:224|284:224|236:256,1,108.750004148483,2|0,0:0|0:0,0:0:0:0:
180,316,40116,1,0,0:0:0:0:
100,300,40278,6,0,P|48:272|32:228,1,108.750004148483
112,220,40765,1,0,0:0:0:0:
64,152,40927,2,0,L|67:97,1,54.3750020742417,2|0,0:0|0:0,0:0:0:0:
184,116,41251,2,0,P|200:92|220:76,1,54.3750020742417
368,199,41576,6,0,B|315:184|315:184|263:200,1,108.750004148483
65,221,42224,2,0,B|51:273|51:273|67:325,1,108.750004148483,2|0,0:0|0:0,0:0:0:0:
67,325,42873,5,6,0:0:0:0:
93,352,42954,1,0,0:0:0:0:
132,360,43035,1,0,0:0:0:0:
168,344,43116,1,0,0:0:0:0:
188,308,43197,2,0,L|216:272,3,45.3125,8|0|0|0,0:0|0:0|0:0|0:0,0:0:0:0:
192,232,43522,2,0,L|236:216,3,45.3125
239,172,43846,2,0,B|286:162|286:162|345:179,1,90.625,8|0,0:0|0:0,0:0:0:0:
356,253,44170,6,0,L|364:300,3,45.3125,2|0|0|0,0:0|0:0|0:0|0:0,0:0:0:0:
404,280,44495,2,0,L|412:324,3,45.3125,8|0|0|0,0:0|0:0|0:0|0:0,0:0:0:0:
456,312,44819,5,0,0:0:0:0:
486,285,44900,1,0,0:0:0:0:
499,247,44981,1,0,0:0:0:0:
491,207,45062,1,0,0:0:0:0:
464,176,45143,2,0,P|432:137|428:87,1,90.625,8|0,0:0|0:0,0:0:0:0:
488,36,45468,6,0,P|424:92|344:56,1,181.25,2|8,0:0|0:0,0:0:0:0:
256,40,45954,1,0,0:0:0:0:
244,36,46035,1,0,0:0:0:0:
232,32,46116,2,0,L|184:40,3,45.3125
156,72,46441,2,0,L|112:64,3,45.3125,8|0|0|0,0:0|0:0|0:0|0:0,0:0:0:0:
75,83,46765,5,2,0:0:0:0:
52,116,46846,1,0,0:0:0:0:
52,156,46927,1,0,0:0:0:0:
74,190,47008,1,0,0:0:0:0:
103,218,47089,2,0,L|83:283,3,45.3125,8|0|0|0,0:0|0:0|0:0|0:0,0:0:0:0:
118,296,47414,6,0,L|98:361,3,45.3125
137,371,47738,2,0,L|229:363,1,90.625,8|0,0:0|0:0,0:0:0:0:
279,262,48062,5,2,0:0:0:0:
318,253,48143,1,0,0:0:0:0:
356,266,48224,1,0,0:0:0:0:
384,296,48305,1,0,0:0:0:0:
401,333,48387,2,0,L|428:296,3,45.3125,8|0|0|0,0:0|0:0|0:0|0:0,0:0:0:0:
472,308,48711,2,0,L|468:260,3,45.3125
490,223,49035,2,0,L|446:215,3,45.3125,8|0|0|0,0:0|0:0|0:0|0:0,0:0:0:0:
403,198,49359,5,2,0:0:0:0:
361,202,49441,1,0,0:0:0:0:
323,190,49522,1,0,0:0:0:0:
295,162,49603,1,0,0:0:0:0:
283,122,49684,1,8,0:0:0:0:
259,90,49765,1,0,0:0:0:0:
225,70,49846,1,0,0:0:0:0:
183,74,49927,1,0,0:0:0:0:
144,87,50008,6,0,L|148:132,3,45.3125
112,160,50332,2,0,L|116:208,3,45.3125,8|0|0|0,0:0|0:0|0:0|0:0,0:0:0:0:
76,264,50657,6,0,P|128:276|160:260,1,90.625,2|0,0:0|0:0,0:0:0:0:
276,188,50981,2,0,P|224:176|192:192,1,90.625,8|0,0:0|0:0,0:0:0:0:
256,332,51305,5,0,0:0:0:0:
116,204,51468,1,0,0:0:0:0:
180,316,51630,1,8,0:0:0:0:
316,280,51792,1,0,0:0:0:0:
380,322,51954,6,0,P|391:279|380:236,1,90.625,4|0,0:0|0:0,0:0:0:0:
256,332,52278,1,8,0:0:0:0:
300,196,52441,1,0,0:0:0:0:
304,184,52522,1,0,0:0:0:0:
308,172,52603,1,0,0:0:0:0:
236,252,52765,5,0,0:0:0:0:
104,280,52927,2,2,L|76:276,6,22.65625
76,244,53251,6,0,P|32:168|80:100,1,181.25,6|8,0:0|0:0,0:0:0:0:
148,164,53738,1,0,0:0:0:0:
136,168,53819,1,0,0:0:0:0:
124,172,53900,1,2,0:0:0:0:
80,100,54062,1,0,0:0:0:0:
160,248,54224,1,12,0:0:0:0:
32,176,54387,5,0,0:0:0:0:
172,80,54549,2,0,P|240:104|292:72,1,135.9375,6|0,0:0|0:0,0:0:0:0:
360,12,54873,2,0,P|324:60|344:128,1,135.9375,8|0,0:0|0:0,0:0:0:0:
420,152,55197,2,0,L|512:144,1,90.625,6|0,0:0|0:0,0:0:0:0:
400,76,55522,1,8,0:0:0:0:
440,228,55684,1,0,0:0:0:0:
265,204,55846,6,0,L|356:208,1,90.625,6|0,0:0|0:0,0:0:0:0:
192,148,56170,1,8,0:0:0:0:
192,260,56332,1,0,0:0:0:0:
188,248,56414,1,0,0:0:0:0:
184,236,56495,1,2,0:0:0:0:
100,264,56657,1,0,0:0:0:0:
265,204,56819,1,12,0:0:0:0:
108,180,56981,5,0,0:0:0:0:
160,340,57143,2,0,P|236:296|312:340,1,181.25,6|8,0:0|0:0,0:0:0:0:
310,337,57630,1,0,0:0:0:0:
412,188,57792,2,0,P|336:232|260:188,1,181.25,6|8,0:0|0:0,0:0:0:0:
240,152,58197,5,0,0:0:0:0:
228,148,58278,1,0,0:0:0:0:
216,144,58359,1,0,0:0:0:0:
204,140,58441,2,0,P|160:208|204:288,1,181.25,6|8,0:0|0:0,0:0:0:0:
288,320,58927,1,0,0:0:0:0:
300,316,59008,1,0,0:0:0:0:
312,312,59089,1,2,0:0:0:0:
240,216,59251,1,0,0:0:0:0:
220,368,59414,1,12,0:0:0:0:
328,224,59576,5,0,0:0:0:0:
204,288,59738,2,0,L|112:284,1,90.625,6|0,0:0|0:0,0:0:0:0:
28,313,60062,2,0,P|25:268|44:228,1,90.625,8|0,0:0|0:0,0:0:0:0:
136,80,60387,2,0,L|228:84,1,90.625,6|0,0:0|0:0,0:0:0:0:
304,136,60711,1,8,0:0:0:0:
328,224,60873,5,0,0:0:0:0:
328,224,60954,1,0,0:0:0:0:
328,224,61035,2,0,P|388:172|372:76,1,181.25,6|8,0:0|0:0,0:0:0:0:
304,136,61522,1,0,0:0:0:0:
292,140,61603,1,0,0:0:0:0:
280,144,61684,1,6,0:0:0:0:
200,164,61846,1,0,0:0:0:0:
304,56,62008,5,8,0:0:0:0:
252,224,62170,1,0,0:0:0:0:
116,176,62332,2,0,P|148:92|232:84,1,181.25,6|8,0:0|0:0,0:0:0:0:
328,224,62819,1,0,0:0:0:0:
192,254,62981,2,0,L|200:164,1,90.625,6|0,0:0|0:0,0:0:0:0:
60,248,63305,5,8,0:0:0:0:
144,96,63468,1,0,0:0:0:0:
252,224,63630,2,0,B|296:240|340:216|340:216|384:192|428:208,1,181.25,6|8,0:0|0:0,0:0:0:0:
460,132,64116,1,0,0:0:0:0:
460,132,64197,1,0,0:0:0:0:
460,132,64278,2,0,L|456:40,1,90.625,2|0,0:0|0:0,0:0:0:0:
428,208,64603,2,0,L|432:300,1,90.625,12|0,0:0|0:0,0:0:0:0:
344,332,64927,6,0,P|272:324|240:272,1,135.9375,6|0,0:0|0:0,0:0:0:0:
228,184,65251,2,0,P|216:244|152:272,1,135.9375,8|0,0:0|0:0,0:0:0:0:
80,232,65576,2,0,L|72:140,1,90.625,6|0,0:0|0:0,0:0:0:0:
156,200,65900,5,8,0:0:0:0:
84,304,66062,1,0,0:0:0:0:
76,316,66143,1,0,0:0:0:0:
68,328,66224,2,0,L|204:324,1,135.9375,2|0,0:0|0:0,0:0:0:0:
240,296,66549,5,6,0:0:0:0:
284,164,66711,1,2,0:0:0:0:
168,244,66873,1,6,0:0:0:0:
308,240,67035,1,2,0:0:0:0:
196,164,67197,2,2,L|180:144,6,22.65625
196,164,67522,5,2,0:0:0:0:
324,316,67765,1,2,0:0:0:0:
284,164,68008,1,2,0:0:0:0:
160,316,68251,2,0,P|104:284|100:216,1,135.9375,2|2,0:0|0:0,0:0:0:0:
124,180,68576,1,0,0:0:0:0:
112,176,68657,1,0,0:0:0:0:
100,172,68738,1,0,0:0:0:0:
88,168,68819,2,0,L|76:76,1,90.625,6|0,0:0|0:0,0:0:0:0:
156,32,69143,6,0,L|200:24,3,45.3125
196,68,69468,2,0,L|288:60,1,90.625,6|0,0:0|0:0,0:0:0:0:
369,115,69792,1,0,0:0:0:0:
378,147,69873,1,0,0:0:0:0:
374,181,69954,1,0,0:0:0:0:
358,210,70035,1,0,0:0:0:0:
332,232,70116,2,0,L|240:228,1,90.625,6|0,0:0|0:0,0:0:0:0:
164,184,70441,6,0,L|116:180,3,45.3125,0|0|0|0,0:0|0:0|0:0|0:0,0:0:0:0:
84,152,70765,2,0,B|96:196|96:196|84:240,1,90.625,6|0,0:0|0:0,0:0:0:0:
54,324,71089,1,0,0:0:0:0:
88,328,71170,1,0,0:0:0:0:
121,320,71251,1,0,0:0:0:0:
148,301,71332,1,0,0:0:0:0:
167,273,71414,2,0,L|304:280,1,135.9375,6|0,0:0|0:0,0:0:0:0:
344,260,71738,5,2,0:0:0:0:
424,192,71900,1,2,0:0:0:0:
356,348,72062,1,2,0:0:0:0:
256,208,72224,1,2,0:0:0:0:
332,120,72387,6,0,L|336:168,3,45.3125,2|0|0|0,0:0|0:0|0:0|0:0,0:0:0:0:
332,120,72711,2,0,L|240:116,1,90.625,2|0,0:0|0:0,0:0:0:0:
76,268,73035,2,0,L|168:272,1,90.625,0|0,0:0|0:0,0:0:0:0:
260,232,73359,6,0,L|256:208,2,22.65625,2|0|0,0:0|0:0|0:0,0:0:0:0:
308,304,73522,2,0,L|304:328,2,22.65625,2|0|0,0:0|0:0|0:0,0:0:0:0:
368,228,73684,2,0,L|376:184,1,45.3125,2|0,0:0|0:0,0:0:0:0:
404,308,73846,2,0,L|424:348,1,45.3125,2|0,0:0|0:0,0:0:0:0:
256,192,74008,12,0,76603,0:0:0:0:
404,252,84387,6,0,L|392:198,1,54.3750020742417,4|0,0:0|0:0,0:0:0:0:
412,56,84711,2,0,P|364:104|300:92,1,135.9375,2|0,0:0|0:0,0:0:0:0:
256,64,85035,6,0,L|260:8,1,54.3750020742417
100,92,85359,2,0,P|164:116|180:176,1,135.9375,2|0,0:0|0:0,0:0:0:0:
148,220,85684,6,0,L|92:228,1,54.3750020742417,2|0,0:0|0:0,0:0:0:0:
256,252,86008,2,0,L|256:306,1,54.3750020742417,2|0,0:0|0:0,0:0:0:0:
364,220,86332,2,0,L|420:228,2,54.3750020742417,2|0|2,0:0|0:0|0:0,0:0:0:0:
256,120,86981,5,0,0:0:0:0:
291,123,87062,1,0,0:0:0:0:
325,110,87143,1,0,0:0:0:0:
348,82,87224,1,0,0:0:0:0:
356,47,87305,6,0,L|464:68,1,108.75,2|0,0:0|0:0,0:0:0:0:
472,140,87630,2,0,L|468:176,3,36.25
424,232,87954,2,0,L|432:268,3,36.25,2|0|0|0,0:0|0:0|0:0|0:0,0:0:0:0:
456,336,88278,5,0,0:0:0:0:
368,308,88441,1,0,0:0:0:0:
276,316,88603,1,2,0:0:0:0:
196,368,88765,1,0,0:0:0:0:
124,304,88927,6,0,L|120:256,2,48.3333333333333
196,232,89251,2,0,L|200:280,2,48.3333333333333,2|0|0,0:0|0:0|0:0,0:0:0:0:
132,176,89576,6,0,L|92:140,1,54.3750020742417,4|0,0:0|0:0,0:0:0:0:
104,36,89900,6,0,L|208:132,1,135.9375,2|0,0:0|0:0,0:0:0:0:
296,204,90224,6,0,P|328:200|352:196,1,54.3750020742417
408,272,90549,6,0,L|272:292,1,135.9375,2|0,0:0|0:0,0:0:0:0:
148,288,90873,6,0,P|152:320|156:344,1,54.3750020742417
44,356,91197,6,0,L|60:288|76:220,1,135.9375,2|0,0:0|0:0,0:0:0:0:
116,104,91522,6,0,P|108:72|104:48,1,54.3750020742417
216,28,91846,6,0,P|208:88|196:164,1,135.9375,2|0,0:0|0:0,0:0:0:0:
148,288,92170,6,0,P|140:256|136:236,1,54.3750020742417
232,320,92495,6,0,L|368:316,1,135.9375,2|0,0:0|0:0,0:0:0:0:
440,180,92819,6,0,L|436:208|432:236,1,54.3750020742417
360,328,93143,6,0,L|352:188,1,135.9375,2|0,0:0|0:0,0:0:0:0:
256,192,93468,12,0,94441,0:0:0:0:
136,144,94765,6,0,L|200:140,1,54.375,2|0,0:0|0:0,0:0:0:0:
236,128,95089,6,0,P|260:180|244:224,1,86.9999973449708,6|0,0:0|0:0,0:0:0:0:
232,240,95332,5,0,0:0:0:0:
232,240,95414,2,0,L|368:232,2,135.9375,2|0|0,0:2|0:0|0:0,0:0:0:0:
164,312,96062,2,0,B|120:316|120:316|76:296,1,90.625,2|0,0:2|0:0,0:0:0:0:
68,276,96305,1,0,0:0:0:0:
68,276,96387,2,0,L|72:228,2,45.3125,0|0|0,0:0|0:0|0:0,0:0:0:0:
24,140,96711,6,0,P|68:152|112:136,1,90.625,2|0,0:2|0:0,0:0:0:0:
128,128,96954,2,0,B|188:104|188:104|260:116,1,135.9375
344,32,97359,5,2,0:2:0:0:
364,64,97441,1,0,0:0:0:0:
382,99,97522,1,0,0:0:0:0:
375,134,97603,1,0,0:0:0:0:
367,171,97684,2,0,L|396:196,3,36.25,2|0|0|0,0:2|0:0|0:0|0:0,0:0:0:0:
424,220,98008,5,2,0:2:0:0:
388,217,98089,1,0,0:0:0:0:
354,230,98170,1,0,0:0:0:0:
330,256,98251,1,0,0:0:0:0:
316,288,98332,2,0,P|292:316|260:328,1,72.5,2|0,0:2|0:0,0:0:0:0:
184,312,98576,1,0,0:0:0:0:
184,312,98657,6,0,B|164:304|164:304|120:308,2,60.4166666666667,8|0|0,0:0|0:0|0:0,0:0:0:0:
212,220,98981,2,0,B|200:200|200:200|192:164,2,60.4166666666667,8|0|0,0:0|0:0|0:0,0:0:0:0:
300,220,99305,2,0,B|312:200|312:200|320:164,2,60.4166666666667,8|0|0,0:0|0:0|0:0,0:0:0:0:
328,312,99630,2,0,B|348:304|348:304|386:307,2,60.4166666666667,8|0|0,0:0|0:0|0:0,0:0:0:0:
256,364,99954,6,2,L|256:272,1,81.5625031113626,4|0,0:0|0:0,0:0:0:0:
256,256,100278,5,6,0:0:0:0:
216,124,100441,1,0,0:0:0:0:
320,200,100603,5,2,0:2:0:0:
192,200,100765,1,0,0:0:0:0:
176,196,100846,1,0,0:0:0:0:
160,192,100927,2,0,B|144:236|144:236|160:276,1,90.625,2|0,0:0|0:0,0:0:0:0:
348,284,101251,5,2,0:2:0:0:
368,276,101332,1,0,0:0:0:0:
388,268,101414,1,0,0:0:0:0:
408,260,101495,1,0,0:0:0:0:
424,252,101576,6,0,B|436:232|436:232|432:208,1,45.3125,2|0,0:0|0:0,0:0:0:0:
452,124,101738,2,0,B|428:120|428:120|404:128,1,45.3125
328,168,101900,5,2,0:2:0:0:
306,161,101981,1,0,0:0:0:0:
284,154,102062,1,0,0:0:0:0:
262,148,102143,1,0,0:0:0:0:
244,144,102224,5,2,0:0:0:0:
247,166,102305,1,0,0:0:0:0:
244,188,102387,1,0,0:0:0:0:
235,209,102468,1,0,0:0:0:0:
220,228,102549,6,0,B|196:224|196:224|172:236|172:236|96:196,1,135.9375,2|0,0:0|0:0,0:0:0:0:
92,108,102873,2,0,L|172:152,1,90.625,2|0,0:2|0:0,0:0:0:0:
308,240,103197,6,0,B|332:232|332:232|352:216|352:216|440:216,1,135.9375,2|0,0:0|0:0,0:0:0:0:
488,292,103522,2,0,L|396:292,1,90.625,2|0,0:2|0:0,0:0:0:0:
216,272,103846,5,2,0:0:0:0:
324,320,104008,1,0,0:0:0:0:
328,328,104089,1,0,0:0:0:0:
332,336,104170,1,2,0:2:0:0:
396,208,104332,1,0,0:0:0:0:
408,200,104414,1,0,0:0:0:0:
420,192,104495,6,0,B|440:176|440:148|440:148|440:108,1,90.625,2|0,0:0|0:0,0:0:0:0:
380,40,104738,2,0,B|364:56|356:76|356:76|264:76,1,135.9375,2|2,0:0|0:0,0:0:0:0:
132,80,105143,6,0,P|220:96|244:176,1,181.25,6|8,0:0|0:0,0:0:0:0:
148,176,105630,1,0,0:0:0:0:
156,168,105711,1,0,0:0:0:0:
164,160,105792,1,2,0:0:0:0:
272,32,105954,1,0,0:0:0:0:
244,176,106116,1,8,0:0:0:0:
132,80,106278,1,0,0:0:0:0:
316,116,106441,6,0,B|360:128|360:128|436:116|440:32,1,181.25,6|8,0:0|0:0,0:0:0:0:
336,24,106927,1,0,0:0:0:0:
344,32,107008,1,0,0:0:0:0:
352,40,107089,1,2,0:0:0:0:
448,180,107251,1,0,0:0:0:0:
316,116,107414,5,8,0:0:0:0:
440,32,107576,1,0,0:0:0:0:
360,200,107738,5,6,0:0:0:0:
232,136,107900,1,0,0:0:0:0:
272,300,108062,5,12,0:0:0:0:
208,232,108224,1,0,0:0:0:0:
376,84,108387,5,2,0:0:0:0:
296,204,108549,1,0,0:0:0:0:
144,172,108711,5,8,0:0:0:0:
280,48,108873,1,0,0:0:0:0:
392,188,109035,6,0,L|484:176,1,90.625,6|0,0:0|0:0,0:0:0:0:
312,296,109359,2,0,L|220:292,1,90.625,8|0,0:0|0:0,0:0:0:0:
408,284,109684,2,0,B|424:320|424:320|416:376,1,90.625,2|0,0:0|0:0,0:0:0:0:
296,204,110008,2,0,B|280:168|280:168|288:112,1,90.625,8|0,0:0|0:0,0:0:0:0:
436,64,110332,5,6,0:0:0:0:
496,208,110495,1,0,0:0:0:0:
356,296,110657,5,8,0:0:0:0:
364,128,110819,1,0,0:0:0:0:
456,296,110981,5,2,0:0:0:0:
308,216,111143,2,0,L|284:216,4,22.65625,0|0|0|0|0,0:0|0:0|0:0|0:0|0:0,0:0:0:0:
404,212,111468,1,8,0:0:0:0:
436,64,111630,5,6,0:0:0:0:
496,208,111792,1,0,0:0:0:0:
364,128,111954,5,8,0:0:0:0:
512,116,112116,1,0,0:0:0:0:
404,212,112278,5,2,0:0:0:0:
360,332,112441,2,0,L|360:356,4,22.65625,0|0|0|0|0,0:0|0:0|0:0|0:0|0:0,0:0:0:0:
312,192,112765,1,8,0:0:0:0:
244,46,112927,5,6,0:0:0:0:
233,85,113008,1,0,0:0:0:0:
202,111,113089,1,0,0:0:0:0:
161,114,113170,1,0,0:0:0:0:
124,96,113251,6,0,L|112:52,1,45.3125,8|8,0:0|0:0,0:0:0:0:
44,133,113414,2,0,L|52:177,1,45.3125
96,253,113576,5,6,0:0:0:0:
132,234,113657,1,0,0:0:0:0:
172,234,113738,1,0,0:0:0:0:
207,252,113819,1,0,0:0:0:0:
229,287,113900,1,8,0:0:0:0:
251,321,113981,1,0,0:0:0:0:
285,343,114062,1,0,0:0:0:0:
325,346,114143,1,0,0:0:0:0:
365,343,114224,5,6,0:0:0:0:
405,177,114387,1,2,0:0:0:0:
392,328,114549,5,8,0:0:0:0:
432,162,114712,1,2,0:0:0:0:
452,264,114873,6,0,B|484:272|484:272|512:264,2,60.4166666666667,2|2|0,0:0|0:0|0:0,0:0:0:0:
348,236,115197,2,0,B|316:228|316:228|288:236,2,60.4166666666667,8|2|0,0:0|0:0|0:0,0:0:0:0:
256,192,115846,12,0,120711,0:0:0:0:
