osu file format v14

[General]
AudioFilename: BLACK or WHITE.mp3
AudioLeadIn: 0
PreviewTime: 52137
Countdown: 0
SampleSet: Soft
StackLeniency: 0.7
Mode: 0
LetterboxInBreaks: 0
WidescreenStoryboard: 0

[Editor]
DistanceSpacing: 1.4
BeatDivisor: 4
GridSize: 4
TimelineZoom: 2.1

[Metadata]
Title:BLACK or WHITE?
TitleUnicode:BLACK or WHITE?
Artist:BlackYooh vs. siromaru
ArtistUnicode:BlackYooh vs. siromaru
Creator:Fast
Version:Gamu's ADVANCED
Source:SOUND VOLTEX II -infinite infection-
Tags:SDVX BlackY KAC 2013 happy623 GUHROOVY HelloSCV Gurvy Gamu
BeatmapID:503231
BeatmapSetID:144158

[Difficulty]
HPDrainRate:5
CircleSize:3.5
OverallDifficulty:6
ApproachRate:7
SliderMultiplier:1.3
SliderTickRate:1

[Events]
//Background and Video events
0,0,"bg.jpg",0,0
//Break Periods
2,32695,41973
2,74207,83487
//Storyboard Layer 0 (Background)
//Storyboard Layer 1 (Fail)
//Storyboard Layer 2 (Pass)
//Storyboard Layer 3 (Foreground)
//Storyboard Sound Samples

[TimingPoints]
1360,324.324324324324,4,2,0,50,1,0
6549,-100,4,2,0,60,0,0
7846,-100,4,2,0,70,0,0
9143,-100,4,2,0,80,0,0
10441,-100,4,2,0,20,0,0
10765,-100,4,2,0,60,0,0
11738,-100,4,1,1,50,0,0
22116,-100,4,1,1,60,0,0
27305,-100,4,1,1,70,0,0
28603,-100,4,1,1,75,0,0
29900,-100,4,1,1,80,0,0
31197,-100,4,1,1,85,0,0
32495,-100,4,1,0,60,0,0
42873,-100,4,2,0,70,0,0
53251,-100,4,1,1,80,0,1
73684,-100,4,1,1,60,0,1
74008,-100,4,1,0,40,0,0
84387,-100,4,1,1,70,0,0
94765,-100,4,1,1,80,0,1
115846,-100,4,1,0,60,0,0
116819,-100,4,2,0,30,0,0
118116,-100,4,2,0,20,0,0
119414,-100,4,2,0,10,0,0
120711,-100,4,2,0,5,0,0

[Colours]
Combo1 : 177,184,203
Combo2 : 132,132,132

[HitObjects]
444,192,1360,6,0,P|412:200|379:195,1,65,4|0,0:0|0:0,0:0:0:0:
404,108,1684,2,0,L|416:40,1,65,2|0,0:2|0:0,0:0:0:0:
316,132,2008,2,0,P|284:124|251:128,1,65,0|0,0:0|0:0,0:0:0:0:
276,216,2332,2,0,L|287:280,1,65,2|0,0:2|0:0,0:0:0:0:
188,192,2657,6,0,P|168:165|159:133,1,65,0|0,0:0|0:0,0:0:0:0:
184,48,2981,2,0,L|52:44,1,130,2|0,0:2|0:0,0:0:0:0:
16,128,3468,1,0,0:0:0:0:
80,192,3630,2,0,P|84:260|52:316,1,130,2|0,0:2|0:0,0:0:0:0:
136,356,4116,5,0,0:0:0:0:
204,296,4278,2,0,P|240:296|268:304,1,65,2|0,0:2|0:0,0:0:0:0:
348,348,4603,2,0,P|384:348|412:340,1,65,0|0,0:0|0:0,0:0:0:0:
468,268,4927,2,0,P|468:232|460:204,1,65,2|0,0:2|0:0,0:0:0:0:
400,136,5251,5,0,0:0:0:0:
312,116,5414,1,0,0:0:0:0:
240,168,5576,2,0,P|176:184|120:160,1,130,2|0,0:2|0:0,0:0:0:0:
184,96,6062,1,0,0:0:0:0:
96,76,6224,2,0,P|48:112|36:184,1,130,2|0,0:2|0:0,0:0:0:0:
56,268,6711,5,0,0:0:0:0:
136,312,6873,2,0,L|204:304,1,65,2|0,0:2|0:0,0:0:0:0:
192,212,7197,2,0,L|260:204,1,65,2|0,0:2|0:0,0:0:0:0:
288,288,7522,2,0,L|356:280,1,65,2|0,0:2|0:0,0:0:0:0:
344,188,7846,6,0,L|412:180,1,65,2|0,0:2|0:0,0:0:0:0:
484,232,8170,2,0,P|496:196|496:164,1,65,2|0,0:2|0:0,0:0:0:0:
460,84,8495,2,0,L|392:92,1,65,2|0,0:2|0:0,0:0:0:0:
320,40,8819,2,0,P|308:76|308:108,1,65,2|0,0:2|0:0,0:0:0:0:
344,188,9143,6,0,L|334:252,1,65,4|4,0:0|0:0,0:0:0:0:
177,252,9468,2,0,L|168:188,1,65,4|4,0:0|0:0,0:0:0:0:
340,280,9792,2,0,L|330:344,1,65,4|4,0:0|0:0,0:0:0:0:
181,344,10116,2,0,L|172:280,1,65,4|4,0:0|0:0,0:0:0:0:
256,192,10765,6,0,L|256:168,16,16.25,2|0|0|0|0|0|0|0|0|0|0|0|0|0|0|0|4,0:0|0:0|0:0|0:0|0:0|0:0|0:0|0:0|0:0|0:0|0:0|0:0|0:0|0:0|0:0|0:0|0:0,0:0:0:0:
392,72,11738,5,4,0:0:0:0:
304,96,11900,2,0,L|260:100,2,32.5,2|0|0,0:2|0:0|0:0,0:0:0:0:
368,160,12224,2,0,P|372:192|364:228,1,65,2|0,0:2|0:0,0:0:0:0:
324,304,12549,2,0,L|328:344,2,32.5,2|0|0,0:2|0:0|0:0,0:0:0:0:
240,268,12873,6,0,P|208:264|172:272,1,65,2|0,0:2|0:0,0:0:0:0:
100,324,13197,2,0,L|92:360,2,32.5,2|0|0,0:2|0:0|0:0,0:0:0:0:
92,232,13522,2,0,L|80:160,1,65,2|0,0:2|0:0,0:0:0:0:
64,80,13846,1,2,0:2:0:0:
140,32,14008,2,0,L|172:35,3,32.5,2|0|0|0,0:2|0:0|0:0|0:0,0:0:0:0:
216,44,14332,6,0,P|252:44|288:36,2,65,0|2|0,0:0|0:2|0:0,0:0:0:0:
172,124,14819,2,0,L|164:156,2,32.5,2|0|0,0:2|0:0|0:0,0:0:0:0:
264,124,15143,2,0,L|248:192,1,65,2|0,0:2|0:0,0:0:0:0:
220,276,15468,2,0,L|224:308,2,32.5,2|0|0,0:2|0:0|0:0,0:0:0:0:
308,256,15792,6,0,L|380:252,1,65,2|0,0:2|0:0,0:0:0:0:
464,244,16116,1,2,0:2:0:0:
408,172,16278,2,0,L|416:136,3,32.5,2|0|0|0,0:2|0:0|0:0|0:0,0:0:0:0:
428,96,16603,2,0,P|404:80|368:76,1,65,2|4,0:2|0:0,0:0:0:0:
320,152,16927,6,0,P|264:148|252:80,1,130,0|0,2:0|0:0,0:0:0:0:
172,40,17414,2,0,L|92:44,1,65,2|0,0:2|0:0,0:0:0:0:
24,80,17738,2,0,L|16:36,2,32.5,2|0|0,0:2|0:0|0:0,0:0:0:0:
84,148,18062,2,0,P|88:180|80:212,1,65,2|0,0:2|0:0,0:0:0:0:
40,296,18387,6,0,L|45:327,2,32.5,2|0|0,0:2|0:0|0:0,0:0:0:0:
132,288,18711,2,0,L|196:291,1,65,2|0,0:2|0:0,0:0:0:0:
256,220,19035,1,2,0:2:0:0:
315,291,19197,2,0,L|347:289,3,32.5,2|0|0|0,0:2|0:0|0:0|0:0,0:0:0:0:
392,284,19522,6,0,P|400:248|396:208,1,65,2|0,0:2|0:0,0:0:0:0:
348,144,19846,2,0,L|304:136,3,32.5,2|0|0|0,0:2|0:0|0:0|0:0,0:0:0:0:
272,128,20170,2,0,P|264:92|268:52,1,65,2|0,0:2|0:0,0:0:0:0:
184,28,20495,2,0,L|144:32,3,32.5,2|0|0|0,0:2|0:0|0:0|0:0,0:0:0:0:
108,40,20819,6,0,P|84:64|72:96,1,65,2|2,0:2|0:2,0:0:0:0:
124,168,21143,2,0,P|148:144|160:112,1,65,2|2,0:2|0:2,0:0:0:0:
44,172,21468,2,0,L|48:204,3,32.5,2|2|2|2,0:2|0:2|0:2|0:2,0:0:0:0:
52,248,21792,6,0,P|104:276|180:264,1,130,2|0,0:2|0:0,0:0:0:0:
256,232,22278,1,0,0:0:0:0:
339,267,22441,2,0,P|402:276|464:252,1,130,4|0,0:0|0:0,0:0:0:0:
477,163,22927,1,0,0:0:0:0:
388,168,23089,6,0,L|412:320,1,130,4|0,0:0|0:0,0:0:0:0:
103,296,23738,2,0,L|124:168,1,130,4|0,0:0|0:0,0:0:0:0:
320,64,24387,2,0,P|256:80|192:64,1,130,4|0,0:0|0:0,0:0:0:0:
116,24,24873,5,0,0:0:0:0:
44,80,25035,2,0,L|48:212,1,130,4|0,0:0|0:0,0:0:0:0:
52,300,25522,1,0,0:0:0:0:
109,370,25684,6,0,P|139:314|128:252,1,130,4|0,0:0|0:0,0:0:0:0:
383,252,26332,2,0,P|372:314|402:370,1,130,4|0,0:0|0:0,0:0:0:0:
320,192,26981,2,0,L|188:192,1,130,4|4,0:0|0:0,0:0:0:0:
8,192,27630,6,0,L|16:124,1,65
111,35,27954,2,0,L|104:100,1,65
116,244,28278,2,0,L|124:176,1,65
220,88,28602,6,0,L|212:152,1,65,4|0,0:0|0:0,0:0:0:0:
216,244,28927,2,0,P|228:272|256:296,1,65
336,332,29251,2,0,P|364:320|388:292,1,65
428,212,29576,2,0,P|416:184|388:160,1,65
312,116,29900,6,0,L|304:48,1,65,4|0,0:0|0:0,0:0:0:0:
220,88,30224,2,0,L|212:20,1,65,0|0,0:0|0:0,0:0:0:0:
180,192,30549,2,0,L|172:260,1,65,0|0,0:0|0:0,0:0:0:0:
88,220,30873,2,0,L|80:288,1,65,0|0,0:0|0:0,0:0:0:0:
148,344,31197,5,4,0:0:0:0:
256,192,31278,12,4,32495,0:0:0:0:
320,240,42873,6,0,P|288:248|252:244,1,65,4|0,0:0|0:0,0:0:0:0:
180,196,43197,2,0,P|148:188|112:192,1,65,2|0,0:0|0:0,0:0:0:0:
56,260,43522,2,0,P|56:312|112:368,1,130,2|0,0:0|0:0,0:0:0:0:
144,284,44008,1,0,0:0:0:0:
208,348,44170,6,0,L|344:340,1,130,2|0,0:0|0:0,0:0:0:0:
340,248,44657,1,0,0:0:0:0:
420,292,44819,2,0,P|432:256|428:224,1,65,2|0,0:0|0:0,0:0:0:0:
388,148,45143,2,0,P|352:136|320:140,1,65,2|0,0:0|0:0,0:0:0:0:
252,196,45468,6,0,P|184:204|132:172,1,130,2|0,0:0|0:0,0:0:0:0:
104,88,45954,1,0,0:0:0:0:
48,160,46116,2,0,P|48:192|72:232,1,65,2|0,0:0|0:0,0:0:0:0:
116,296,46441,2,0,P|138:318|183:329,1,65,2|0,0:0|0:0,0:0:0:0:
260,324,46765,6,0,L|332:328,1,65,2|0,0:0|0:0,0:0:0:0:
416,328,47089,2,0,P|448:312|468:284,1,65,2|0,0:0|0:0,0:0:0:0:
488,200,47414,2,0,L|480:136,1,65,2|0,0:0|0:0,0:0:0:0:
392,112,47738,2,0,L|384:176,1,65,2|0,0:0|0:0,0:0:0:0:
308,132,48062,6,0,B|296:88|328:48|328:48|276:36,1,130,2|0,0:0|0:0,0:0:0:0:
200,20,48549,1,0,0:0:0:0:
116,60,48711,2,0,P|100:88|104:124,1,65,2|0,0:0|0:0,0:0:0:0:
180,168,49035,2,0,P|196:140|192:104,1,65,2|0,0:0|0:0,0:0:0:0:
116,60,49359,6,0,P|52:56|8:104,1,130,2|0,0:0|0:0,0:0:0:0:
16,192,49846,1,0,0:0:0:0:
9,283,50008,2,0,P|53:328|116:324,1,130,2|0,0:0|0:0,0:0:0:0:
172,252,50495,1,0,0:0:0:0:
256,220,50657,6,0,P|320:216|388:236,1,130,2|0,0:0|0:0,0:0:0:0:
440,304,51143,1,0,0:0:0:0:
492,228,51305,2,0,L|496:160,1,65,2|0,0:0|0:0,0:0:0:0:
480,72,51630,2,0,P|448:64|416:68,1,65,2|0,0:0|0:0,0:0:0:0:
344,120,51954,6,0,L|208:108,2,130,2|2|2,0:0|0:0|0:0,0:0:0:0:
300,296,52927,2,0,L|224:288,1,65,4|0,0:0|0:0,0:0:0:0:
144,276,53251,6,0,P|92:280|32:232,1,130,4|0,0:0|0:0,0:0:0:0:
20,140,53738,1,0,0:0:0:0:
76,68,53900,2,0,L|140:52,1,65,2|0,0:2|0:0,0:0:0:0:
192,128,54224,2,0,P|216:104|228:72,1,65,2|0,0:2|0:0,0:0:0:0:
320,64,54549,5,2,0:2:0:0:
471,165,54873,1,2,0:2:0:0:
286,173,55197,1,2,0:2:0:0:
431,58,55522,1,2,0:2:0:0:
382,236,55846,6,0,P|392:288|448:336,1,130,6|0,0:2|0:0,0:0:0:0:
472,248,56332,1,0,0:0:0:0:
436,164,56495,2,0,P|400:144|368:148,1,65,2|0,0:2|0:0,0:0:0:0:
287,172,56819,2,0,P|271:196|263:240,1,65,2|0,0:2|0:0,0:0:0:0:
276,320,57143,5,2,0:2:0:0:
96,336,57468,1,2,0:2:0:0:
192,180,57792,1,2,0:2:0:0:
12,164,58117,1,2,0:2:0:0:
116,16,58441,6,0,L|256:24,1,130,6|0,0:2|0:0,0:0:0:0:
252,112,58927,1,0,0:0:0:0:
192,180,59089,2,0,P|192:212|200:244,1,65,2|0,0:2|0:0,0:0:0:0:
312,243,59414,2,0,P|319:212|320:180,1,65,2|0,0:2|0:0,0:0:0:0:
252,112,59738,5,2,0:2:0:0:
252,292,60062,1,2,0:2:0:0:
252,112,60387,1,2,0:2:0:0:
252,292,60711,1,2,0:2:0:0:
252,112,61035,6,0,P|184:96|120:108,1,130,6|0,0:2|0:0,0:0:0:0:
64,176,61522,1,0,0:0:0:0:
32,260,61684,2,0,L|40:328,1,65,2|0,0:2|0:0,0:0:0:0:
128,336,62008,2,0,L|120:271,1,65,2|0,0:2|0:0,0:0:0:0:
156,188,62333,5,2,0:2:0:0:
328,126,62657,1,2,0:2:0:0:
150,77,62981,1,2,0:2:0:0:
265,222,63306,1,2,0:2:0:0:
257,37,63630,6,0,P|308:12|384:24,1,130,6|0,0:2|0:0,0:0:0:0:
436,92,64116,1,0,0:0:0:0:
408,180,64278,2,0,P|408:212|416:244,1,65,2|0,0:2|0:0,0:0:0:0:
332,280,64603,2,0,P|332:248|324:216,1,65,2|0,0:2|0:0,0:0:0:0:
268,144,64927,6,0,P|204:128|132:136,1,130,2|2,0:2|0:2,0:0:0:0:
96,312,65576,2,0,P|160:328|232:320,1,130,2|2,0:2|0:2,0:0:0:0:
348,188,66224,6,0,B|392:96,1,97.5,0|0,0:0|2:0,0:0:0:0:
376,56,66549,2,0,L|311:63,1,65,2|2,0:2|0:2,0:0:0:0:
268,144,66873,2,0,L|203:151,1,65,2|2,0:2|0:2,0:0:0:0:
160,232,67197,1,2,0:2:0:0:
160,232,67522,6,0,P|156:284|176:336,1,97.5,2|2,0:2|0:2,0:0:0:0:
308,332,68008,2,0,P|312:280|292:228,1,97.5,2|2,0:2|0:2,0:0:0:0:
192,152,68495,2,0,P|144:148|83:198,1,130,2|4,0:2|0:0,0:0:0:0:
188,348,69143,6,0,L|228:352,4,32.5,0|0|0|0|4,0:0|0:0|0:0|0:0|0:0,0:0:0:0:
332,236,69792,2,0,L|299:239,4,32.5,0|0|0|0|4,0:0|0:0|0:0|0:0|0:0,0:0:0:0:
168,156,70441,6,0,L|208:160,4,32.5,0|0|0|0|4,0:0|0:0|0:0|0:0|0:0,0:0:0:0:
312,44,71089,2,0,L|279:47,4,32.5,0|0|0|0|4,0:0|0:0|0:0|0:0|0:0,0:0:0:0:
464,148,71738,6,0,P|472:180|472:212,1,65,2|0,0:2|0:0,0:0:0:0:
444,296,72062,2,0,P|412:304|380:304,1,65,2|0,0:2|0:0,0:0:0:0:
292,288,72387,2,0,L|259:293,4,32.5,2|0|0|0|4,0:2|0:0|0:0|0:0|0:0,0:0:0:0:
372,124,73035,5,2,0:2:0:0:
196,232,73359,2,0,P|172:288|196:352,2,130,2|0|4,0:2|0:0|0:0,0:0:0:0:
128,60,84387,6,0,L|56:64,2,65,0|0|2,0:0|0:0|0:2,0:0:0:0:
296,132,85035,2,0,L|368:136,2,65,0|0|2,0:0|0:0|0:2,0:0:0:0:
120,172,85684,6,0,P|104:228|120:296,1,130,2|2,0:2|0:2,0:0:0:0:
292,236,86332,2,0,P|354:219|416:235,1,130,2|2,0:2|0:2,0:0:0:0:
260,332,86981,6,0,L|196:324,2,65,0|0|2,0:0|0:0|0:2,0:0:0:0:
108,232,87630,2,0,L|172:224,2,65,0|0|2,0:0|0:0|0:2,0:0:0:0:
292,236,88278,6,0,P|300:204|296:172,1,65,2|0,0:2|0:0,0:0:0:0:
264,88,88603,2,0,P|232:80|200:84,1,65,2|0,0:2|0:0,0:0:0:0:
132,144,88927,2,0,L|-4:128,2,130,2|2|0,0:2|0:2|0:0,0:0:0:0:
108,232,89738,5,0,0:0:0:0:
196,212,89900,2,0,P|188:272|136:316,1,130,2|0,0:2|0:0,0:0:0:0:
48,300,90387,1,0,0:0:0:0:
20,216,90549,2,0,P|64:152|120:140,1,130,2|0,0:2|0:0,0:0:0:0:
292,164,91197,5,2,0:2:0:0:
428,284,91522,2,0,L|436:144,1,130,0|2,0:0|0:2,0:0:0:0:
284,56,92170,6,0,P|248:52|216:56,1,65
136,96,92495,2,0,L|68:84,1,65,2|0,0:2|0:0,0:0:0:0:
20,160,92819,2,0,P|16:196|20:228,1,65
64,304,93144,2,0,L|132:316,1,65,2|0,0:2|0:0,0:0:0:0:
220,328,93468,5,0,0:0:0:0:
256,192,93549,12,4,94765,0:0:0:0:
240,312,95089,6,0,L|172:296,1,65,2|0,0:2|0:0,0:0:0:0:
92,260,95414,2,0,L|-8:280,2,97.5,2|2|2,0:2|0:2|0:2,0:0:0:0:
152,192,96062,6,0,P|160:144|152:96,1,97.5,2|2,0:2|0:2,0:0:0:0:
224,40,96468,2,0,L|292:44,1,65,2|0,0:2|0:0,0:0:0:0:
332,52,96711,2,0,P|380:56|440:44,2,97.5,2|2|2,0:2|0:2|0:2,0:0:0:0:
268,116,97359,6,0,P|260:152|264:184,1,65,2|0,0:2|0:0,0:0:0:0:
352,156,97684,2,0,P|384:148|420:152,1,65,2|0,0:2|0:0,0:0:0:0:
388,236,98008,2,0,P|396:268|392:304,1,65,2|0,0:2|0:0,0:0:0:0:
304,276,98332,2,0,P|272:268|236:272,1,65,2|0,0:2|0:0,0:0:0:0:
164,324,98657,6,0,L|160:368,2,43.3333333333333,2|0|0,0:2|0:0|0:0,0:0:0:0:
116,288,98981,2,0,L|82:316,2,43.3333333333333,2|0|0,0:2|0:0|0:0,0:0:0:0:
107,228,99305,2,0,L|63:224,2,43.3333333333333,2|0|0,0:2|0:0|0:0,0:0:0:0:
143,179,99630,2,0,L|114:145,2,43.3333333333333,2|0|0,0:2|0:0|0:0,0:0:0:0:
203,169,99954,6,0,L|213:35,1,130,2|2,0:2|0:2,0:0:0:0:
296,80,100441,1,2,0:2:0:0:
384,104,100603,2,0,L|452:100,1,65,2|0,0:2|0:0,0:0:0:0:
472,188,100927,2,0,L|407:191,1,65,2|0,0:2|0:0,0:0:0:0:
316,204,101251,6,0,P|304:236|300:268,1,65,2|0,0:2|0:0,0:0:0:0:
236,332,101576,2,0,P|222:302|203:276,1,65,2|0,0:2|0:0,0:0:0:0:
128,224,101900,2,0,L|88:216,3,32.5,2|0|0|0,0:2|0:0|0:0|0:0,0:0:0:0:
52,204,102224,2,0,L|29:170,3,32.5,2|0|0|0,0:2|0:0|0:0|0:0,0:0:0:0:
12,136,102549,6,0,P|36:72|100:56,1,130,2|0,0:2|0:0,0:0:0:0:
160,112,103035,1,0,0:0:0:0:
224,48,103197,2,0,P|288:40|360:60,1,130,2|0,0:2|0:0,0:0:0:0:
424,108,103684,1,0,0:0:0:0:
456,192,103846,6,0,L|464:240,3,32.5,2|0|0|0,0:2|0:0|0:0|0:0,0:0:0:0:
444,268,104170,2,0,L|436:316,3,32.5,2|0|0|0,0:2|0:0|0:0|0:0,0:0:0:0:
408,332,104495,2,0,P|356:344|312:340,2,97.5,2|2|2,0:2|0:2|0:2,0:0:0:0:
372,220,105143,5,4,0:0:0:0:
256,80,105468,1,2,0:2:0:0:
208,156,105630,2,0,P|176:160|140:156,1,65,0|2,0:0|0:2,0:0:0:0:
60,124,105954,1,0,0:0:0:0:
8,200,106116,2,0,L|16:272,1,65,2|0,0:2|0:0,0:0:0:0:
68,340,106441,5,4,0:0:0:0:
68,340,106765,1,2,0:2:0:0:
152,300,106927,1,0,0:0:0:0:
244,300,107089,2,0,L|312:308,1,65,2|0,0:2|0:0,0:0:0:0:
352,228,107414,2,0,L|287:220,1,65,2|0,0:2|0:0,0:0:0:0:
196,204,107738,6,0,L|48:212,1,130,4|2,0:0|0:2,0:0:0:0:
244,300,108387,2,0,L|373:292,1,130,2|2,0:2|0:2,0:0:0:0:
196,204,109035,6,0,P|176:144|188:80,1,130,4|2,0:0|0:2,0:0:0:0:
356,8,109684,2,0,P|294:28|231:15,1,130,4|2,0:0|0:2,0:0:0:0:
56,56,110332,6,0,L|32:124,1,65,4|0,0:0|0:0,0:0:0:0:
64,204,110657,2,0,L|95:269,1,65,2|0,0:2|0:0,0:0:0:0:
175,303,110981,2,0,L|243:327,1,65,2|0,0:2|0:0,0:0:0:0:
323,294,111305,2,0,L|388:262,1,65,2|0,0:2|0:0,0:0:0:0:
436,192,111630,6,0,P|440:160|436:128,1,65,2|0,0:2|0:0,0:0:0:0:
352,160,111954,2,0,P|347:127|351:95,1,65,2|0,0:2|0:0,0:0:0:0:
280,40,112278,2,0,P|247:36|215:40,1,65,2|0,0:2|0:0,0:0:0:0:
248,124,112602,2,0,P|215:128|183:124,1,65,2|0,0:2|0:0,0:0:0:0:
104,84,112927,6,0,L|60:92,3,32.5,4|0|0|0,0:0|0:0|0:0|0:0,0:0:0:0:
44,124,113251,2,0,L|40:168,3,32.5,2|0|0|0,0:2|0:0|0:0|0:0,0:0:0:0:
36,204,113576,2,0,L|40:248,3,32.5,2|0|0|0,0:2|0:0|0:0|0:0,0:0:0:0:
72,268,113900,2,0,L|103:273,3,32.5,2|0|0|0,0:2|0:0|0:0|0:0,0:0:0:0:
148,280,114224,6,0,L|220:276,1,65,4|2,0:0|0:2,0:0:0:0:
320,199,114549,2,0,L|256:196,1,65,4|2,0:0|0:2,0:0:0:0:
164,188,114873,2,0,L|152:132,2,43.3333333333333,4|2|2,0:0|0:2|0:2,0:0:0:0:
104,180,115197,2,0,L|92:124,2,43.3333333333333,4|2|2,0:0|0:2|0:2,0:0:0:0:
272,324,115846,5,4,0:2:0:0:
256,192,115927,12,0,120711,0:0:0:0:
