osu file format v14

[General]
AudioFilename: BLACK or WHITE.mp3
AudioLeadIn: 0
PreviewTime: 52137
Countdown: 0
SampleSet: Normal
StackLeniency: 0.7
Mode: 0
LetterboxInBreaks: 0
WidescreenStoryboard: 0

[Editor]
Bookmarks: 0,567,8350,9648,9972,10621,10945,16134,16458,21323,31702,42080,51161,52134,52458,57648,62837,65431,65756,73215,77107,77350,77593,83594,93972,94296,104350,114729,115053
DistanceSpacing: 1.2
BeatDivisor: 4
GridSize: 4
TimelineZoom: 2.1

[Metadata]
Title:BLACK or WHITE?
TitleUnicode:BLACK or WHITE?
Artist:BlackYooh vs. siromaru
ArtistUnicode:BlackYooh vs. siromaru
Creator:Fast
Version:ADVANCED+
Source:SOUND VOLTEX II -infinite infection-
Tags:SDVX BlackY KAC 2013 happy623 GUHROOVY HelloSCV Gurvy Gamu
BeatmapID:358249
BeatmapSetID:144158

[Difficulty]
HPDrainRate:6
CircleSize:3.5
OverallDifficulty:7.5
ApproachRate:8
SliderMultiplier:1.53
SliderTickRate:1

[Events]
//Background and Video events
0,0,"bg.jpg",0,0
//Break Periods
2,32695,40826
2,76803,82339
//Storyboard Layer 0 (Background)
//Storyboard Layer 1 (Fail)
//Storyboard Layer 2 (Pass)
//Storyboard Layer 3 (Foreground)
//Storyboard Sound Samples

[TimingPoints]
1360,324.324324324324,4,1,1,80,1,0
6549,-100,4,1,1,80,0,0
7846,-100,4,1,1,85,0,0
8495,-100,4,1,1,90,0,0
8819,-100,4,2,1,90,0,0
9143,-100,4,1,1,95,0,0
10765,-100,4,1,1,100,0,0
10846,-100,4,1,1,80,0,0
11414,-100,4,1,1,90,0,0
11738,-100,4,1,1,80,0,0
14332,-100,4,1,0,80,0,0
14414,-100,4,1,1,80,0,0
16927,-111.111111111111,4,1,1,60,0,0
17251,-100,4,1,1,80,0,0
19522,-100,4,1,0,80,0,0
19603,-100,4,1,1,80,0,0
20819,-100,4,1,0,80,0,0
27305,-100,4,2,1,80,0,0
27387,-100,4,1,1,80,0,0
27630,-100,4,1,1,85,0,0
28603,-100,4,2,1,90,0,0
28684,-100,4,1,1,90,0,0
29900,-100,4,2,1,95,0,0
29981,-100,4,1,1,95,0,0
31197,-100,4,1,1,100,0,0
32495,-100,4,2,1,35,0,0
41576,-100,4,2,1,50,0,0
42873,-100,4,2,1,80,0,0
45468,-100,4,2,0,80,0,0
45549,-100,4,2,1,80,0,0
48062,-100,4,2,0,80,0,0
48143,-100,4,2,1,80,0,0
50657,-100,4,2,0,80,0,0
50738,-100,4,2,1,80,0,0
51954,-100,4,1,1,50,0,0
52441,-100,4,1,1,60,0,0
52603,-100,4,1,1,75,0,0
52927,-100,4,1,1,90,0,0
53251,-100,4,1,1,100,0,1
55846,-100,4,1,0,100,0,1
55927,-100,4,1,1,100,0,1
61035,-100,4,1,0,100,0,1
61116,-100,4,1,1,100,0,1
66224,-100,4,1,1,100,0,0
66549,-100,4,1,1,80,0,1
66873,-100,4,1,1,85,0,1
67197,-100,4,2,0,90,0,1
67522,-100,4,1,0,100,0,1
67765,-100,4,1,1,90,0,1
68778,-100,4,1,1,100,0,0
68819,-100,4,1,1,80,0,1
69468,-100,4,1,1,85,0,1
70116,-100,4,1,1,90,0,1
70765,-100,4,1,1,95,0,1
71414,-100,4,1,0,100,0,1
71495,-100,4,1,1,100,0,1
72711,-100,4,1,0,80,0,1
73684,-100,4,1,0,60,0,1
74008,-100,4,2,0,50,0,0
74089,-100,4,2,1,50,0,0
74657,-100,4,2,1,40,0,0
75305,-100,4,2,1,30,0,0
75954,-100,4,2,1,20,0,0
76278,-100,4,2,1,10,0,0
76603,-100,4,2,1,5,0,0
83089,-100,4,2,1,30,0,0
83414,-100,4,2,1,40,0,0
83738,-100,4,2,1,50,0,0
84062,-100,4,2,1,60,0,0
84387,-100,4,1,1,70,0,0
84711,-100,4,1,0,90,0,0
84792,-100,4,1,1,70,0,0
85359,-100,4,1,0,80,0,0
85441,-100,4,1,1,70,0,0
85684,-100,4,1,1,80,0,0
86332,-100,4,1,1,70,0,0
86819,-100,4,1,1,35,0,0
86981,-100,4,1,1,70,0,0
87305,-100,4,1,0,90,0,0
87387,-100,4,1,1,80,0,0
89900,-100,4,1,0,90,0,0
89981,-100,4,1,1,70,0,0
90549,-100,4,1,0,80,0,0
90630,-100,4,1,1,70,0,0
91197,-100,4,1,0,80,0,0
91278,-100,4,1,1,70,0,0
91846,-100,4,1,0,80,0,0
91927,-100,4,1,1,70,0,0
92170,-100,4,1,1,80,0,0
92495,-100,4,1,0,80,0,0
92576,-100,4,1,1,80,0,0
93143,-100,4,1,0,80,0,0
93224,-100,4,1,1,80,0,0
95008,-100,4,2,1,30,0,0
95089,-100,4,1,1,100,0,1
98008,-100,4,2,1,100,0,1
98089,-100,4,1,1,100,0,1
99954,-100,4,1,1,40,0,0
100278,-100,4,1,0,100,0,1
100359,-100,4,1,1,100,0,1
103197,-100,4,2,1,100,0,1
103278,-100,4,1,1,100,0,1
105143,-100,4,1,0,100,0,1
105224,-100,4,1,1,100,0,1
105630,-100,4,2,1,100,0,1
105873,-100,4,1,1,100,0,1
106441,-100,4,1,0,100,0,1
106522,-100,4,1,1,100,0,1
106927,-100,4,2,1,100,0,1
107170,-100,4,1,1,100,0,1
107738,-100,4,1,0,100,0,1
107819,-100,4,1,1,100,0,1
109035,-100,4,1,0,100,0,1
109116,-100,4,1,1,100,0,1
109684,-100,4,1,1,90,0,0
110332,-100,4,1,1,80,0,1
110981,-100,4,1,1,85,0,1
111630,-100,4,1,1,90,0,1
112278,-100,4,1,1,95,0,1
112927,-100,4,1,1,100,0,1
115522,-100,4,2,1,100,0,0
115846,-100,4,1,1,100,0,1
115887,-100,4,1,1,98,0,0
116008,-100,4,1,1,94,0,0
116170,-100,4,1,1,90,0,0
116332,-100,4,1,1,86,0,0
116495,-100,4,1,1,82,0,0
116657,-100,4,1,1,70,0,0
116819,-100,4,1,1,66,0,0
116981,-100,4,1,1,62,0,0
117143,-100,4,1,1,58,0,0
117305,-100,4,1,1,54,0,0
117468,-100,4,1,1,50,0,0
117630,-100,4,1,1,46,0,0
117792,-100,4,1,1,42,0,0
117954,-100,4,1,1,39,0,0
118116,-100,4,1,1,37,0,0
118278,-100,4,1,1,35,0,0
118441,-100,4,1,1,33,0,0
118603,-100,4,1,1,31,0,0
118765,-100,4,1,1,29,0,0
118927,-100,4,1,1,27,0,0
119089,-100,4,1,1,25,0,0
119251,-100,4,1,1,23,0,0
119414,-100,4,1,1,21,0,0
119576,-100,4,1,1,19,0,0
119738,-100,4,1,1,17,0,0
119900,-100,4,1,1,15,0,0
120062,-100,4,1,1,13,0,0
120224,-100,4,1,1,11,0,0
120387,-100,4,1,1,9,0,0
120549,-100,4,1,1,7,0,0
120711,-100,4,1,1,5,0,0

[Colours]
Combo1 : 177,184,203
Combo2 : 132,132,132

[HitObjects]
256,192,6549,12,0,8819,0:0:0:0:
391,195,9143,6,0,L|383:271,1,76.5,2|2,0:2|0:2,0:0:0:0:
296,308,9468,2,0,L|287:383,1,76.5,2|2,0:2|0:2,0:0:0:0:
192,384,9792,2,0,L|183:307,1,76.5,2|2,0:2|0:2,0:0:0:0:
96,272,10117,2,0,L|88:196,1,76.5,2|2,0:2|0:2,0:0:0:0:
88,196,10765,6,0,L|104:144,3,38.25,2|0|2|0,0:2|0:0|0:2|0:0,0:0:0:0:
76,128,11089,2,0,L|121:98,3,38.25,2|0|2|0,0:2|0:0|0:2|0:0,0:0:0:0:
110,67,11414,2,0,B|184:48|184:48|292:80,1,153,0|4,2:0|0:0,0:0:0:0:
316,140,11900,6,0,L|356:120,2,38.25,0|0|0,0:0|0:0|0:0,0:0:0:0:
252,204,12224,2,0,P|260:256|284:288,1,76.5
356,312,12549,1,0,0:0:0:0:
356,312,12630,1,0,0:0:0:0:
356,312,12711,2,0,L|464:300,1,76.5
492,232,13035,5,0,0:0:0:0:
420,172,13197,2,0,L|440:124,2,38.25,0|0|0,0:0|0:0|0:0,0:0:0:0:
336,212,13522,2,0,L|240:220,1,76.5
188,276,13846,1,0,0:0:0:0:
112,224,14008,2,0,L|104:176,3,38.25
64,168,14333,6,0,L|72:88,1,76.5,4|0,0:2|0:0,0:0:0:0:
136,24,14657,1,0,0:0:0:0:
228,40,14819,2,0,L|288:20,2,38.25
268,124,15143,1,0,0:0:0:0:
268,124,15224,1,0,0:0:0:0:
268,124,15306,2,0,P|276:184|260:228,1,76.5
200,256,15630,5,0,0:0:0:0:
244,336,15792,2,0,L|292:328,2,38.25
156,360,16116,2,0,P|108:348|64:356,1,76.5
8,292,16441,1,0,0:0:0:0:
8,292,16522,1,0,0:0:0:0:
8,292,16603,2,0,L|32:200,1,76.5
96,148,16927,6,0,P|100:108|24:32,1,137.69999579773,2|4,2:0|0:0,0:0:0:0:
8,124,17414,1,0,0:0:0:0:
8,124,17495,1,0,0:0:0:0:
8,124,17576,1,0,0:0:0:0:
27,217,17738,2,0,L|8:292,1,76.5
81,350,18062,1,0,0:0:0:0:
81,350,18143,1,0,0:0:0:0:
81,350,18224,6,0,P|119:348|156:360,1,76.5
232,308,18549,1,0,0:0:0:0:
164,244,18711,2,0,L|112:232,2,38.25,0|0|0,0:0|0:0|0:0,0:0:0:0:
252,220,19035,1,0,0:0:0:0:
252,220,19116,1,0,0:0:0:0:
252,220,19197,2,0,P|296:240|312:352,1,153,2|4,0:2|0:2,0:0:0:0:
404,372,19684,6,0,L|472:360,2,38.25,0|0|0,0:0|0:0|0:0,0:0:0:0:
480,288,20008,1,0,0:0:0:0:
416,220,20170,2,0,L|432:168,3,38.25,0|0|0|0,0:0|0:0|0:0|0:0,0:0:0:0:
408,148,20495,2,0,L|436:56,1,76.5
356,20,20819,5,2,0:2:0:0:
276,68,20981,1,2,0:2:0:0:
188,36,21143,1,2,0:2:0:0:
112,88,21306,1,2,0:2:0:0:
172,160,21468,2,0,L|160:220,3,38.25,0|0|0|0,0:0|0:0|0:0|0:0,0:0:0:0:
136,224,21792,2,0,L|148:284,3,38.25,0|0|0|0,0:0|0:0|0:0|0:0,0:0:0:0:
176,284,22116,6,0,L|252:277,1,76.5,2|0,0:2|0:0,0:0:0:0:
316,348,22441,2,0,P|344:304|308:200,1,153,4|2,0:2|0:2,0:0:0:0:
232,192,22927,1,0,0:0:0:0:
292,124,23089,2,0,P|296:80|280:24,1,76.5,4|0,0:2|0:0,0:0:0:0:
204,12,23414,5,2,0:2:0:0:
132,68,23576,2,0,L|48:56,1,76.5,0|4,0:0|0:2,0:0:0:0:
0,132,23900,1,2,0:2:0:0:
76,188,24062,2,0,P|92:244|24:324,1,153,0|4,0:0|0:2,0:0:0:0:
41,317,24711,6,0,L|220:304,1,153,2|4,0:2|0:2,0:0:0:0:
244,228,25197,1,2,0:2:0:0:
324,276,25360,2,0,L|382:270,2,38.25,0|0|0,0:0|0:0|0:0,0:0:0:0:
244,228,25684,2,0,P|240:172|316:72,1,153,4|2,0:2|0:2,0:0:0:0:
372,128,26170,5,0,0:0:0:0:
444,72,26333,2,0,P|464:116|460:172,1,76.5,4|2,0:2|0:2,0:0:0:0:
404,212,26657,6,0,L|332:200,2,51,0|0|0,0:0|0:0|0:0,0:0:0:0:
453,277,26981,2,0,L|525:265,2,51,0|0|0,0:0|0:0|0:0,0:0:0:0:
412,348,27306,6,0,L|332:340,1,76.5,2|0,0:0|0:0,0:0:0:0:
260,288,27630,2,0,L|180:280,1,76.5,0|0,0:0|0:0,0:0:0:0:
132,204,27954,1,2,0:2:0:0:
60,264,28116,2,0,L|40:328,2,38.25,0|0|0,0:0|0:0|0:0,0:0:0:0:
12,184,28441,1,2,0:2:0:0:
73,115,28603,6,0,P|72:58|88:26,1,76.5,2|0,0:0|0:0,0:0:0:0:
158,86,28927,1,0,0:0:0:0:
232,28,29089,2,0,L|306:45,1,76.5,0|2,0:0|0:2,0:0:0:0:
364,120,29414,1,0,0:0:0:0:
364,120,29495,1,0,0:0:0:0:
364,120,29576,2,0,P|336:172|304:192,1,76.5,0|2,0:0|0:2,0:0:0:0:
392,244,29900,6,0,L|476:232,1,76.5,2|0,0:0|0:0,0:0:0:0:
360,328,30224,2,0,L|276:316,1,76.5
252,232,30549,1,2,0:2:0:0:
180,288,30711,2,0,L|192:344,2,38.25,0|0|0,0:0|0:0|0:0,0:0:0:0:
124,216,31035,1,2,0:2:0:0:
40,256,31197,5,2,0:2:0:0:
4,172,31360,2,0,P|8:128|28:88,1,76.5
100,48,31684,1,0,0:0:0:0:
180,96,31846,2,0,L|228:88,3,38.25,0|0|0|0,0:2|0:0|0:0|0:0,0:0:0:0:
252,104,32170,2,0,L|300:96,3,38.25,0|0|0|0,0:0|0:0|0:2|0:0,0:0:0:0:
324,112,32495,5,4,0:0:0:0:
256,192,41576,12,0,42549,0:0:0:0:
240,124,42873,6,0,P|306:90|375:117,1,153,4|2,0:0|0:0,0:0:0:0:
424,196,43360,1,0,0:0:0:0:
388,280,43522,2,0,L|400:348,2,38.25,2|0|0,0:0|0:0|0:0,0:0:0:0:
297,259,43846,2,0,L|312:184,1,76.5,2|0,0:0|0:0,0:0:0:0:
375,117,44170,5,2,0:0:0:0:
304,56,44333,2,0,L|312:12,2,38.25,0|0|2,0:0|0:0|0:0,0:0:0:0:
240,124,44657,2,0,P|184:136|148:124,1,76.5,0|2,0:0|0:0,0:0:0:0:
100,68,44981,1,0,0:0:0:0:
100,68,45062,1,0,0:0:0:0:
100,68,45143,2,0,L|12:56,1,76.5,2|0,0:0|0:0,0:0:0:0:
68,164,45468,6,0,P|68:208|48:252,1,76.5,4|0,0:0|0:0,0:0:0:0:
124,304,45792,2,0,P|85:326|37:330,1,76.5,2|0,0:0|0:0,0:0:0:0:
205,350,46116,2,0,L|373:334,1,153,2|2,0:0|0:0,0:0:0:0:
471,303,46603,1,0,0:0:0:0:
471,303,46684,1,0,0:0:0:0:
471,303,46765,6,0,P|486:268|491:230,1,76.5,2|0,0:0|0:0,0:0:0:0:
476,140,47089,1,2,0:0:0:0:
408,80,47251,1,0,0:0:0:0:
408,80,47332,1,0,0:0:0:0:
408,80,47414,2,0,L|332:68,1,76.5,2|0,0:0|0:0,0:0:0:0:
253,117,47738,2,0,P|215:117|180:104,1,76.5,2|0,0:0|0:0,0:0:0:0:
124,32,48062,6,0,P|100:60|132:180,1,153,4|2,0:0|0:0,0:0:0:0:
204,200,48549,1,0,0:0:0:0:
132,256,48711,2,0,P|128:316|140:344,1,76.5,2|0,0:0|0:0,0:0:0:0:
164,352,48954,1,0,0:0:0:0:
164,352,49035,1,2,0:0:0:0:
252,312,49197,1,0,0:0:0:0:
328,364,49360,6,0,L|428:352,1,76.5,2|0,0:0|0:0,0:0:0:0:
480,304,49684,1,2,0:0:0:0:
424,228,49846,1,0,0:0:0:0:
424,228,49927,1,0,0:0:0:0:
424,228,50008,2,0,P|443:178|441:141,1,76.5,2|0,0:0|0:0,0:0:0:0:
401,73,50333,1,2,0:0:0:0:
328,128,50495,1,0,0:0:0:0:
244,88,50657,6,0,P|240:160|324:224,1,153,4|2,0:0|0:0,0:0:0:0:
224,276,51143,1,0,0:0:0:0:
224,276,51224,1,0,0:0:0:0:
224,276,51305,2,0,P|185:277|150:264,1,76.5,2|0,0:0|0:0,0:0:0:0:
112,180,51630,2,0,P|82:203|64:237,1,76.5,2|0,0:0|0:0,0:0:0:0:
84,328,51954,5,2,0:2:0:0:
165,370,52116,2,0,L|265:362,1,76.5,2|2,0:2|0:2,0:0:0:0:
296,288,52441,1,2,0:2:0:0:
296,288,52522,1,2,0:2:0:0:
296,288,52603,2,0,P|303:251|300:213,1,76.5,2|2,0:2|0:2,0:0:0:0:
228,160,52927,2,2,P|288:124|380:176,1,153,0|4,0:2|0:0,0:0:0:0:
446,315,53576,6,0,L|296:288,1,153,0|2,0:0|0:2,0:0:0:0:
192,340,54062,2,0,L|116:347,1,76.5
56,276,54387,1,0,0:0:0:0:
132,224,54549,6,0,P|140:148|56:96,2,153,2|0|2,0:2|0:0|0:2,0:0:0:0:
56,276,55360,1,0,0:0:0:0:
116,348,55522,1,0,0:0:0:0:
116,348,55846,6,0,L|266:320,1,153,4|0,0:2|0:0,0:0:0:0:
348,232,56333,1,0,0:0:0:0:
348,232,56414,1,0,0:0:0:0:
348,232,56495,2,0,P|352:180|340:140,1,76.5,2|0,0:2|0:0,0:0:0:0:
269,107,56819,1,0,0:0:0:0:
192,156,56981,1,0,0:0:0:0:
132,84,57143,6,0,P|61:104|2:59,2,153,2|0|2,0:2|0:0|0:2,0:0:0:0:
192,156,57954,1,0,0:0:0:0:
269,107,58116,1,0,0:0:0:0:
269,107,58441,6,0,L|419:134,1,153,4|0,0:0|0:0,0:0:0:0:
492,224,58927,2,0,P|492:268|472:304,1,76.5,0|2,0:0|0:2,0:0:0:0:
388,324,59251,1,0,0:0:0:0:
312,272,59414,2,0,L|220:292,1,76.5
176,356,59738,6,0,P|105:335|46:380,2,153,2|0|2,0:2|0:0|0:2,0:0:0:0:
237,288,60549,1,0,0:0:0:0:
184,212,60711,1,0,0:0:0:0:
184,212,61035,6,0,L|334:184,1,153,4|0,0:2|0:0,0:0:0:0:
452,200,61522,1,0,0:0:0:0:
452,200,61603,1,0,0:0:0:0:
452,200,61684,2,0,P|460:228|456:292,1,76.5,2|0,0:2|0:0,0:0:0:0:
320,172,62008,2,0,P|312:144|316:80,1,76.5
376,28,62333,6,0,P|408:80|504:84,2,153,2|0|2,0:2|0:0|0:2,0:0:0:0:
311,96,63143,1,0,0:0:0:0:
240,44,63306,2,0,L|72:68,1,153,0|4,0:0|0:0,0:0:0:0:
28,240,63954,5,0,0:0:0:0:
100,296,64116,1,0,0:0:0:0:
172,240,64278,2,0,P|216:232|264:244,1,76.5,2|0,0:2|0:0,0:0:0:0:
296,316,64603,1,0,0:0:0:0:
368,260,64765,1,0,0:0:0:0:
432,324,64927,6,0,P|452:224|412:180,2,153,2|0|2,0:2|0:0|0:2,0:0:0:0:
368,260,65738,1,0,0:0:0:0:
296,316,65900,1,0,0:0:0:0:
296,316,66224,6,2,B|244:292|244:292|208:304|208:304|184:288|136:296,1,153,0|2,0:0|0:0,0:0:0:0:
76,348,66711,1,2,0:0:0:0:
20,276,66873,2,0,L|36:184,1,76.5,2|2,0:0|0:0,0:0:0:0:
100,140,67197,2,2,P|64:88|92:0,1,153,2|2,1:0|0:0,0:1:0:0:
240,96,67765,6,0,L|384:76,1,114.75,2|6,0:0|0:0,0:0:0:0:
476,212,68251,2,0,P|412:224|372:292,1,114.75,2|6,0:0|0:0,0:0:0:0:
464,304,68657,5,0,0:0:0:0:
464,304,68738,1,0,0:0:0:0:
464,304,68819,1,6,0:0:0:0:
284,340,69143,6,0,L|220:324,3,38.25,0|0|0|0,0:0|0:0|0:0|0:0,0:0:0:0:
212,348,69468,2,0,L|128:328,1,76.5,2|0,0:0|0:0,0:0:0:0:
80,260,69792,6,0,L|76:204,3,38.25,0|0|0|0,0:0|0:0|0:0|0:0,0:0:0:0:
96,188,70116,2,0,L|104:88,1,76.5,2|0,0:0|0:0,0:0:0:0:
168,44,70441,6,0,L|216:36,3,38.25,0|0|0|0,0:0|0:0|0:0|0:0,0:0:0:0:
236,60,70765,2,0,L|320:44,1,76.5,2|0,0:0|0:0,0:0:0:0:
380,104,71089,1,0,0:0:0:0:
460,60,71251,1,0,0:0:0:0:
460,60,71333,1,0,0:0:0:0:
460,60,71414,6,0,P|472:116|396:196,1,153,4|0,0:2|0:0,0:0:0:0:
332,216,71900,2,0,L|232:184,1,76.5,0|2,0:0|0:2,0:0:0:0:
172,228,72224,1,0,0:0:0:0:
220,308,72387,2,0,L|208:352,3,38.25,0|0|0|0,0:0|0:0|0:0|0:0,0:0:0:0:
177,367,72711,6,0,P|102:358|51:303,1,153,2|2,0:2|0:2,0:0:0:0:
36,212,73197,1,0,0:0:0:0:
84,132,73360,2,0,L|141:113,3,38.25,0|0|0|0,0:0|0:0|0:0|0:0,0:0:0:0:
152,144,73684,2,0,L|209:162,3,38.25,0|0|0|0,0:0|0:0|0:0|0:0,0:0:0:0:
220,136,74008,1,4,0:0:0:0:
256,192,74089,12,0,76603,0:0:0:0:
256,192,83089,12,0,84062,0:0:0:0:
412,104,84387,6,0,L|332:92,1,76.5,2|0,0:2|0:0,0:0:0:0:
256,136,84711,2,0,P|200:112|108:176,1,153,4|2,0:2|0:2,0:0:0:0:
196,204,85197,1,0,0:0:0:0:
123,260,85360,2,0,P|188:296|258:273,1,153,4|4,0:2|0:0,0:0:0:0:
320,204,85846,5,0,0:0:0:0:
388,268,86008,2,0,L|472:248,1,76.5,4|0,0:0|0:0,0:0:0:0:
512,172,86333,1,4,0:0:0:0:
440,112,86495,2,0,P|424:64|428:32,2,76.5,0|4|0,0:0|0:0|0:0,0:0:0:0:
364,168,86981,6,0,L|196:144,1,153,2|4,0:2|0:2,0:0:0:0:
136,200,87468,1,0,0:0:0:0:
200,268,87630,2,0,L|260:256,2,38.25,2|0|0,0:2|0:0|0:0,0:0:0:0:
120,312,87954,2,0,L|60:300,3,38.25,4|0|0|0,0:0|0:0|0:0|0:0,0:0:0:0:
44,312,88278,6,0,L|36:228,1,76.5,2|0,0:2|0:0,0:0:0:0:
52,71,88603,2,0,L|60:148,1,76.5,2|0,0:2|0:0,0:0:0:0:
136,200,88927,6,0,P|168:200|200:188,2,51,2|0|0,0:2|0:0|0:0,0:0:0:0:
152,120,89251,2,0,P|159:95|172:74,2,51,2|0|0,0:2|0:0|0:0,0:0:0:0:
233,129,89576,6,0,P|257:158|220:268,1,153,0|4,0:2|0:2,0:0:0:0:
144,292,90062,1,0,0:0:0:0:
216,352,90224,2,0,L|320:336,1,76.5,2|0,0:2|0:0,0:0:0:0:
340,260,90549,2,0,L|444:244,1,76.5,4|0,0:2|0:0,0:0:0:0:
464,168,90873,6,0,L|456:128,3,38.25,2|0|0|0,0:2|0:0|0:0|0:0,0:0:0:0:
480,100,91197,2,0,L|465:24,1,76.5,4|0,0:2|0:0,0:0:0:0:
384,72,91522,1,2,0:2:0:0:
296,40,91684,2,0,L|223:65,1,76.5,0|4,0:0|0:2,0:0:0:0:
164,136,92008,1,0,0:0:0:0:
164,136,92089,1,0,0:0:0:0:
164,136,92170,6,0,P|156:208|216:268,1,153,2|4,0:2|0:2,0:0:0:0:
248,180,92657,1,0,0:0:0:0:
320,236,92819,2,0,L|404:224,1,76.5,2|0,0:2|0:0,0:0:0:0:
468,136,93143,2,0,L|384:124,1,76.5,4|0,0:2|0:0,0:0:0:0:
308,48,93468,5,2,0:2:0:0:
228,92,93630,1,2,0:2:0:0:
148,44,93792,2,0,P|100:56|72:84,1,76.5,2|2,0:2|0:2,0:0:0:0:
32,152,94116,2,0,L|44:208,3,38.25,2|0|2|0,0:2|0:0|0:2|0:0,0:0:0:0:
68,216,94441,2,0,L|56:272,3,38.25,2|0|2|0,0:2|0:0|0:2|0:0,0:0:0:0:
32,280,94765,6,0,L|164:304,1,114.75,0|0,0:2|0:0,0:0:0:0:
168,332,95089,2,0,P|236:300|288:324,1,114.75,4|0,0:0|0:0,0:0:0:0:
304,332,95414,2,0,L|436:308,2,114.75,2|2|2,0:2|0:2|0:2,0:0:0:0:
266,231,96062,6,0,L|134:207,2,114.75,2|2|2,0:2|0:2|0:2,0:0:0:0:
340,176,96711,2,0,P|344:128|292:56,2,114.75,2|2|2,0:2|0:2|0:2,0:0:0:0:
252,144,97360,6,0,L|204:136,3,38.25,2|0|0|0,0:2|0:0|0:0|0:0,0:0:0:0:
176,148,97684,2,0,L|128:140,3,38.25,2|0|0|0,0:2|0:0|0:0|0:0,0:0:0:0:
100,152,98008,5,2,0:0:0:0:
56,232,98170,1,0,0:0:0:0:
124,296,98333,2,0,L|100:352,2,51,0|0|0,0:0|0:0|0:0,0:0:0:0:
200,328,98657,6,0,L|264:308,2,51,0|0|0,0:0|0:0|0:0,0:0:0:0:
192,248,98981,2,0,L|142:202,2,51,0|0|0,0:0|0:0|0:0,0:0:0:0:
272,232,99305,2,0,P|296:244|328:296,2,51,0|0|0,0:0|0:0|0:0,0:0:0:0:
324,168,99630,2,0,L|308:112,2,51,0|0|0,0:0|0:0|0:0,0:0:0:0:
404,152,99954,6,2,P|460:172|480:272,1,153,2|4,1:0|0:2,1:0:0:0:
412,312,100441,2,0,L|320:296,1,76.5,0|2,0:0|0:2,0:0:0:0:
272,232,100765,1,0,0:0:0:0:
272,232,100846,1,0,0:0:0:0:
272,232,100927,2,0,P|272:172|288:140,1,76.5,2|0,0:2|0:0,0:0:0:0:
208,96,101251,6,0,L|160:104,3,38.25,2|0|0|0,0:2|0:0|0:0|0:0,0:0:0:0:
136,80,101576,2,0,L|98:73,3,38.25,2|0|0|0,0:2|0:0|0:0|0:0,0:0:0:0:
67,96,101900,2,0,P|55:169|106:222,1,153,2|2,0:2|0:2,0:0:0:0:
192,188,102387,1,0,0:0:0:0:
272,232,102549,6,0,L|316:216,2,38.25,2|0|0,0:2|0:0|0:0,0:0:0:0:
208,300,102873,1,0,0:0:0:0:
208,300,102954,1,0,0:0:0:0:
208,300,103035,2,0,L|124:292,1,76.5,0|2,0:0|0:0,0:0:0:0:
344,340,103522,6,0,L|428:332,1,76.5,2|0,0:2|0:0,0:0:0:0:
480,264,103846,2,0,P|476:196|404:148,1,153,2|2,0:2|0:2,0:0:0:0:
328,192,104333,1,0,0:0:0:0:
252,140,104495,2,0,B|244:100|244:100|272:28,2,114.75,2|2|2,0:2|0:2|0:2,0:0:0:0:
184,204,105143,5,4,0:2:0:0:
104,156,105306,2,0,P|92:188|104:248,1,76.5,0|2,0:0|0:2,0:0:0:0:
184,316,105630,1,0,0:0:0:0:
184,316,105711,1,0,0:0:0:0:
184,316,105792,2,0,L|268:308,1,76.5,2|0,0:0|0:0,0:0:0:0:
344,348,106116,1,2,0:2:0:0:
384,264,106278,1,0,0:0:0:0:
468,304,106441,6,0,P|476:256|396:168,1,153,4|2,0:2|0:2,0:0:0:0:
328,188,106927,1,0,0:0:0:0:
328,188,107008,1,0,0:0:0:0:
328,188,107089,2,0,L|244:168,1,76.5,2|0,0:0|0:0,0:0:0:0:
188,104,107414,1,2,0:2:0:0:
100,136,107576,1,0,0:0:0:0:
32,72,107738,6,0,P|8:128|64:224,2,153,4|0|2,0:2|0:0|0:2,0:0:0:0:
100,136,108549,1,0,0:0:0:0:
188,104,108711,2,0,P|184:56|168:24,1,76.5,2|0,0:2|0:0,0:0:0:0:
119,168,109035,6,0,P|155:193|263:156,2,153,4|2|2,0:2|0:2|0:2,0:0:0:0:
172,30,109846,2,0,P|186:65|188:104,1,76.5,0|2,0:0|0:2,0:0:0:0:
119,168,110170,1,0,0:0:0:0:
36,208,110333,6,0,P|37:246|51:281,1,76.5,4|0,0:0|0:0,0:0:0:0:
136,324,110657,1,0,0:0:0:0:
208,268,110819,2,0,L|200:224,2,38.25,0|0|2,0:0|0:0|0:2,0:0:0:0:
284,320,111143,2,0,L|277:357,2,38.25,0|0|0,0:0|0:0|0:0,0:0:0:0:
356,260,111468,1,0,0:0:0:0:
308,180,111630,6,0,L|328:96,1,76.5,4|0,0:0|0:0,0:0:0:0:
404,56,111954,1,0,0:0:0:0:
476,112,112116,2,0,L|504:72,2,38.25,0|0|2,0:0|0:0|0:2,0:0:0:0:
428,192,112441,2,0,L|380:180,2,38.25,0|0|0,0:0|0:0|0:0,0:0:0:0:
492,260,112765,1,0,0:0:0:0:
420,320,112927,6,0,L|372:308,3,38.25,4|0|0|0,0:0|0:0|0:0|0:0,0:0:0:0:
348,324,113251,2,0,L|300:312,3,38.25,0|0|0|0,0:0|0:0|0:0|0:0,0:0:0:0:
276,328,113576,2,0,L|228:316,3,38.25,2|0|0|0,0:2|0:0|0:0|0:0,0:0:0:0:
204,332,113900,2,0,L|156:320,3,38.25,0|0|0|0,0:0|0:0|0:0|0:0,0:0:0:0:
132,336,114224,6,0,L|48:312,1,76.5,4|2,0:0|0:2,0:0:0:0:
124,220,114549,2,0,L|40:196,1,76.5,0|2,0:0|0:2,0:0:0:0:
116,104,114873,6,0,P|104:80|96:40,2,51,4|0|0,0:0|0:0|0:0,0:0:0:0:
180,52,115197,2,0,P|206:53|245:66,2,51,0|0|0,0:0|0:0|0:0,0:0:0:0:
196,132,115522,6,0,P|248:140|308:48,1,153,0|4,0:0|0:0,0:0:0:0:
256,192,115927,12,0,120711,2:0:0:0:
