osu file format v14

[General]
AudioFilename: BLACK or WHITE.mp3
AudioLeadIn: 0
PreviewTime: 52137
Countdown: 0
SampleSet: Normal
StackLeniency: 0.7
Mode: 0
LetterboxInBreaks: 0
WidescreenStoryboard: 0

[Editor]
DistanceSpacing: 1.2
BeatDivisor: 4
GridSize: 4
TimelineZoom: 1.7

[Metadata]
Title:BLACK or WHITE?
TitleUnicode:BLACK or WHITE?
Artist:BlackYooh vs. siromaru
ArtistUnicode:BlackYooh vs. siromaru
Creator:Fast
Version:623's BASIC
Source:SOUND VOLTEX II -infinite infection-
Tags:SDVX BlackY KAC 2013 happy623 GUHROOVY HelloSCV Gurvy Gamu
BeatmapID:363275
BeatmapSetID:144158

[Difficulty]
HPDrainRate:2
CircleSize:3
OverallDifficulty:2.2
ApproachRate:3
SliderMultiplier:0.8
SliderTickRate:1

[Events]
//Background and Video events
0,0,"bg.jpg",0,0
//Break Periods
2,32695,41433
2,74208,82947
//Storyboard Layer 0 (Background)
//Storyboard Layer 1 (Fail)
//Storyboard Layer 2 (Pass)
//Storyboard Layer 3 (Foreground)
//Storyboard Sound Samples

[TimingPoints]
1360,324.324324324324,4,1,1,40,1,0
3954,-100,4,1,1,45,0,0
6549,-100,4,1,1,60,0,0
7846,-100,4,1,1,65,0,0
8495,-100,4,1,1,70,0,0
9143,-100,4,1,1,75,0,0
10765,-100,4,1,1,80,0,0
10846,-100,4,1,1,60,0,0
11414,-100,4,1,1,70,0,0
11738,-100,4,1,1,60,0,0
16927,-100,4,1,1,40,0,0
22116,-100,4,1,1,20,0,0
27305,-100,4,2,1,60,0,0
28603,-100,4,2,1,70,0,0
29900,-100,4,2,1,75,0,0
31197,-100,4,1,1,80,0,0
32495,-100,4,2,1,60,0,0
51954,-100,4,2,1,30,0,0
52441,-100,4,2,1,40,0,0
52927,-100,4,1,1,60,0,0
53251,-100,4,1,1,70,0,1
66224,-100,4,1,1,70,0,0
66549,-100,4,1,1,60,0,1
66873,-100,4,1,1,70,0,1
68778,-100,4,1,1,70,0,0
68819,-100,4,1,1,60,0,1
69468,-100,4,1,1,65,0,1
70116,-100,4,1,1,70,0,1
70765,-100,4,1,1,75,0,1
71414,-100,4,1,1,80,0,1
74008,-100,4,2,1,60,0,0
84387,-100,4,1,1,50,0,0
84711,-100,4,1,1,60,0,0
84792,-100,4,1,1,40,0,0
85359,-100,4,1,1,60,0,0
86332,-100,4,1,1,50,0,0
87305,-100,4,1,1,60,0,0
87387,-100,4,1,1,50,0,0
89900,-100,4,1,1,60,0,0
89981,-100,4,1,1,40,0,0
90549,-100,4,1,1,50,0,0
90630,-100,4,1,1,40,0,0
92170,-100,4,1,1,60,0,0
95089,-100,4,1,1,70,0,1
99954,-100,4,1,1,70,0,0
100278,-100,4,1,1,70,0,1
103197,-100,4,2,1,70,0,1
103278,-100,4,1,1,70,0,1
105630,-100,4,2,1,70,0,1
105873,-100,4,1,1,70,0,1
107008,-100,4,2,1,70,0,1
107170,-100,4,1,1,70,0,1
109684,-100,4,1,1,60,0,0
110332,-100,4,1,1,60,0,1
110981,-100,4,1,1,65,0,1
111630,-100,4,1,1,60,0,1
112278,-100,4,1,1,65,0,1
112927,-100,4,1,1,70,0,1
115522,-100,4,1,1,70,0,0
115846,-100,4,1,1,70,0,1
115887,-100,4,1,1,98,0,0
116008,-100,4,1,1,94,0,0
116170,-100,4,1,1,90,0,0
116332,-100,4,1,1,86,0,0
116495,-100,4,1,1,82,0,0
116657,-100,4,1,1,70,0,0
116819,-100,4,1,1,66,0,0
116981,-100,4,1,1,62,0,0
117143,-100,4,1,1,58,0,0
117305,-100,4,1,1,54,0,0
117468,-100,4,1,1,50,0,0
117630,-100,4,1,1,46,0,0
117792,-100,4,1,1,42,0,0
117954,-100,4,1,1,39,0,0
118116,-100,4,1,1,37,0,0
118278,-100,4,1,1,35,0,0
118441,-100,4,1,1,33,0,0
118603,-100,4,1,1,31,0,0
118765,-100,4,1,1,29,0,0
118927,-100,4,1,1,27,0,0
119089,-100,4,1,1,25,0,0
119251,-100,4,1,1,23,0,0
119414,-100,4,1,1,21,0,0
119576,-100,4,1,1,19,0,0
119738,-100,4,1,1,17,0,0
119900,-100,4,1,1,15,0,0
120062,-100,4,1,1,13,0,0
120224,-100,4,1,1,11,0,0
120387,-100,4,1,1,9,0,0
120549,-100,4,1,1,7,0,0
120711,-100,4,2,1,5,0,0

[Colours]
Combo1 : 177,184,203
Combo2 : 132,132,132

[HitObjects]
136,72,1360,6,0,B|196:124|196:124|260:60|364:84,1,240,4|2,0:0|2:0,0:0:0:0:
420,136,2657,2,0,B|376:184|312:164|312:164|264:160|240:208|240:208|235:222|240:244,1,240,4|2,0:0|2:0,0:0:0:0:
252,332,3954,6,0,B|180:336|152:272|152:272|80:292|40:216,1,240,4|2,0:0|2:0,0:0:0:0:
48,140,5251,2,0,B|104:140|128:184|128:184|140:92|216:60,1,240,4|2,0:0|2:0,0:0:0:0:
264,140,6549,6,0,B|212:188|248:244|248:244|376:196,1,240,4|2,1:0|2:0,0:0:0:0:
448,160,7846,2,0,B|476:232|424:272|424:272|308:316,1,240,4|2,0:0|2:0,0:0:0:0:
220,324,9143,6,0,B|200:316|179:325|179:325|144:308|144:308|108:332|108:332|88:316|60:316,2,160,4|4|2,0:0|0:0|2:0,0:0:0:0:
316,336,10765,2,2,P|392:328|444:264,1,160,2|8,0:0|0:0,0:0:0:0:
444,172,11738,6,0,P|408:140|372:132,1,80,4|8,0:0|0:0,0:0:0:0:
284,112,12387,2,0,L|188:92,1,80,0|8,0:0|0:0,0:0:0:0:
112,120,13035,2,0,P|88:160|88:200,1,80,0|8,0:0|0:0,0:0:0:0:
124,280,13684,2,0,L|104:360,2,80,0|8|0,0:0|0:0|0:0,0:0:0:0:
212,236,14657,5,8,0:0:0:0:
292,288,14981,2,0,P|328:292|384:276,1,80,0|8,0:0|0:0,0:0:0:0:
420,200,15630,2,0,P|403:163|376:134,1,80,0|8,0:0|0:0,0:0:0:0:
288,96,16278,2,0,L|196:72,1,80,0|8,0:0|0:0,0:0:0:0:
116,92,16927,5,4,0:0:0:0:
68,176,17251,2,0,P|56:252|132:316,1,160,8|8,0:0|0:0,0:0:0:0:
296,356,18549,2,0,P|336:280|300:200,1,160,8|8,0:0|0:0,0:0:0:0:
232,164,19522,6,0,P|240:72|320:36,1,160,4|4,0:0|0:0,0:0:0:0:
452,140,20819,2,2,B|476:184|476:184|468:216|468:216|484:252|484:252|468:296,1,160,0|4,0:0|0:0,0:0:0:0:
416,360,21792,1,8,0:0:0:0:
336,308,22116,6,0,L|244:304,1,80,4|12,3:0|0:0,0:0:0:0:
172,256,22765,2,0,L|92:252,1,80,4|12,3:0|0:0,0:0:0:0:
68,160,23414,2,0,P|84:116|124:84,1,80,4|12,3:0|0:0,0:0:0:0:
196,56,24062,2,0,P|235:53|272:69,1,80,4|12,3:0|0:0,0:0:0:0:
224,152,24711,6,0,L|232:232,1,80,4|12,3:0|0:0,0:0:0:0:
324,256,25359,2,0,L|332:336,1,80,4|12,3:0|0:0,0:0:0:0:
424,356,26008,2,0,P|440:300|432:272,1,80,4|12,3:0|0:0,0:0:0:0:
392,196,26657,2,0,P|352:168|300:176,1,80,4|12,3:0|0:0,0:0:0:0:
232,204,27305,5,6,0:0:0:0:
420,72,28603,5,2,0:0:0:0:
112,300,29900,5,2,0:0:0:0:
52,64,31197,5,2,2:0:0:0:
360,296,32495,5,4,0:0:0:0:
376,136,42873,6,2,B|304:196|232:152|232:152|184:224|96:236|96:236|184:364|384:300,2,640,4|2|2,0:0|0:0|0:0,0:0:0:0:
296,84,48387,6,2,B|256:80|256:60|196:52|160:104|160:104|132:160|44:149|44:149|80:80|48:24,2,400,2|2|2,0:0|0:0|0:0,0:0:0:0:
236,156,51954,6,2,P|300:176|376:136,2,120,2|2|2,0:0|0:0|0:0,0:0:0:0:
296,84,53251,6,0,P|344:44|448:76,1,160,4|0,0:0|0:0,0:0:0:0:
480,144,54224,1,8,0:0:0:0:
432,228,54549,2,0,P|428:276|404:308,1,80,0|8,0:0|0:0,0:0:0:0:
324,340,55197,2,0,P|277:327|250:298,1,80,0|8,0:0|0:0,0:0:0:0:
260,212,55846,6,0,P|248:136|160:108,1,160,4|0,0:0|0:0,0:0:0:0:
80,100,56819,1,8,0:0:0:0:
44,188,57143,2,0,P|36:228|64:276,1,80,4|8,0:0|0:0,0:0:0:0:
132,316,57792,2,0,P|172:316|215:281,1,80,4|8,0:0|0:0,0:0:0:0:
244,208,58441,5,4,0:0:0:0:
416,292,59089,2,0,P|444:260|444:200,1,80,0|8,0:0|0:0,0:0:0:0:
384,156,59738,2,0,P|340:120|340:12,2,160,4|4|4,0:0|0:0|0:0,0:0:0:0:
368,348,61684,6,0,P|324:352|276:336,1,80,0|8,0:0|0:0,0:0:0:0:
204,304,62332,2,0,P|132:272|112:196,1,160,4|4,0:0|0:0,0:0:0:0:
208,208,63305,1,8,0:0:0:0:
260,124,63630,6,0,P|380:96|452:196,1,240,4|8,0:0|0:0,0:0:0:0:
444,272,64927,2,0,P|420:316|384:332,1,80,4|8,0:0|0:0,0:0:0:0:
300,324,65576,2,0,P|260:292|251:254,1,80,4|8,0:0|0:0,0:0:0:0:
256,168,66224,6,0,L|264:80,1,80,0|12,0:0|0:0,0:0:0:0:
200,16,66873,1,0,0:0:0:0:
124,72,67197,1,8,0:0:0:0:
156,164,67522,2,0,P|176:224|140:296,2,120,0|0|8,0:0|0:0|0:0,0:0:0:0:
80,220,68819,5,4,0:0:0:0:
200,72,69468,1,12,0:0:0:0:
388,108,70116,1,4,0:0:0:0:
420,296,70765,1,12,0:0:0:0:
232,336,71414,6,0,P|140:336|96:260,1,160,4|12,0:0|0:0,0:0:0:0:
100,96,72711,2,0,P|154:40|231:47,1,160,4|12,0:0|0:0,0:0:0:0:
356,192,74008,5,4,0:0:0:0:
400,308,84387,6,0,P|428:276|428:224,1,80,4|12,3:0|0:0,0:0:0:0:
432,144,85035,2,0,P|426:104|399:75,1,80,4|12,3:0|0:0,0:0:0:0:
304,56,85684,2,0,L|208:44,2,80,2|10|2,0:0|0:0|0:0,0:0:0:0:
352,140,86657,1,10,0:0:0:0:
296,216,86981,6,0,P|258:203|218:208,1,80,4|12,3:0|0:0,0:0:0:0:
172,292,87630,2,0,P|132:296|88:280,1,80,4|12,3:0|0:0,0:0:0:0:
48,200,88278,2,0,L|32:112,2,80,2|10|2,0:0|0:0|0:0,0:0:0:0:
144,208,89251,1,10,0:0:0:0:
204,132,89576,6,0,P|264:92|360:120,1,160,4|0,0:0|0:0,0:0:0:0:
392,192,90549,1,8,0:0:0:0:
346,275,90873,2,0,P|270:293|204:252,1,160,4|0,0:0|0:0,0:0:0:0:
132,192,91846,1,8,0:0:0:0:
184,112,92170,6,0,P|104:96|44:152,2,160,4|4|4,0:0|0:0|0:0,0:0:0:0:
360,188,94116,1,4,0:0:0:0:
196,288,94765,6,0,P|152:292|104:264,1,80,0|12,0:0|0:0,0:0:0:0:
52,212,95414,2,0,P|44:132|116:56,1,160
180,48,96387,1,8,0:0:0:0:
276,80,96711,2,0,B|312:140|294:205|294:205|332:228,1,160
400,276,97684,5,8,0:0:0:0:
320,328,98008,2,0,P|280:332|240:316,1,80,0|8,0:0|0:0,0:0:0:0:
168,260,98657,6,2,B|128:224|128:224|128:192|128:192|96:172|48:184|48:184|72:140|60:108|60:108|128:72,1,320,4|0,0:0|0:0,0:0:0:0:
220,76,100278,6,0,L|316:80,2,80,12|0|8,0:0|0:0|0:0,0:0:0:0:
212,172,101251,2,0,B|256:192|264:244|264:244|356:244,1,160
420,280,102224,1,8,0:0:0:0:
460,192,102549,6,0,P|472:148|468:112,1,80,0|8,0:0|0:0,0:0:0:0:
400,48,103197,2,0,L|304:40,1,80,2|8,0:0|0:0,0:0:0:0:
224,60,103846,2,0,P|128:128|180:224,1,240,0|8,0:0|0:0,0:0:0:0:
252,276,105143,6,0,P|312:312|412:264,1,160,4|2,0:0|0:0,0:0:0:0:
412,192,106116,1,8,0:0:0:0:
393,96,106441,2,0,P|320:70|252:108,1,160,4|2,0:0|0:0,0:0:0:0:
200,192,107414,1,8,0:0:0:0:
160,280,107738,6,0,P|128:316|96:328,2,80,4|8|0,0:0|0:0|0:0,0:0:0:0:
256,276,108711,1,8,0:0:0:0:
352,280,109035,2,0,P|384:316|416:328,2,80,0|8|0,0:0|0:0|0:0,0:0:0:0:
380,188,110008,1,8,0:0:0:0:
336,104,110332,6,0,P|240:60|128:144,1,240,4|8,0:0|0:0,0:0:0:0:
124,224,111630,2,0,B|192:236|228:168|228:168|280:212|312:260,1,240,4|8,0:0|0:0,0:0:0:0:
364,324,112927,6,0,L|436:340,2,40,4|0|8,0:0|0:0|0:0,0:0:0:0:
396,232,113576,2,0,L|452:212,2,40,4|0|8,0:0|0:0|0:0,0:0:0:0:
320,176,114224,2,0,B|352:104|352:104|228:148|228:148|136:120,1,293.333333333333,4|0,0:0|2:0,0:0:0:0:
256,192,115846,12,0,120711,0:0:0:0:
