osu file format v14

[General]
AudioFilename: [SDVX II ] BLACK or WHITE_ [NOFX].mp3
AudioLeadIn: 1500
PreviewTime: 52458
Countdown: 0
SampleSet: Normal
StackLeniency: 0.7
Mode: 0
LetterboxInBreaks: 0
WidescreenStoryboard: 0

[Editor]
Bookmarks: 8350,43702
DistanceSpacing: 1
BeatDivisor: 4
GridSize: 32
TimelineZoom: 1.900006

[Metadata]
Title:BLACK or WHITE?
TitleUnicode:BLACK or WHITE?
Artist:BlackYooh vs. siromaru
ArtistUnicode:BlackYooh vs. siromaru
Creator:BluOxy
Version:NOVICE
Source:SOUND VOLTEX II -infinite infection-
Tags:Yooh BlackY KAC2013 hardcore symphonic speed schranz sdvx konami
BeatmapID:627003
BeatmapSetID:248876

[Difficulty]
HPDrainRate:5
CircleSize:4
OverallDifficulty:5
ApproachRate:5
SliderMultiplier:1.2
SliderTickRate:1

[Events]
//Background and Video events
0,0,"nyaa.png",0,0
//Break Periods
2,31922,35711
2,73435,77224
//Storyboard Layer 0 (Background)
//Storyboard Layer 1 (Fail)
//Storyboard Layer 2 (Pass)
//Storyboard Layer 3 (Foreground)
//Storyboard Sound Samples

[TimingPoints]
587,324.324324324324,4,1,1,50,1,0
8370,-100,4,1,2,50,0,0
10641,-100,4,1,1,50,0,0
10965,-100,4,1,3,50,0,0
21343,-100,4,1,2,50,0,0
25884,-100,4,1,3,50,0,0
26532,-100,4,1,1,60,0,0
27830,-100,4,1,1,55,0,0
28154,-100,4,1,1,60,0,0
28478,-100,4,1,1,65,0,0
28803,-100,4,1,1,70,0,0
29127,-100,4,1,1,75,0,0
31722,-100,4,2,1,50,0,0
42100,-100,4,1,1,50,0,0
51181,-100,4,1,2,50,0,0
52154,-100,4,1,2,55,0,0
52478,-100,4,1,4,70,0,1
65451,-100,4,1,4,50,0,0
65776,-100,4,1,4,70,0,1
68046,-100,4,1,4,60,0,1
70641,-100,4,1,4,70,0,1
73235,-100,4,2,0,43,0,0
81019,-100,4,2,0,49,0,0
81668,-100,4,2,0,55,0,0
82316,-100,4,2,0,60,0,0
83614,-100,4,1,2,55,0,0
88154,-100,4,1,2,70,0,0
88803,-100,4,1,2,60,0,0
93992,-100,4,1,2,50,0,0
94316,-100,4,1,4,75,0,1
97884,-100,4,1,2,70,0,0
99181,-100,4,1,4,60,0,0
99505,-100,4,1,4,75,0,1
109559,-100,4,1,4,65,0,1
110208,-100,4,1,4,70,0,1
110857,-100,4,1,4,75,0,1
111505,-100,4,1,4,80,0,1
112154,-100,4,1,4,85,0,1
113451,-100,4,1,4,90,0,1
114100,-100,4,1,2,75,0,0
115073,-100,4,2,0,70,0,0
115154,-100,4,2,0,57,0,0
116046,-100,4,2,0,44,0,0
117343,-100,4,2,0,31,0,0
118641,-100,4,2,0,18,0,0
119938,-100,4,2,0,5,0,0

[Colours]
Combo1 : 149,149,149
Combo2 : 49,49,49

[HitObjects]
53,196,587,6,0,L|43:262,2,60,2|0|8,0:0|0:0|0:0,0:0:0:0:
168,229,1235,2,0,L|178:295,2,60,2|0|8,0:0|0:0|0:0,0:0:0:0:
148,110,1884,2,0,L|139:50,2,60,2|0|8,0:0|0:0|0:0,0:0:0:0:
258,150,2533,2,0,L|266:90,2,60,2|0|8,0:0|0:0|0:0,0:0:0:0:
170,230,3181,6,0,B|233:234|233:234|284:271,1,120,2|8,0:0|0:0,0:0:0:0:
319,312,3668,1,0,0:0:0:0:
319,312,3830,2,0,L|347:191,1,120,2|8,0:0|0:0,0:0:0:0:
433,113,4478,2,0,B|370:109|370:109|319:72,1,120,2|8,0:0|0:0,0:0:0:0:
284,31,4965,1,0,0:0:0:0:
284,31,5127,2,0,L|164:41,1,120,2|8,0:0|0:0,0:0:0:0:
59,100,5776,6,0,L|-7:95,2,60,2|0|8,0:0|0:0|0:0,0:0:0:0:
176,126,6424,2,0,L|242:121,2,60,2|0|8,0:0|0:0|0:0,0:0:0:0:
71,185,7073,2,0,L|5:180,2,60,2|0|8,0:0|0:0|0:0,0:0:0:0:
188,211,7722,2,0,L|254:206,2,60,2|0|8,0:0|0:0|0:0,0:0:0:0:
82,267,8370,5,8,0:0:0:0:
199,293,8695,1,8,0:0:0:0:
91,346,9019,1,8,0:0:0:0:
4,263,9343,2,0,L|13:194,1,60,8|8,0:0|0:0,0:0:0:0:
187,164,9992,6,0,B|178:222|178:222|246:181,1,120
209,72,10641,6,0,B|150:83|150:83|75:64,1,120,2|12,0:0|0:0,0:0:0:0:
22,165,11289,1,8,0:0:0:0:
23,44,11614,1,8,0:0:0:0:
94,140,11938,1,8,0:0:0:0:
30,241,12262,6,0,B|27:302|27:302|83:284,1,120,8|8,0:0|0:0,0:0:0:0:
196,244,12911,1,8,0:0:0:0:
133,346,13235,1,0,0:0:0:0:
189,325,13397,1,0,0:0:0:0:
245,304,13559,5,8,0:0:0:0:
358,342,13884,1,8,0:0:0:0:
244,379,14208,1,8,0:0:0:0:
315,282,14532,1,8,0:0:0:0:
429,319,14857,6,0,B|487:336|487:336|488:274,1,120,8|8,0:0|0:0,0:0:0:0:
437,167,15505,1,8,0:0:0:0:
437,167,15668,1,0,0:0:0:0:
437,167,15830,1,8,0:0:0:0:
316,192,16154,6,2,B|256:204|256:204|196:192,1,120,10|10,0:0|0:0,0:0:0:0:
90,144,16803,1,8,0:0:0:0:
206,114,17127,1,8,0:0:0:0:
94,70,17451,1,8,0:0:0:0:
16,161,17776,1,8,0:0:0:0:
77,263,18100,1,8,0:0:0:0:
193,234,18424,1,8,0:0:0:0:
252,236,18586,1,0,0:0:0:0:
312,238,18749,5,8,0:0:0:0:
423,276,19073,2,0,L|417:347,2,60,8|0|8,0:0|0:0|0:0,0:0:0:0:
376,164,19722,2,0,L|370:93,2,60,8|0|8,0:0|0:0|0:0,0:0:0:0:
491,130,20370,1,8,0:0:0:0:
494,250,20695,2,0,B|436:242|436:242|383:269|383:269|319:259,1,180,2|0,0:0|0:0,0:0:0:0:
263,246,21343,6,0,L|268:311,1,60,12|8,0:0|0:0,0:0:0:0:
272,365,21668,2,0,L|143:346,1,120,4|8,0:0|0:0,0:0:0:0:
94,336,22154,2,0,L|111:277,1,60,8|4,0:0|0:0,0:0:0:0:
91,159,22641,6,0,L|161:150,2,60,8|8|12,0:0|0:0|0:0,0:0:0:0:
185,84,23289,2,0,B|174:23|174:23|234:32,1,120,8|4,0:0|0:0,0:0:0:0:
308,125,23938,6,0,L|378:118,1,60,8|8,0:0|0:0,0:0:0:0:
427,117,24262,2,0,L|407:244,1,120,4|8,0:0|0:0,0:0:0:0:
398,294,24749,2,0,L|333:286,1,60,8|4,0:0|0:0,0:0:0:0:
219,276,25235,6,0,L|229:216,1,60,8|8,0:0|0:0,0:0:0:0:
235,157,25559,2,0,L|164:161,1,60,12|8,0:0|0:0,0:0:0:0:
114,162,25884,2,0,B|120:205|120:205|112:241|112:241|119:283,1,120,8|8,0:0|0:0,0:0:0:0:
0,299,26532,5,2,0:0:0:0:
26,181,26857,1,2,0:0:0:0:
0,63,27181,1,2,0:0:0:0:
119,74,27505,1,2,0:0:0:0:
235,42,27830,6,0,B|297:47|297:47|355:30,1,120,2|2,0:0|0:0,0:0:0:0:
449,102,28478,2,0,B|387:97|387:97|329:114,1,120,2|2,0:0|0:0,0:0:0:0:
222,151,29127,5,2,0:0:0:0:
336,187,29451,1,2,0:0:0:0:
222,227,29776,1,2,0:0:0:0:
149,131,30100,1,2,0:0:0:0:
37,175,30424,6,0,L|45:241,2,60,2|8|2,0:0|0:0|0:0,0:0:0:0:
101,73,31073,2,0,L|109:7,2,60,2|8|2,0:0|0:0|0:0,0:0:0:0:
113,200,31722,5,4,0:0:0:0:
421,85,36911,5,2,0:0:0:0:
321,153,37235,2,0,P|263:164|205:149,1,120,2|2,0:0|0:0,0:0:0:0:
112,73,37884,1,2,0:0:0:0:
9,134,38208,1,2,0:0:0:0:
40,249,38532,2,0,P|42:287|36:317,2,60,2|2|2,0:0|0:0|0:0,0:0:0:0:
109,150,39181,1,2,0:0:0:0:
157,259,39505,6,0,P|220:248|277:264,1,120,2|2,0:0|0:0,0:0:0:0:
378,320,40154,1,2,0:0:0:0:
346,204,40478,1,2,0:0:0:0:
453,149,40803,1,2,0:0:0:0:
485,264,41127,2,0,P|493:302|491:329,2,60,2|2|2,0:0|0:0|0:0,0:0:0:0:
453,149,41776,1,2,0:0:0:0:
350,84,42100,6,4,L|362:17,2,60,2|0|8,0:0|0:0|0:0,0:0:0:0:
346,204,42749,2,0,L|358:271,2,60,2|0|8,0:0|0:0|0:0,0:0:0:0:
240,146,43397,2,0,L|229:80,2,60,2|0|8,0:0|0:0|0:0,0:0:0:0:
236,266,44046,2,0,L|223:340,2,60,2|0|8,0:0|0:0|0:0,0:0:0:0:
134,202,44695,6,0,L|60:210,2,60,2|0|8,0:0|0:0|0:0,0:0:0:0:
240,146,45343,2,0,L|314:154,2,60,2|0|8,0:0|0:0|0:0,0:0:0:0:
136,84,45992,1,2,0:0:0:0:
243,30,46316,1,8,0:0:0:0:
356,71,46641,2,0,L|423:62,2,60,2|0|8,0:0|0:0|0:0,0:0:0:0:
248,124,47289,6,0,L|238:189,2,60,2|0|8,0:0|0:0|0:0,0:0:0:0:
363,158,47938,2,0,L|373:223,2,60,2|0|8,0:0|0:0|0:0,0:0:0:0:
477,192,48586,6,0,L|457:322,1,120,2|8,0:0|0:0,0:0:0:0:
346,266,49235,1,2,0:0:0:0:
242,326,49559,1,8,0:0:0:0:
136,267,49884,6,0,L|146:195,2,60,2|0|8,0:0|0:0|0:0,0:0:0:0:
18,292,50532,2,0,L|26:351,2,60,2|0|8,0:0|0:0|0:0,0:0:0:0:
4,172,51181,6,0,L|79:175,1,60
117,147,51505,2,0,L|186:150,2,60,8|8|8,0:0|0:0|0:0,0:0:0:0:
15,82,52154,2,0,B|74:84|74:84|140:67,1,120,2|14,0:0|0:0,0:0:0:0:
247,33,52803,5,8,0:0:0:0:
319,128,53127,2,0,L|300:202,1,60,10|2,0:0|0:0,0:0:0:0:
287,243,53451,2,0,L|268:317,1,60,10|2,0:0|0:0,0:0:0:0:
252,358,53776,5,10,0:0:0:0:
171,269,54100,1,10,0:0:0:0:
55,300,54424,2,0,P|39:242|56:177,1,120,10|10,0:0|0:0,0:0:0:0:
106,77,55073,6,0,B|164:91|164:91|226:81,1,120,10|8,0:0|0:0,0:0:0:0:
339,48,55722,2,0,L|399:56,1,60,10|2,0:0|0:0,0:0:0:0:
457,64,56046,1,10,0:0:0:0:
419,111,56208,1,2,0:0:0:0:
382,158,56370,5,2,0:0:0:0:
434,266,56695,1,2,0:0:0:0:
330,208,57019,1,2,0:0:0:0:
448,194,57343,1,2,0:0:0:0:
361,274,57668,6,0,B|302:282|302:282|245:317,1,120,10|8,0:0|0:0,0:0:0:0:
146,373,58316,2,0,L|121:300,1,60,10|2,0:0|0:0,0:0:0:0:
107,259,58641,2,0,L|82:186,1,60,10|2,0:0|0:0,0:0:0:0:
68,145,58965,5,10,0:0:0:0:
164,73,59289,1,10,0:0:0:0:
258,147,59614,2,0,P|290:204|290:263,1,120,10|10,0:0|0:0,0:0:0:0:
259,373,60262,6,0,B|309:345|309:345|372:351,1,120,10|8,0:0|0:0,0:0:0:0:
466,276,60911,2,0,L|384:267,1,60,10|2,0:0|0:0,0:0:0:0:
346,261,61235,1,10,0:0:0:0:
382,213,61397,1,2,0:0:0:0:
414,162,61559,6,0,L|291:175,1,120,10|10,0:0|0:0,0:0:0:0:
344,65,62208,2,0,L|221:52,1,120,10|10,0:0|0:0,0:0:0:0:
108,81,62857,6,0,B|151:122|151:122|170:186,1,120,10|8,0:0|0:0,0:0:0:0:
104,277,63505,2,0,L|164:284,1,60,10|2,0:0|0:0,0:0:0:0:
206,326,63830,2,0,L|266:319,1,60,10|2,0:0|0:0,0:0:0:0:
324,329,64154,5,10,0:0:0:0:
288,214,64478,1,10,0:0:0:0:
363,120,64803,1,10,0:0:0:0:
481,115,65127,2,0,B|503:206,1,90,10|0,0:0|0:0,0:0:0:0:
430,334,65776,6,0,L|368:324,1,60,10|10,0:0|0:0,0:0:0:0:
311,313,66100,2,0,L|241:301,1,60,10|10,0:0|0:0,0:0:0:0:
197,294,66424,1,10,0:0:0:0:
287,215,66749,6,0,P|250:183|205:174,1,90,10|10,0:0|0:0,0:0:0:0:
126,201,67235,2,0,P|95:240|86:286,1,90,10|10,0:0|0:0,0:0:0:0:
16,223,67722,2,0,L|56:160,1,60,10|2,0:0|0:0,0:0:0:0:
82,126,68046,5,10,0:0:0:0:
189,72,68370,2,0,L|201:8,2,60,2|2|10,0:0|0:0|0:0,0:0:0:0:
264,165,69019,2,0,L|328:156,2,60,2|2|10,0:0|0:0|0:0,0:0:0:0:
205,270,69668,2,0,L|232:328,2,60,2|2|10,0:0|0:0|0:0,0:0:0:0:
95,244,70316,5,2,0:0:0:0:
95,244,70478,1,2,0:0:0:0:
95,244,70641,2,0,L|18:248,2,60,10|0|10,0:0|0:0|0:0,0:0:0:0:
204,195,71289,2,0,L|265:198,1,60,10|10,0:0|0:0,0:0:0:0:
324,203,71614,1,0,0:0:0:0:
313,143,71776,1,0,0:0:0:0:
304,84,71938,6,0,L|430:101,1,120,10|2,0:0|0:0,0:0:0:0:
502,189,72586,2,0,L|436:196,1,60,8|0,0:0|0:0,0:0:0:0:
382,201,72911,2,0,L|396:275,1,60
402,319,73235,5,0,0:0:0:0:
475,140,78424,6,0,P|388:88|379:189,1,240,2|2,0:0|0:0,0:0:0:0:
446,290,79397,1,2,0:0:0:0:
331,252,79722,6,0,B|262:240|216:283|216:283|169:322|106:310,1,240,2|2,0:0|0:0,0:0:0:0:
5,245,80695,1,2,0:0:0:0:
109,189,81019,5,2,0:0:0:0:
105,69,81343,1,2,0:0:0:0:
181,161,81668,1,2,0:0:0:0:
64,131,81992,1,2,0:0:0:0:
174,84,82316,6,0,P|207:78|245:84,1,60,2|0,0:0|0:0,0:0:0:0:
290,99,82641,2,0,L|283:168,1,60,2|0,0:0|0:0,0:0:0:0:
266,215,82965,2,0,P|310:184|377:187,1,120,2|2,0:0|0:0,0:0:0:0:
468,260,83614,6,0,L|481:322,1,60,8|8,0:0|0:0,0:0:0:0:
486,378,83938,2,0,L|365:361,1,120,4|8,0:0|0:0,0:0:0:0:
307,355,84424,2,0,L|328:293,1,60,8|4,0:0|0:0,0:0:0:0:
359,182,84911,5,8,0:0:0:0:
476,160,85235,1,8,0:0:0:0:
367,109,85559,1,8,0:0:0:0:
284,196,85884,1,8,0:0:0:0:
169,159,86208,6,0,L|102:168,1,60,8|8,0:0|0:0,0:0:0:0:
50,178,86532,2,0,L|67:58,1,120,4|8,0:0|0:0,0:0:0:0:
77,0,87019,2,0,L|160:17,1,60,8|4,0:0|0:0,0:0:0:0:
243,64,87505,6,0,L|307:55,1,60,8|8,0:0|0:0,0:0:0:0:
362,52,87830,2,0,L|351:118,1,60,8|8,0:0|0:0,0:0:0:0:
338,169,88154,6,0,B|380:166|380:166|414:179|414:179|459:176|459:176,1,120,8|8,0:0|0:0,0:0:0:0:
359,248,88803,6,0,L|281:245,1,60,8|10,0:0|0:0,0:0:0:0:
239,241,89127,2,0,L|252:119,1,120,4|8,0:0|0:0,0:0:0:0:
256,61,89614,2,0,L|176:70,1,60,10|4,0:0|0:0,0:0:0:0:
77,86,90100,6,0,L|91:156,1,60,8|10,0:0|0:0,0:0:0:0:
102,203,90424,2,0,L|224:195,1,120,4|8,0:0|0:0,0:0:0:0:
282,193,90911,2,0,L|266:258,1,60,10|4,0:0|0:0,0:0:0:0:
358,173,91397,6,0,L|345:108,1,60,8|10,0:0|0:0,0:0:0:0:
332,55,91722,2,0,L|453:62,1,120,4|8,0:0|0:0,0:0:0:0:
510,72,92208,2,0,L|491:134,1,60,10|4,0:0|0:0,0:0:0:0:
467,247,92695,6,0,L|397:251,1,60,8|8,0:0|0:0,0:0:0:0:
355,280,93019,2,0,L|285:276,1,60,8|8,0:0|0:0,0:0:0:0:
243,246,93343,1,8,0:0:0:0:
169,341,93668,2,0,L|177:270,1,60,8|8,0:0|0:0,0:0:0:0:
122,253,93992,6,0,L|140:118,1,120,2|14,0:0|0:0,0:0:0:0:
257,127,94641,6,0,L|355:118,2,90,10|10|10,0:0|0:0|0:0,0:0:0:0:
208,92,95289,2,0,L|151:11,2,90,10|10|10,0:0|0:0|0:0,0:0:0:0:
202,152,95938,2,0,L|160:241,2,90,10|10|10,0:0|0:0|0:0,0:0:0:0:
256,127,96586,6,0,L|252:67,2,60,10|0|8,0:0|0:0|0:0,0:0:0:0:
310,234,97235,2,0,L|306:294,2,60,10|0|8,0:0|0:0|0:0,0:0:0:0:
377,134,97884,2,0,B|373:91|373:91|388:56|388:56|348:60|348:60|333:27|333:27|306:54|306:54|263:68|263:68,2,240,8|8|0,0:0|0:0|0:0,0:0:0:0:
282,209,99505,5,10,0:0:0:0:
300,266,99668,1,0,0:0:0:0:
319,323,99830,1,10,0:0:0:0:
201,299,100154,2,0,L|132:309,1,60,10|0,0:0|0:0,0:0:0:0:
82,318,100478,6,0,L|100:205,2,90,10|10|10,0:0|0:0|0:0,0:0:0:0:
73,377,101127,1,10,0:0:0:0:
19,269,101451,1,10,0:0:0:0:
96,177,101776,6,0,L|5:193,2,90,10|10|10,0:0|0:0|0:0,0:0:0:0:
133,130,102424,2,0,L|164:43,2,90,10|10|10,0:0|0:0|0:0,0:0:0:0:
151,187,103073,6,0,B|192:229|192:229|253:237,1,120,10|10,0:0|0:0,0:0:0:0:
372,223,103722,2,0,L|381:330,2,90,10|10|10,0:0|0:0|0:0,0:0:0:0:
368,163,104370,5,10,0:0:0:0:
463,236,104695,2,0,L|472:155,1,60,10|2,0:0|0:0,0:0:0:0:
476,116,105019,2,0,L|409:106,1,60,10|2,0:0|0:0,0:0:0:0:
360,87,105343,2,0,L|289:97,1,60,10|2,0:0|0:0,0:0:0:0:
241,107,105668,5,10,0:0:0:0:
159,196,105992,2,0,L|244:213,1,60,10|2,0:0|0:0,0:0:0:0:
276,220,106316,1,10,0:0:0:0:
270,279,106478,1,2,0:0:0:0:
264,339,106641,2,0,L|326:310,1,60,10|2,0:0|0:0,0:0:0:0:
372,287,106965,5,10,0:0:0:0:
339,172,107289,1,10,0:0:0:0:
454,204,107614,1,10,0:0:0:0:
420,88,107938,1,10,0:0:0:0:
302,65,108262,6,0,B|216:73|216:73|179:67,1,120,10|10,0:0|0:0,0:0:0:0:
65,42,108911,2,0,B|88:100|88:100|86:166,1,120,2|2,0:0|0:0,0:0:0:0:
72,276,109559,6,0,L|145:268,2,60,10|10|10,0:0|0:0|0:0,0:0:0:0:
86,156,110208,2,0,L|14:145,2,60,10|10|10,0:0|0:0|0:0,0:0:0:0:
204,174,110857,2,0,L|263:183,2,60,10|10|10,0:0|0:0|0:0,0:0:0:0:
224,55,111505,2,0,L|164:61,2,60,10|10|10,0:0|0:0|0:0,0:0:0:0:
343,42,112154,6,0,B|406:37|406:37|451:70|451:70|512:65,1,180,10|8,0:0|0:0,0:0:0:0:
481,117,112803,2,0,L|490:189,1,60,10|10,0:0|0:0,0:0:0:0:
489,236,113127,2,0,L|418:231,1,60,10|10,0:0|0:0,0:0:0:0:
369,226,113451,5,10,0:0:0:0:
382,167,113614,1,10,0:0:0:0:
391,107,113776,2,0,L|321:110,1,60,10|10,0:0|0:0,0:0:0:0:
271,114,114100,5,8,0:0:0:0:
195,25,114424,1,8,0:0:0:0:
39,208,115073,5,4,0:0:0:0:
256,192,115154,12,0,119938,0:0:0:0:
