osu file format v14

[General]
AudioFilename: [SDVX II ] BLACK or WHITE_ [NOFX].mp3
AudioLeadIn: 1500
PreviewTime: 52458
Countdown: 0
SampleSet: Normal
StackLeniency: 0.7
Mode: 0
LetterboxInBreaks: 0
WidescreenStoryboard: 0

[Editor]
DistanceSpacing: 1
BeatDivisor: 4
GridSize: 4
TimelineZoom: 5.600002

[Metadata]
Title:BLACK or WHITE?
TitleUnicode:BLACK or WHITE?
Artist:BlackYooh vs. siromaru
ArtistUnicode:BlackYooh vs. siromaru
Creator:BluOxy
Version:MASTER
Source:SOUND VOLTEX II -infinite infection-
Tags:Yooh BlackY KAC2013 hardcore symphonic speed schranz sdvx konami
BeatmapID:635679
BeatmapSetID:248876

[Difficulty]
HPDrainRate:7
CircleSize:4
OverallDifficulty:9
ApproachRate:9.4
SliderMultiplier:1.6
SliderTickRate:1

[Events]
//Background and Video events
0,0,"nyaa.png",0,0
//Break Periods
//Storyboard Layer 0 (Background)
//Storyboard Layer 1 (Fail)
//Storyboard Layer 2 (Pass)
//Storyboard Layer 3 (Foreground)
//Storyboard Sound Samples

[TimingPoints]
587,324.324324324324,4,1,1,50,1,0
8370,-100,4,1,2,50,0,0
10641,-50,4,1,1,50,0,0
10965,-90.9090909090909,4,1,3,50,0,0
21343,-100,4,1,2,50,0,0
25884,-60.6060606060606,4,1,3,50,0,0
26532,-90.9090909090909,4,1,1,60,0,0
27830,-181.818181818182,4,1,1,55,0,0
28154,-120.481927710843,4,1,1,60,0,0
28478,-90.9090909090909,4,1,1,65,0,0
28803,-60.6060606060606,4,1,1,70,0,0
29127,-90.9090909090909,4,1,1,75,0,0
31722,-181.818181818182,4,2,1,50,0,0
42100,-90.9090909090909,4,1,1,50,0,0
51181,-90.9090909090909,4,1,2,50,0,0
52154,-60.6060606060606,4,1,2,55,0,0
52478,-90.9090909090909,4,1,4,70,0,1
56370,-60.6060606060606,4,1,4,70,0,1
57668,-90.9090909090909,4,1,4,70,0,1
61559,-60.6060606060606,4,1,4,70,0,1
62857,-90.9090909090909,4,1,4,70,0,1
65127,-181.818181818182,4,1,4,70,0,1
65451,-90.9090909090909,4,1,4,50,0,0
65776,-90.9090909090909,4,1,4,70,0,1
66749,-60.6060606060606,4,1,4,70,0,1
67397,-90.9090909090909,4,1,4,70,0,1
68046,-90.9090909090909,4,1,4,60,0,1
70641,-50,4,1,4,75,0,1
71289,-90.9090909090909,4,1,4,70,0,1
73235,-181.818181818182,4,2,0,43,0,0
81019,-181.818181818182,4,2,0,49,0,0
81668,-120.481927710843,4,2,0,55,0,0
82316,-90.9090909090909,4,2,0,60,0,0
83614,-90.9090909090909,4,1,2,55,0,0
88154,-60.6060606060606,4,1,2,70,0,0
88803,-90.9090909090909,4,1,2,60,0,0
93992,-90.9090909090909,4,1,2,50,0,0
94316,-90.9090909090909,4,1,4,75,0,1
97884,-60.6060606060606,4,1,2,70,0,0
99181,-90.9090909090909,4,1,4,60,0,0
99505,-90.9090909090909,4,1,4,75,0,1
109559,-90.9090909090909,4,1,4,65,0,1
110208,-90.9090909090909,4,1,4,70,0,1
110857,-90.9090909090909,4,1,4,75,0,1
111505,-90.9090909090909,4,1,4,80,0,1
112154,-90.9090909090909,4,1,4,85,0,1
113451,-60.6060606060606,4,1,4,90,0,1
114100,-60.6060606060606,4,1,2,75,0,0
115073,-60.6060606060606,4,2,0,70,0,0
115154,-60.6060606060606,4,2,0,57,0,0
116046,-60.6060606060606,4,2,0,44,0,0
117343,-60.6060606060606,4,2,0,31,0,0
118641,-60.6060606060606,4,2,0,18,0,0
119938,-60.6060606060606,4,2,0,5,0,0

[Colours]
Combo1 : 149,149,149
Combo2 : 49,49,49

[HitObjects]
75,158,587,6,0,L|69:118,1,40,4|0,0:0|0:0,0:0:0:0:
103,239,749,2,0,L|97:278,1,40
156,173,911,1,8,0:0:0:0:
196,167,992,1,0,0:0:0:0:
227,142,1073,1,0,0:0:0:0:
245,106,1154,1,0,0:0:0:0:
276,82,1235,5,2,0:0:0:0:
315,74,1316,1,0,0:0:0:0:
354,81,1397,1,0,0:0:0:0:
386,104,1478,1,0,0:0:0:0:
403,139,1559,1,8,0:0:0:0:
406,179,1641,1,0,0:0:0:0:
392,216,1722,1,0,0:0:0:0:
395,255,1803,1,0,0:0:0:0:
416,288,1884,5,2,0:0:0:0:
415,307,1965,1,0,0:0:0:0:
404,323,2046,2,0,P|383:334|361:342,1,40
243,296,2208,1,8,0:0:0:0:
244,277,2289,1,0,0:0:0:0:
255,261,2370,2,0,P|276:250|298:242,1,40
221,375,2532,5,2,0:0:0:0:
180,376,2614,1,0,0:0:0:0:
141,366,2695,1,0,0:0:0:0:
106,345,2776,1,0,0:0:0:0:
77,317,2857,1,8,0:0:0:0:
56,282,2938,1,0,0:0:0:0:
44,243,3019,1,0,0:0:0:0:
42,203,3100,1,0,0:0:0:0:
54,165,3181,6,0,L|46:123,3,40,2|0|0|0,0:0|0:0|0:0|0:0,0:0:0:0:
185,197,3505,2,0,L|177:236,3,40,8|0|0|0,0:0|0:0|0:0|0:0,0:0:0:0:
275,98,3830,5,2,0:0:0:0:
314,90,3911,1,0,0:0:0:0:
353,92,3992,1,0,0:0:0:0:
391,103,4073,1,0,0:0:0:0:
426,122,4154,1,8,0:0:0:0:
454,149,4235,1,0,0:0:0:0:
473,183,4316,1,0,0:0:0:0:
486,220,4397,1,0,0:0:0:0:
488,259,4478,5,2,0:0:0:0:
486,278,4559,1,0,0:0:0:0:
479,297,4641,2,0,P|483:332|488:362,1,40
336,227,4803,1,8,0:0:0:0:
334,246,4884,1,0,0:0:0:0:
327,265,4966,2,0,P|331:300|336:330,1,40
185,197,5127,5,2,0:0:0:0:
170,234,5208,1,0,0:0:0:0:
136,255,5289,1,0,0:0:0:0:
96,257,5370,1,0,0:0:0:0:
58,242,5451,1,8,0:0:0:0:
33,210,5532,1,0,0:0:0:0:
25,170,5614,1,0,0:0:0:0:
41,133,5695,1,0,0:0:0:0:
35,93,5776,6,0,P|26:74|12:56,1,40,2|0,0:0|0:0,0:0:0:0:
151,107,5938,1,0,0:0:0:0:
186,124,6019,1,0,0:0:0:0:
224,134,6100,1,8,0:0:0:0:
263,134,6181,1,0,0:0:0:0:
301,123,6262,1,0,0:0:0:0:
333,100,6343,1,0,0:0:0:0:
353,65,6424,6,0,P|360:47|366:23,1,40,2|0,0:0|0:0,0:0:0:0:
462,147,6586,1,0,0:0:0:0:
423,155,6667,1,0,0:0:0:0:
390,178,6749,1,8,0:0:0:0:
366,210,6829,1,0,0:0:0:0:
355,248,6910,1,0,0:0:0:0:
356,287,6992,1,0,0:0:0:0:
373,322,7073,6,0,P|385:337|425:356,1,40,2|0,0:0|0:0,0:0:0:0:
501,152,7235,2,0,P|488:136|454:117,1,40
237,245,7397,1,8,0:0:0:0:
270,222,7478,1,0,0:0:0:0:
286,185,7559,1,0,0:0:0:0:
290,144,7641,1,0,0:0:0:0:
268,109,7722,6,0,P|250:96|225:85,1,40,2|0,0:0|0:0,0:0:0:0:
134,153,7884,1,0,0:0:0:0:
174,212,7965,1,0,0:0:0:0:
237,246,8046,1,8,0:0:0:0:
308,242,8127,1,0,0:0:0:0:
370,205,8208,1,0,0:0:0:0:
404,141,8289,1,0,0:0:0:0:
410,69,8370,6,0,L|405:38,1,20,8|0,0:0|0:0,0:0:0:0:
463,213,8532,2,0,L|468:244,1,20,8|0,0:0|0:0,0:0:0:0:
268,109,8695,6,0,L|263:78,1,20,8|0,0:0|0:0,0:0:0:0:
307,241,8857,2,0,L|312:272,1,20,8|0,0:0|0:0,0:0:0:0:
134,153,9019,6,0,L|129:122,1,20,8|0,0:0|0:0,0:0:0:0:
173,267,9181,2,0,L|178:298,1,20,8|0,0:0|0:0,0:0:0:0:
7,187,9343,6,0,L|2:156,1,20,8|0,0:0|0:0,0:0:0:0:
43,295,9505,2,0,L|48:326,1,20,8|0,0:0|0:0,0:0:0:0:
268,109,9830,6,0,L|276:70,1,40,0|0,3:0|0:0,0:0:0:0:
170,36,9992,1,8,0:0:0:0:
178,70,10073,1,8,0:0:0:0:
186,104,10154,1,8,0:0:0:0:
194,138,10235,1,8,0:0:0:0:
202,172,10316,1,8,0:0:0:0:
210,206,10397,1,8,0:0:0:0:
218,240,10478,1,8,0:0:0:0:
226,274,10559,1,8,0:0:0:0:
235,309,10641,6,0,L|232:356,6,40,2|0|0|0|0|0|0,0:0|0:0|0:0|0:0|0:0|0:0|0:0,0:0:0:0:
294,216,10965,6,0,P|342:202|398:211,1,88.000002685547,8|0,0:0|0:0,0:0:0:0:
461,235,11208,1,0,0:0:0:0:
461,235,11289,2,0,L|455:338,1,88.000002685547,8|0,0:0|0:0,0:0:0:0:
374,117,11532,1,0,0:0:0:0:
374,117,11613,2,0,L|380:220,1,88.000002685547,8|0,0:0|0:0,0:0:0:0:
463,61,11857,1,0,0:0:0:0:
463,61,11938,1,8,0:0:0:0:
193,83,12100,1,0,0:0:0:0:
237,87,12181,1,0,0:0:0:0:
280,93,12262,6,0,P|323:78|353:47,1,88.000002685547,8|0,0:0|0:0,0:0:0:0:
47,35,12505,1,0,0:0:0:0:
47,35,12586,2,0,L|135:25,1,88.000002685547,8|0,0:0|0:0,0:0:0:0:
275,185,12830,1,0,0:0:0:0:
275,185,12911,2,0,L|170:172,1,88.000002685547,8|0,0:0|0:0,0:0:0:0:
115,124,13154,1,0,0:0:0:0:
115,124,13235,2,0,L|53:130,1,44.0000013427735,8|0,0:0|0:0,0:0:0:0:
179,258,13397,2,0,L|117:252,1,44.0000013427735
54,218,13559,6,0,P|97:254|108:302,1,88.000002685547,8|0,0:0|0:0,0:0:0:0:
107,371,13803,1,0,0:0:0:0:
107,371,13884,1,8,0:0:0:0:
279,338,14046,1,0,0:0:0:0:
235,335,14127,1,0,0:0:0:0:
191,332,14208,1,8,0:0:0:0:
347,205,14370,1,0,0:0:0:0:
354,248,14451,1,0,0:0:0:0:
359,291,14532,1,8,0:0:0:0:
438,70,14695,1,0,0:0:0:0:
431,113,14776,1,0,0:0:0:0:
426,156,14857,6,0,B|455:164|455:164|515:157,1,88.000002685547,8|0,0:0|0:0,0:0:0:0:
295,26,15100,1,0,0:0:0:0:
295,26,15181,2,0,B|294:69|294:69|281:111,1,88.000002685547,8|0,0:0|0:0,0:0:0:0:
213,167,15424,1,0,0:0:0:0:
213,167,15505,2,0,L|154:173,1,44.0000013427735,8|0,0:0|0:0,0:0:0:0:
61,47,15668,2,0,L|18:38,1,44.0000013427735
164,70,15830,1,10,0:0:0:0:
164,70,15911,1,0,0:0:0:0:
164,70,15992,2,0,L|212:64,1,44.0000013427735,2|0,0:0|0:0,0:0:0:0:
67,156,16154,6,2,B|59:175|59:175|77:194|77:194|69:214|69:214|86:242|72:278,1,132.00000402832
32,353,16478,6,0,P|79:363|126:344,1,88.000002685547,8|0,0:0|0:0,0:0:0:0:
198,312,16722,1,0,0:0:0:0:
198,312,16803,2,0,L|297:314,1,88.000002685547,8|0,0:0|0:0,0:0:0:0:
367,280,17046,1,0,0:0:0:0:
367,280,17127,2,0,P|370:329|346:377,1,88.000002685547,8|0,0:0|0:0,0:0:0:0:
293,228,17370,1,0,0:0:0:0:
293,228,17451,5,8,0:0:0:0:
458,198,17614,1,0,0:0:0:0:
415,193,17695,1,0,0:0:0:0:
372,188,17776,2,0,B|357:164|357:164|359:99,1,88.000002685547,8|0,0:0|0:0,0:0:0:0:
471,15,18019,1,0,0:0:0:0:
471,15,18100,2,0,B|464:60|464:60|448:101,1,88.000002685547,8|0,0:0|0:0,0:0:0:0:
329,19,18343,1,0,0:0:0:0:
329,19,18424,2,0,L|339:63,1,44.0000013427735,2|0,0:0|0:0,0:0:0:0:
238,163,18586,2,0,L|248:119,1,44.0000013427735,2|0,0:0|0:0,0:0:0:0:
372,188,18749,6,0,B|383:230|383:230|376:293,1,88.000002685547,8|0,0:0|0:0,0:0:0:0:
350,357,18992,1,0,0:0:0:0:
350,357,19073,2,0,L|398:353,1,44.0000013427735,8|0,0:0|0:0,0:0:0:0:
488,228,19235,2,0,L|440:232,1,44.0000013427735
202,247,19397,6,0,L|290:242,1,88.000002685547,8|0,0:0|0:0,0:0:0:0:
132,175,19641,1,0,0:0:0:0:
132,175,19722,2,0,L|109:245,1,44.0000013427735,8|0,0:0|0:0,0:0:0:0:
150,363,19884,2,0,L|163:321,1,44.0000013427735,0|0,0:0|0:0,0:0:0:0:
238,163,20046,6,0,L|225:118,1,44.0000013427735,8|0,0:0|0:0,0:0:0:0:
298,304,20208,2,0,L|285:262,1,44.0000013427735
318,92,20370,2,0,L|304:49,1,44.0000013427735,8|0,0:0|0:0,0:0:0:0:
379,234,20532,2,0,L|368:190,1,44.0000013427735
414,89,20695,5,8,0:0:0:0:
465,142,20776,1,0,0:0:0:0:
484,214,20857,1,0,0:0:0:0:
474,288,20938,1,0,0:0:0:0:
428,347,21019,6,0,L|437:385,8,22.0000006713867,0|0|0|0|0|0|0|0|8,0:0|0:0|0:0|0:0|0:0|0:0|0:0|0:0|0:0,0:0:0:0:
312,179,21505,1,8,0:0:0:0:
163,283,21668,2,0,L|283:273,1,120,4|0,0:0|0:0,0:0:0:0:
323,276,21992,5,8,0:0:0:0:
210,89,22154,1,8,0:0:0:0:
61,189,22317,2,0,L|181:181,1,120,4|0,0:0|0:0,0:0:0:0:
221,186,22641,5,8,0:0:0:0:
108,6,22803,1,8,0:0:0:0:
285,20,22965,1,12,0:0:0:0:
285,20,23046,2,0,L|290:59,1,40
124,106,23289,6,0,P|83:103|28:73,1,80,8|0,0:0|0:0,0:0:0:0:
326,174,23614,2,0,P|343:230|339:290,1,120,4|0,0:0|0:0,0:0:0:0:
325,327,23938,5,8,0:0:0:0:
425,256,24100,1,8,0:0:0:0:
261,241,24262,2,0,B|179:236|179:236|139:245,1,120,4|0,0:0|0:0,0:0:0:0:
104,257,24586,5,8,0:0:0:0:
210,133,24749,1,8,0:0:0:0:
39,196,24911,2,0,P|57:135|50:80,1,120,4|0,0:0|0:0,0:0:0:0:
32,43,25235,5,8,0:0:0:0:
290,120,25397,1,8,0:0:0:0:
250,127,25478,1,0,0:0:0:0:
210,133,25559,1,12,0:0:0:0:
367,50,25722,1,8,0:0:0:0:
367,50,25803,1,8,0:0:0:0:
367,50,25884,6,0,P|409:50|466:75,2,88.0000008392334,8|2|2,0:0|0:0|0:0,0:0:0:0:
290,120,26208,2,0,P|266:74|267:36,1,88.0000008392334,8|2,0:0|0:0,0:0:0:0:
389,135,26424,1,0,0:0:0:0:
290,120,26532,6,0,P|309:156|315:203,1,88.000002685547,2|0,0:2|0:0,0:0:0:0:
218,290,26857,2,0,P|199:254|193:207,1,88.000002685547,2|0,0:2|0:0,0:0:0:0:
197,35,27181,2,0,B|209:75|209:75|212:122,1,88.000002685547,2|0,0:2|0:0,0:0:0:0:
88,127,27505,1,2,0:2:0:0:
114,42,27668,1,0,0:0:0:0:
116,209,27830,6,0,L|107:261,1,44.0000013427735,2|0,0:2|0:0,0:0:0:0:
198,205,28154,6,0,L|212:269,1,66.4000009625244,2|0,0:2|0:0,0:0:0:0:
271,172,28478,6,0,L|316:247,1,88.000002685547,2|0,0:2|0:0,0:0:0:0:
324,113,28803,6,0,L|425:196,1,132.00000125885,2|0,0:2|0:0,0:0:0:0:
345,34,29127,5,2,0:2:0:0:
345,34,29289,1,0,0:0:0:0:
494,152,29451,5,2,0:2:0:0:
494,152,29613,1,0,0:0:0:0:
317,247,29776,2,0,B|312:294|312:294|321:341,1,88.000002685547,2|0,0:2|0:0,0:0:0:0:
394,196,30100,2,0,B|399:149|399:149|390:102,1,88.000002685547,2|0,0:2|0:0,0:0:0:0:
345,34,30424,5,2,0:0:0:0:
320,70,30505,1,0,0:0:0:0:
283,94,30586,1,0,0:0:0:0:
239,102,30668,1,0,0:0:0:0:
195,93,30749,1,8,0:0:0:0:
160,65,30830,1,0,0:0:0:0:
139,26,30911,1,0,0:0:0:0:
101,3,30992,1,0,0:0:0:0:
57,6,31073,5,2,0:0:0:0:
24,35,31154,1,0,0:0:0:0:
14,77,31235,1,0,0:0:0:0:
27,118,31316,1,0,0:0:0:0:
61,144,31397,1,8,0:0:0:0:
104,150,31478,1,0,0:0:0:0:
140,173,31559,1,0,0:0:0:0:
159,213,31641,1,0,0:0:0:0:
154,256,31722,6,0,L|140:356,1,88.000002685547,4|0,0:0|0:0,0:0:0:0:
257,192,32370,1,2,0:0:0:0:
360,256,32695,2,0,P|385:264|416:263,1,44.0000013427735,2|0,0:0|0:0,0:0:0:0:
443,253,33019,5,2,0:0:0:0:
369,349,33181,1,0,0:0:0:0:
259,311,33343,1,2,0:0:0:0:
257,192,33505,1,0,0:0:0:0:
370,153,33668,2,0,P|412:145|464:153,1,88.000002685547,2|0,0:0|0:0,0:0:0:0:
257,192,34316,6,0,P|215:200|163:192,1,88.000002685547,2|0,0:0|0:0,0:0:0:0:
70,163,34965,1,2,0:0:0:0:
25,274,35289,2,0,P|52:266|88:269,1,44.0000013427735,2|2,0:0|0:0,0:0:0:0:
114,277,35614,5,2,0:0:0:0:
70,163,35776,1,0,0:0:0:0:
158,89,35938,1,2,0:0:0:0:
260,156,36100,1,0,0:0:0:0:
223,269,36262,2,0,P|214:319|220:357,1,88.000002685547,2|0,0:0|0:0,0:0:0:0:
259,156,36911,6,0,P|267:116|266:92,1,44.0000013427735,2|0,0:0|0:0,0:0:0:0:
164,46,37235,2,0,P|156:86|157:110,1,44.0000013427735,2|0,0:0|0:0,0:0:0:0:
134,195,37559,2,0,B|106:201|106:201|45:196,1,88.000002685547,2|2,0:0|0:0,0:0:0:0:
158,89,38046,1,0,0:0:0:0:
259,156,38208,6,0,P|266:183|266:212,1,44.0000013427735,2|0,0:0|0:0,0:0:0:0:
221,346,38532,1,2,0:0:0:0:
167,232,38695,1,0,0:0:0:0:
316,318,38857,2,0,B|348:326|348:326|405:318,1,88.000002685547,2|2,0:0|0:0,0:0:0:0:
485,283,39343,1,0,0:0:0:0:
355,196,39505,6,0,L|361:252,1,44.0000013427735,2|0,0:0|0:0,0:0:0:0:
437,161,39830,2,0,L|463:199,1,44.0000013427735,2|0,0:0|0:0,0:0:0:0:
483,80,40154,1,2,0:0:0:0:
483,80,40478,2,0,L|430:82,1,44.0000013427735,2|0,0:0|0:0,0:0:0:0:
357,69,40803,6,0,L|363:13,1,44.0000013427735,2|0,0:0|0:0,0:0:0:0:
297,130,41127,1,2,0:0:0:0:
238,12,41289,1,0,0:0:0:0:
174,128,41451,2,0,L|178:171,1,44.0000013427735,2|0,0:0|0:0,0:0:0:0:
65,107,41776,1,2,0:0:0:0:
110,233,41938,1,0,0:0:0:0:
127,49,42100,5,6,0:0:0:0:
169,36,42181,1,0,0:0:0:0:
212,44,42262,1,0,0:0:0:0:
244,74,42343,1,0,0:0:0:0:
263,113,42424,1,8,0:0:0:0:
256,156,42505,1,0,0:0:0:0:
231,192,42586,1,0,0:0:0:0:
192,213,42668,1,0,0:0:0:0:
148,212,42749,5,2,0:0:0:0:
110,188,42830,1,0,0:0:0:0:
92,147,42911,1,0,0:0:0:0:
54,123,42992,1,0,0:0:0:0:
12,138,43073,1,8,0:0:0:0:
1,180,43154,1,0,0:0:0:0:
14,221,43235,1,0,0:0:0:0:
47,249,43316,1,0,0:0:0:0:
63,289,43397,5,2,0:0:0:0:
66,310,43478,1,0,0:0:0:0:
64,331,43559,2,0,P|58:362|52:380,1,44.0000013427735
192,213,43722,1,8,0:0:0:0:
195,234,43803,1,0,0:0:0:0:
193,255,43884,2,0,P|187:286|181:304,1,44.0000013427735
301,138,44046,5,2,0:0:0:0:
317,178,44127,1,0,0:0:0:0:
352,204,44208,1,0,0:0:0:0:
394,215,44289,1,0,0:0:0:0:
437,206,44370,1,8,0:0:0:0:
471,178,44451,1,0,0:0:0:0:
489,137,44532,1,0,0:0:0:0:
491,92,44614,1,0,0:0:0:0:
473,51,44695,5,2,0:0:0:0:
454,38,44776,1,0,0:0:0:0:
432,34,44857,2,0,P|409:32|381:33,1,44.0000013427735
306,93,45019,1,8,0:0:0:0:
325,106,45100,1,0,0:0:0:0:
347,110,45181,2,0,P|370:112|398:111,1,44.0000013427735,0|0,0:0|0:0,0:0:0:0:
294,11,45343,5,2,0:0:0:0:
272,49,45424,1,0,0:0:0:0:
235,72,45505,1,0,0:0:0:0:
191,78,45586,1,0,0:0:0:0:
147,69,45667,1,8,0:0:0:0:
113,39,45749,1,0,0:0:0:0:
69,30,45830,1,0,0:0:0:0:
28,46,45911,1,0,0:0:0:0:
9,85,45992,5,2,0:0:0:0:
9,106,46073,1,0,0:0:0:0:
14,127,46154,2,0,P|9:158|2:180,1,44.0000013427735
148,149,46316,1,8,0:0:0:0:
148,170,46397,1,0,0:0:0:0:
153,191,46478,2,0,P|148:222|141:244,1,44.0000013427735
284,206,46641,5,2,0:0:0:0:
299,164,46722,1,0,0:0:0:0:
333,136,46803,1,0,0:0:0:0:
376,127,46884,1,0,0:0:0:0:
418,138,46965,1,8,0:0:0:0:
449,168,47046,1,0,0:0:0:0:
464,209,47127,1,0,0:0:0:0:
462,252,47208,1,0,0:0:0:0:
444,292,47289,5,2,0:0:0:0:
410,320,47370,1,0,0:0:0:0:
366,328,47451,1,0,0:0:0:0:
323,315,47532,1,0,0:0:0:0:
289,285,47614,1,8,0:0:0:0:
246,272,47695,1,0,0:0:0:0:
202,277,47776,1,0,0:0:0:0:
164,299,47857,1,0,0:0:0:0:
144,338,47938,6,0,P|138:359|140:381,1,44.0000013427735,0|2,0:0|0:0,0:0:0:0:
52,270,48100,1,0,0:0:0:0:
87,244,48181,1,0,0:0:0:0:
102,202,48262,1,8,0:0:0:0:
98,158,48343,1,0,0:0:0:0:
80,117,48424,2,0,P|60:97|38:87,1,44.0000013427735
153,15,48586,5,2,0:0:0:0:
171,55,48668,1,0,0:0:0:0:
201,86,48749,1,0,0:0:0:0:
242,99,48830,1,0,0:0:0:0:
285,93,48911,1,8,0:0:0:0:
323,71,48992,1,0,0:0:0:0:
349,35,49073,1,0,0:0:0:0:
387,14,49154,1,0,0:0:0:0:
430,16,49235,5,2,0:0:0:0:
450,24,49316,1,0,0:0:0:0:
466,38,49397,2,0,P|477:54|483:80,1,44.0000013427735
377,215,49559,1,8,0:0:0:0:
357,207,49640,1,0,0:0:0:0:
341,193,49721,2,0,P|330:177|324:151,1,44.0000013427735
451,153,49884,5,2,0:0:0:0:
470,192,49965,1,0,0:0:0:0:
471,235,50046,1,0,0:0:0:0:
453,275,50127,1,0,0:0:0:0:
418,302,50208,1,8,0:0:0:0:
374,310,50289,1,0,0:0:0:0:
332,294,50370,1,0,0:0:0:0:
288,301,50451,1,0,0:0:0:0:
258,333,50532,6,0,P|249:352|247:377,1,44.0000013427735,2|0,0:0|0:0,0:0:0:0:
216,246,50695,1,0,0:0:0:0:
182,217,50776,1,0,0:0:0:0:
139,207,50857,1,8,0:0:0:0:
95,215,50938,1,0,0:0:0:0:
60,241,51019,1,0,0:0:0:0:
38,279,51100,1,0,0:0:0:0:
34,322,51181,6,0,B|51:345|51:345|110:348,1,88.000002685547,8|8,0:0|0:0,0:0:0:0:
240,290,51505,1,2,0:0:0:0:
196,289,51586,1,0,0:0:0:0:
152,287,51667,1,8,0:0:0:0:
121,254,51749,1,8,0:0:0:0:
95,215,51830,1,8,0:0:0:0:
221,143,51992,1,8,0:0:0:0:
101,103,52154,6,0,B|65:98|14:108|14:108|69:88,1,132.00000402832,4|0,0:0|0:0,0:0:0:0:
245,23,52478,6,0,P|201:21|160:35,1,88.000002685547,14|0,0:0|0:0,0:0:0:0:
316,76,52722,1,0,0:0:0:0:
316,76,52803,2,0,L|404:80,1,88.000002685547,8|0,0:0|0:0,0:0:0:0:
221,143,53046,1,0,0:0:0:0:
221,143,53127,1,10,0:0:0:0:
144,101,53289,1,2,0:0:0:0:
300,183,53451,1,10,0:0:0:0:
132,206,53614,1,2,0:0:0:0:
290,284,53776,6,0,P|291:338|273:378,1,88.000002685547,10|0,0:0|0:0,0:0:0:0:
211,244,54019,1,0,0:0:0:0:
211,244,54100,1,10,0:0:0:0:
465,218,54262,1,0,0:0:0:0:
422,222,54343,1,0,0:0:0:0:
379,226,54424,1,10,0:0:0:0:
283,95,54586,1,0,0:0:0:0:
291,139,54667,1,0,0:0:0:0:
300,183,54749,1,10,0:0:0:0:
374,17,54911,1,0,0:0:0:0:
503,159,55073,6,0,P|511:203|501:249,1,88.000002685547,10|0,0:0|0:0,0:0:0:0:
456,76,55316,1,0,0:0:0:0:
424,107,55397,1,8,0:0:0:0:
381,118,55478,1,0,0:0:0:0:
337,109,55560,1,0,0:0:0:0:
300,84,55641,1,0,0:0:0:0:
278,45,55722,1,10,0:0:0:0:
305,201,55884,1,2,0:0:0:0:
273,20,56046,1,10,0:0:0:0:
309,220,56208,1,2,0:0:0:0:
269,0,56370,6,0,P|223:46|88:27,1,198.000001888275,2|0,0:0|0:0,0:0:0:0:
212,170,56695,6,0,P|258:124|393:143,1,198.000001888275,2|0,0:0|0:0,0:0:0:0:
310,220,57019,6,0,L|110:212,1,198.000001888275,2|0,0:0|0:0,0:0:0:0:
20,322,57343,6,0,B|65:307|108:325|108:325|128:320|128:320|166:348|210:339,1,198.000001888275,2|0,0:0|0:0,0:0:0:0:
283,296,57668,6,0,P|293:345|282:381,1,88.000002685547,14|0,0:0|0:0,0:0:0:0:
199,160,57911,1,0,0:0:0:0:
199,160,57992,2,0,P|196:207|214:251,1,88.000002685547,8|0,0:0|0:0,0:0:0:0:
300,129,58235,1,0,0:0:0:0:
300,129,58316,1,10,0:0:0:0:
122,97,58478,1,2,0:0:0:0:
80,111,58559,1,0,0:0:0:0:
38,125,58641,1,10,0:0:0:0:
141,10,58803,1,2,0:0:0:0:
225,62,58965,5,10,0:0:0:0:
96,281,59127,1,0,0:0:0:0:
104,238,59208,1,0,0:0:0:0:
111,195,59289,1,10,0:0:0:0:
276,228,59451,1,0,0:0:0:0:
265,270,59532,1,0,0:0:0:0:
252,312,59614,1,10,0:0:0:0:
199,160,59776,1,0,0:0:0:0:
199,160,59857,1,0,0:0:0:0:
199,160,59938,1,10,0:0:0:0:
389,102,60100,1,0,0:0:0:0:
459,266,60262,6,0,P|410:285|374:279,1,88.000002685547,10|0,0:0|0:0,0:0:0:0:
276,228,60504,1,0,0:0:0:0:
276,228,60586,2,0,L|285:280,1,44.0000013427735,8|0,0:0|0:0,0:0:0:0:
364,137,60749,2,0,L|355:189,1,44.0000013427735
292,61,60911,1,10,0:0:0:0:
444,36,61073,1,2,0:0:0:0:
266,65,61235,1,10,0:0:0:0:
470,32,61397,1,2,0:0:0:0:
239,71,61559,6,0,B|250:137|250:137|229:201,1,132.00000125885,10|0,0:0|0:0,0:0:0:0:
155,247,61803,1,0,0:0:0:0:
155,247,61884,2,0,P|114:261|21:255,1,132.00000125885,10|0,0:0|0:0,0:0:0:0:
255,290,62127,1,0,0:0:0:0:
255,290,62208,6,0,P|270:284|298:280,6,33.0000003147125,10|0|0|0|0|0|0,0:0|0:0|0:0|0:0|0:0|0:0|0:0,0:0:0:0:
165,338,62532,2,0,L|161:375,6,33.0000003147125,10|0|0|0|0|0|0,0:0|0:0|0:0|0:0|0:0|0:0|0:0,0:0:0:0:
155,247,62857,6,0,P|114:261|62:262,1,88.000002685547,10|0,0:0|0:0,0:0:0:0:
247,198,63100,1,0,0:0:0:0:
247,198,63181,1,8,0:0:0:0:
121,70,63343,1,0,0:0:0:0:
132,112,63424,1,0,0:0:0:0:
141,155,63505,1,10,0:0:0:0:
291,43,63668,1,2,0:0:0:0:
253,22,63749,1,0,0:0:0:0:
215,0,63830,1,10,0:0:0:0:
225,106,63992,1,2,0:0:0:0:
378,44,64154,6,0,P|433:50|481:90,1,88.000002685547,10|0,0:0|0:0,0:0:0:0:
339,218,64397,1,0,0:0:0:0:
339,218,64478,2,0,L|318:126,1,88.000002685547,8|0,0:0|0:0,0:0:0:0:
426,259,64722,1,0,0:0:0:0:
426,259,64803,1,8,0:0:0:0:
194,274,64965,1,0,0:0:0:0:
237,284,65046,1,0,0:0:0:0:
281,292,65127,6,0,L|292:338,1,44.0000013427735,8|0,0:0|0:0,0:0:0:0:
153,265,65451,6,2,B|163:246|162:218|162:218|152:180|152:180|173:175|195:182,1,132.00000402832,0|2,0:0|0:0,0:0:0:0:
236,196,65776,5,10,0:0:0:0:
93,340,65938,1,10,0:0:0:0:
107,166,66100,1,10,0:0:0:0:
185,361,66262,1,10,0:0:0:0:
368,279,66424,2,0,L|270:294,1,88.000002685547,2|0,0:0|0:0,0:0:0:0:
453,193,66749,6,0,P|486:249|486:314,1,132.00000125885,8|0,0:0|0:0,0:0:0:0:
415,383,66992,2,0,P|343:384|281:338,1,132.00000125885,8|0,0:0|0:0,0:0:0:0:
277,255,67235,2,0,L|343:262,1,66.0000006294251,8|0,0:0|0:0,0:0:0:0:
454,193,67397,1,8,0:0:0:0:
454,193,67478,1,0,0:0:0:0:
454,193,67559,2,0,L|399:205,1,44.0000013427735
401,99,67722,1,10,0:0:0:0:
358,110,67803,1,2,0:0:0:0:
314,107,67884,1,2,0:0:0:0:
273,88,67965,1,2,0:0:0:0:
244,54,68046,6,0,B|202:39|202:39|154:39,1,88.000002685547,12|0,0:0|0:0,0:0:0:0:
76,71,68289,1,0,0:0:0:0:
76,71,68370,2,0,L|67:27,1,44.0000013427735,2|0,0:0|0:0,0:0:0:0:
174,172,68532,2,0,L|183:128,1,44.0000013427735,2|0,0:0|0:0,0:0:0:0:
34,194,68695,6,0,B|45:239|45:239|69:276,1,88.000002685547,12|0,0:0|0:0,0:0:0:0:
120,344,68938,1,0,0:0:0:0:
120,344,69019,2,0,L|64:349,1,44.0000013427735,2|0,0:0|0:0,0:0:0:0:
242,259,69181,2,0,L|187:255,1,44.0000013427735,2|0,0:0|0:0,0:0:0:0:
299,319,69343,6,0,B|300:277|300:277|322:228,1,88.000002685547,12|0,0:0|0:0,0:0:0:0:
396,193,69586,1,0,0:0:0:0:
353,206,69668,1,2,0:0:0:0:
309,197,69749,1,2,0:0:0:0:
280,163,69830,1,2,0:0:0:0:
272,119,69911,1,2,0:0:0:0:
292,80,69992,6,0,P|307:64|331:49,1,44.0000013427735,12|0,0:0|0:0,0:0:0:0:
167,55,70154,1,0,0:0:0:0:
183,95,70235,1,0,0:0:0:0:
164,135,70316,1,2,0:0:0:0:
124,153,70397,1,2,0:0:0:0:
80,146,70478,1,2,0:0:0:0:
41,167,70559,1,2,0:0:0:0:
21,206,70641,6,0,L|13:256,8,40,14|0|0|0|0|0|0|0|10,0:0|0:0|0:0|0:0|0:0|0:0|0:0|0:0|0:0,0:0:0:0:
231,158,71127,1,10,0:0:0:0:
69,62,71289,5,10,0:0:0:0:
231,158,71451,1,10,0:0:0:0:
87,255,71614,1,0,0:0:0:0:
128,241,71695,1,0,0:0:0:0:
171,247,71776,1,0,0:0:0:0:
207,271,71857,1,0,0:0:0:0:
220,312,71938,5,8,0:0:0:0:
254,339,72019,1,0,0:0:0:0:
297,345,72100,1,0,0:0:0:0:
338,330,72181,1,0,0:0:0:0:
366,296,72262,1,8,0:0:0:0:
378,253,72343,1,0,0:0:0:0:
375,209,72424,1,0,0:0:0:0:
386,166,72505,1,0,0:0:0:0:
417,134,72586,6,0,P|443:125|479:130,1,44.0000013427735,2|0,0:0|0:0,0:0:0:0:
338,240,72749,2,0,P|316:252|282:255,1,44.0000013427735,2|0,0:0|0:0,0:0:0:0:
454,212,72911,2,0,L|460:261,1,44.0000013427735,2|0,0:0|0:0,0:0:0:0:
289,165,73073,2,0,L|283:121,1,44.0000013427735,2|0,0:0|0:0,0:0:0:0:
384,56,73235,6,0,P|356:55|332:46,1,44.0000013427735,6|0,0:0|0:0,0:0:0:0:
202,34,73559,2,0,P|230:35|254:44,1,44.0000013427735,2|0,0:0|0:0,0:0:0:0:
283,122,73884,2,0,P|255:121|231:112,1,44.0000013427735,2|0,0:0|0:0,0:0:0:0:
73,100,74208,1,2,0:0:0:0:
123,28,74370,1,0,0:0:0:0:
116,173,74532,6,0,L|111:230,1,44.0000013427735,2|0,0:0|0:0,0:0:0:0:
274,272,74857,2,0,L|279:215,1,44.0000013427735,2|0,0:0|0:0,0:0:0:0:
197,200,75181,2,0,L|192:257,1,44.0000013427735,2|0,0:0|0:0,0:0:0:0:
355,299,75505,1,2,0:0:0:0:
195,326,75668,1,0,0:0:0:0:
360,219,75830,6,0,P|385:225|412:240,1,44.0000013427735,2|0,0:0|0:0,0:0:0:0:
301,161,76154,2,0,P|276:155|249:140,1,44.0000013427735,2|0,0:0|0:0,0:0:0:0:
383,143,76478,2,0,P|408:149|435:164,1,44.0000013427735,2|0,0:0|0:0,0:0:0:0:
324,85,76803,1,2,0:0:0:0:
462,79,76965,1,0,0:0:0:0:
348,10,77127,6,0,P|322:6|294:12,1,44.0000013427735,2|0,0:0|0:0,0:0:0:0:
93,63,77451,2,0,P|119:67|147:61,1,44.0000013427735,2|0,0:0|0:0,0:0:0:0:
221,40,77776,1,2,0:0:0:0:
191,122,77938,1,0,0:0:0:0:
275,99,78100,1,0,0:0:0:0:
245,181,78262,1,2,0:0:0:0:
330,160,78424,6,0,P|351:157|426:183,1,88.000002685547,2|2,0:0|0:0,0:0:0:0:
478,235,78911,1,0,0:0:0:0:
478,235,79073,2,0,L|482:286,1,44.0000013427735,2|0,0:0|0:0,0:0:0:0:
463,109,79397,2,0,L|466:65,1,44.0000013427735,2|0,0:0|0:0,0:0:0:0:
393,256,79722,6,0,L|402:349,1,88.000002685547,2|2,0:0|0:0,0:0:0:0:
413,174,80208,1,0,0:0:0:0:
337,198,80370,2,0,P|314:201|289:200,1,44.0000013427735,2|0,0:0|0:0,0:0:0:0:
172,159,80695,2,0,P|194:156|216:157,1,44.0000013427735,2|0,0:0|0:0,0:0:0:0:
206,290,81019,6,0,L|205:247,1,44.0000013427735,2|0,0:0|0:0,0:0:0:0:
315,68,81343,2,0,L|316:111,1,44.0000013427735,2|0,0:0|0:0,0:0:0:0:
124,123,81668,6,0,L|190:120,1,66.4000009625244,2|0,0:0|0:0,0:0:0:0:
393,231,81992,2,0,L|326:232,1,66.4000009625244,2|0,0:0|0:0,0:0:0:0:
256,192,82316,5,2,0:0:0:0:
287,160,82397,1,0,0:0:0:0:
330,154,82478,1,0,0:0:0:0:
371,167,82559,1,0,0:0:0:0:
400,200,82641,1,2,0:0:0:0:
408,243,82722,1,0,0:0:0:0:
391,283,82803,1,0,0:0:0:0:
356,310,82884,1,0,0:0:0:0:
312,314,82965,5,2,0:0:0:0:
271,297,83046,1,0,0:0:0:0:
240,265,83127,1,0,0:0:0:0:
201,244,83208,1,0,0:0:0:0:
157,245,83289,1,2,0:0:0:0:
118,266,83370,1,0,0:0:0:0:
94,303,83451,1,0,0:0:0:0:
94,346,83532,1,0,0:0:0:0:
117,383,83614,5,8,0:0:0:0:
28,186,83776,1,8,0:0:0:0:
239,135,83938,2,0,P|194:133|122:77,1,132.00000402832,4|0,0:0|0:0,0:0:0:0:
115,40,84262,5,8,0:0:0:0:
202,245,84424,1,8,0:0:0:0:
320,1,84586,2,0,P|365:3|437:59,1,132.00000402832,4|0,0:0|0:0,0:0:0:0:
464,161,84911,6,0,L|462:197,1,22.0000006713867,8|0,0:0|0:0,0:0:0:0:
257,57,85235,2,0,L|259:21,1,22.0000006713867,8|0,0:0|0:0,0:0:0:0:
394,219,85559,2,0,L|392:251,1,22.0000006713867,8|0,0:0|0:0,0:0:0:0:
332,161,85722,1,2,0:0:0:0:
293,182,85803,1,0,0:0:0:0:
249,188,85884,1,8,0:0:0:0:
206,177,85965,1,0,0:0:0:0:
169,152,86046,1,2,0:0:0:0:
145,115,86127,1,0,0:0:0:0:
133,72,86208,6,0,P|131:51|134:27,1,44.0000013427735,8|0,0:0|0:0,0:0:0:0:
11,182,86370,1,2,0:0:0:0:
54,195,86451,1,0,0:0:0:0:
86,224,86532,1,8,0:0:0:0:
102,264,86613,1,0,0:0:0:0:
136,291,86695,1,2,0:0:0:0:
178,302,86776,1,0,0:0:0:0:
221,294,86857,5,8,0:0:0:0:
238,280,86938,1,0,0:0:0:0:
257,270,87019,2,0,P|276:262|304:260,1,44.0000013427735,2|0,0:0|0:0,0:0:0:0:
387,319,87181,1,8,0:0:0:0:
370,333,87262,1,0,0:0:0:0:
351,343,87343,2,0,P|332:351|304:353,1,44.0000013427735,2|0,0:0|0:0,0:0:0:0:
400,173,87505,6,0,L|394:217,1,44.0000013427735,8|0,0:0|0:0,0:0:0:0:
309,86,87668,1,10,0:0:0:0:
309,86,87749,1,8,0:0:0:0:
309,86,87830,2,0,L|315:129,1,44.0000013427735,8|0,0:0|0:0,0:0:0:0:
381,18,87992,2,0,L|426:24,1,44.0000013427735,10|0,0:0|0:0,0:0:0:0:
218,71,88154,6,0,L|126:81,2,88.0000008392334,8|8|8,0:0|0:0|0:0,0:0:0:0:
403,96,88478,2,0,L|495:106,2,88.0000008392334,8|8|8,0:0|0:0|0:0,0:0:0:0:
309,86,88803,6,0,L|303:35,1,44.0000013427735,8|0,0:0|0:0,0:0:0:0:
242,156,88965,1,10,0:0:0:0:
285,151,89046,1,0,0:0:0:0:
325,167,89127,1,4,0:0:0:0:
353,200,89208,1,0,0:0:0:0:
364,242,89289,1,10,0:0:0:0:
348,283,89370,1,0,0:0:0:0:
314,311,89451,6,0,P|289:322|264:325,1,44.0000013427735,8|0,0:0|0:0,0:0:0:0:
87,272,89614,1,10,0:0:0:0:
120,244,89695,1,0,0:0:0:0:
162,232,89776,1,4,0:0:0:0:
204,241,89857,1,0,0:0:0:0:
246,229,89938,1,10,0:0:0:0:
274,195,90019,1,0,0:0:0:0:
285,151,90100,6,0,P|283:121|277:100,1,44.0000013427735,8|0,0:0|0:0,0:0:0:0:
67,63,90262,1,10,0:0:0:0:
103,87,90343,1,0,0:0:0:0:
146,91,90424,1,4,0:0:0:0:
186,73,90505,1,0,0:0:0:0:
214,39,90586,1,10,0:0:0:0:
253,18,90668,1,0,0:0:0:0:
296,15,90749,6,0,P|319:20|347:33,1,44.0000013427735,8|0,0:0|0:0,0:0:0:0:
445,169,90911,1,10,0:0:0:0:
445,169,90992,1,0,0:0:0:0:
445,169,91073,2,0,L|459:64,1,88.000002685547,4|2,0:0|0:0,0:0:0:0:
364,200,91397,6,0,P|378:232|391:246,1,44.0000013427735,8|0,0:0|0:0,0:0:0:0:
351,361,91559,1,10,0:0:0:0:
318,330,91641,1,0,0:0:0:0:
276,314,91722,1,4,0:0:0:0:
233,323,91803,1,0,0:0:0:0:
198,349,91884,1,10,0:0:0:0:
154,357,91965,1,0,0:0:0:0:
111,346,92046,6,0,P|90:338|63:311,1,44.0000013427735,8|0,0:0|0:0,0:0:0:0:
66,165,92208,2,0,P|87:173|114:200,1,44.0000013427735,10|0,0:0|0:0,0:0:0:0:
158,255,92370,1,4,0:0:0:0:
201,251,92451,1,0,0:0:0:0:
244,247,92532,1,10,0:0:0:0:
288,243,92614,1,0,0:0:0:0:
331,239,92695,5,8,0:0:0:0:
276,160,92857,1,8,0:0:0:0:
318,330,93019,1,8,0:0:0:0:
390,131,93181,1,8,0:0:0:0:
178,130,93343,1,8,0:0:0:0:
221,132,93424,1,8,0:0:0:0:
264,123,93505,1,8,0:0:0:0:
302,102,93586,1,8,0:0:0:0:
328,66,93668,1,8,0:0:0:0:
367,46,93749,1,8,0:0:0:0:
410,45,93830,1,8,0:0:0:0:
448,66,93911,1,8,0:0:0:0:
470,103,93992,6,0,P|474:149|454:195,1,88.000002685547,2|0,0:0|0:0,0:0:0:0:
403,258,94316,5,10,0:0:0:0:
361,243,94397,1,0,0:0:0:0:
317,243,94478,1,0,0:0:0:0:
276,260,94559,1,0,0:0:0:0:
244,291,94641,2,0,B|234:335|234:335|235:378,1,88.000002685547,10|0,0:0|0:0,0:0:0:0:
132,210,94884,2,0,B|142:254|142:254|141:297,1,88.000002685547,10|0,0:0|0:0,0:0:0:0:
240,158,95127,2,0,L|233:202,1,44.0000013427735,10|0,0:0|0:0,0:0:0:0:
183,96,95289,6,0,L|90:99,1,88.000002685547,10|10,0:0|0:0,0:0:0:0:
298,44,95532,1,10,0:0:0:0:
298,44,95614,1,2,0:0:0:0:
360,195,95776,1,10,0:0:0:0:
383,159,95857,1,0,0:0:0:0:
401,119,95938,2,0,L|387:33,1,88.000002685547,10|8,0:0|0:0,0:0:0:0:
443,252,96181,2,0,L|410:346,1,88.000002685547,10|0,0:0|0:0,0:0:0:0:
488,151,96424,1,10,0:0:0:0:
488,151,96505,1,0,0:0:0:0:
488,151,96586,5,8,0:0:0:0:
459,185,96668,1,0,0:0:0:0:
419,203,96749,1,2,0:0:0:0:
375,199,96830,1,0,0:0:0:0:
337,175,96911,1,8,0:0:0:0:
316,136,96992,1,0,0:0:0:0:
320,92,97073,1,2,0:0:0:0:
298,53,97154,1,0,0:0:0:0:
257,36,97235,5,8,0:0:0:0:
213,41,97316,1,0,0:0:0:0:
176,66,97397,1,2,0:0:0:0:
157,105,97478,1,0,0:0:0:0:
157,148,97559,1,8,0:0:0:0:
172,189,97641,1,0,0:0:0:0:
210,210,97722,1,2,0:0:0:0:
222,251,97803,1,0,0:0:0:0:
208,292,97884,6,0,P|168:317|128:319,2,88.0000008392334,10|8|8,0:0|0:0|0:0,0:0:0:0:
158,148,98208,2,0,P|114:151|78:175,2,88.0000008392334,10|8|8,0:0|0:0|0:0,0:0:0:0:
141,231,98532,2,0,L|54:268,1,88.0000008392334,10|8,0:0|0:0,0:0:0:0:
246,182,98749,1,8,0:0:0:0:
246,182,98857,2,0,P|293:177|348:191,1,88.0000008392334,10|8,0:0|0:0,0:0:0:0:
410,226,99073,1,8,0:0:0:0:
410,226,99181,6,0,B|424:254|424:254|444:107,1,176.000005371094,2|10,0:0|0:0,0:0:0:0:
443,110,99586,1,0,0:0:0:0:
443,110,99668,1,2,0:0:0:0:
273,60,99830,1,10,0:0:0:0:
335,255,99992,1,0,0:0:0:0:
342,147,100154,1,10,0:0:0:0:
342,147,100235,1,0,0:0:0:0:
342,147,100316,2,0,L|287:152,1,44.0000013427735,2|0,0:0|0:0,0:0:0:0:
211,135,100478,5,10,0:0:0:0:
211,135,100559,2,0,L|218:186,1,44.0000013427735
139,50,100722,1,2,0:0:0:0:
139,50,100803,2,0,L|146:-1,1,44.0000013427735,8|0,0:0|0:0,0:0:0:0:
81,128,100965,5,2,0:0:0:0:
84,171,101046,1,0,0:0:0:0:
64,210,101127,1,10,0:0:0:0:
27,234,101208,1,0,0:0:0:0:
5,272,101289,1,2,0:0:0:0:
2,315,101370,1,0,0:0:0:0:
22,354,101451,1,10,0:0:0:0:
61,372,101532,1,0,0:0:0:0:
105,368,101614,1,2,0:0:0:0:
140,342,101695,1,0,0:0:0:0:
161,303,101776,6,0,L|249:295,1,88.000002685547,2|0,0:0|0:0,0:0:0:0:
333,270,102019,1,8,0:0:0:0:
333,270,102100,2,0,L|329:348,1,44.0000013427735,2|0,0:0|0:0,0:0:0:0:
211,175,102262,2,0,L|216:219,1,44.0000013427735,10|0,0:0|0:0,0:0:0:0:
385,166,102424,2,0,B|341:170|341:170|297:158,1,88.000002685547,10|0,0:0|0:0,0:0:0:0:
463,152,102668,1,8,0:0:0:0:
463,152,102749,2,0,L|507:146,1,44.0000013427735,2|0,0:0|0:0,0:0:0:0:
304,67,102911,2,0,L|354:59,1,44.0000013427735,10|0,0:0|0:0,0:0:0:0:
211,176,103073,5,10,0:0:0:0:
168,186,103154,1,0,0:0:0:0:
125,176,103235,1,0,0:0:0:0:
93,145,103316,1,0,0:0:0:0:
77,104,103397,1,10,0:0:0:0:
80,60,103478,1,0,0:0:0:0:
104,23,103559,1,0,0:0:0:0:
145,7,103641,1,0,0:0:0:0:
187,17,103722,6,0,B|231:29|231:29|276:23,1,88.000002685547,10|0,0:0|0:0,0:0:0:0:
364,173,103965,2,0,B|324:159|324:159|278:163,1,88.000002685547,10|0,0:0|0:0,0:0:0:0:
332,65,104208,2,0,L|329:108,1,44.0000013427735,10|8,0:0|0:0,0:0:0:0:
510,62,104370,6,0,P|470:45|427:48,1,88.000002685547,10|0,0:0|0:0,0:0:0:0:
446,217,104614,1,0,0:0:0:0:
446,217,104695,2,0,B|454:127,1,88.000002685547,10|2,0:0|0:0,0:0:0:0:
350,251,104938,1,2,0:0:0:0:
350,251,105019,1,10,0:0:0:0:
512,262,105181,1,2,0:0:0:0:
507,305,105262,1,0,0:0:0:0:
503,348,105343,1,10,0:0:0:0:
453,129,105505,1,2,0:0:0:0:
350,251,105668,5,10,0:0:0:0:
186,215,105830,1,0,0:0:0:0:
230,208,105911,1,0,0:0:0:0:
274,201,105992,1,10,0:0:0:0:
103,170,106154,1,0,0:0:0:0:
110,213,106235,1,0,0:0:0:0:
118,256,106316,1,10,0:0:0:0:
62,88,106478,1,2,0:0:0:0:
247,124,106641,1,10,0:0:0:0:
29,205,106803,1,2,0:0:0:0:
151,58,106965,5,10,0:0:0:0:
189,78,107046,1,0,0:0:0:0:
232,84,107127,1,0,0:0:0:0:
274,74,107208,1,0,0:0:0:0:
309,47,107289,1,10,0:0:0:0:
352,38,107370,1,0,0:0:0:0:
394,47,107451,1,0,0:0:0:0:
429,73,107532,1,0,0:0:0:0:
456,108,107614,6,0,L|465:144,6,22.0000006713867,10|0|0|0|0|0|0,0:0|0:0|0:0|0:0|0:0|0:0|0:0,0:0:0:0:
430,211,107938,2,0,L|421:247,6,22.0000006713867,10|0|0|0|0|0|0,0:0|0:0|0:0|0:0|0:0|0:0|0:0,0:0:0:0:
346,251,108262,5,10,0:0:0:0:
461,310,108424,1,0,0:0:0:0:
323,237,108586,1,10,0:0:0:0:
484,322,108749,1,0,0:0:0:0:
300,222,108911,2,0,B|307:268|307:268|303:320,1,88.000002685547,2|0,0:0|0:0,0:0:0:0:
160,203,109235,2,0,B|153:157|153:157|157:105,1,88.000002685547,2|0,0:0|0:0,0:0:0:0:
177,294,109559,5,10,0:0:0:0:
280,128,109722,1,10,0:0:0:0:
446,159,109884,1,10,0:0:0:0:
300,222,110046,1,10,0:0:0:0:
429,66,110208,5,10,0:0:0:0:
374,242,110370,2,0,L|367:216,1,22.0000006713867,10|0,0:0|0:0,0:0:0:0:
396,240,110451,2,0,L|397:213,1,22.0000006713867
416,246,110532,1,10,0:0:0:0:
358,50,110695,2,0,L|365:76,1,22.0000006713867,10|0,0:0|0:0,0:0:0:0:
336,52,110776,2,0,L|335:79,1,22.0000006713867
316,46,110857,5,10,0:0:0:0:
362,144,111019,1,10,0:0:0:0:
246,35,111181,1,10,0:0:0:0:
105,108,111343,1,10,0:0:0:0:
131,264,111505,5,10,0:0:0:0:
231,166,111668,2,0,L|207:152,1,22.0000006713867,10|0,0:0|0:0,0:0:0:0:
224,186,111749,2,0,L|194:178,1,22.0000006713867
221,207,111830,1,10,0:0:0:0:
271,331,111992,2,0,L|295:345,1,22.0000006713867,10|0,0:0|0:0,0:0:0:0:
278,311,112073,2,0,L|308:319,1,22.0000006713867
281,290,112154,5,10,0:0:0:0:
300,250,112235,1,0,0:0:0:0:
337,229,112316,1,8,0:0:0:0:
380,230,112397,1,0,0:0:0:0:
418,209,112478,1,10,0:0:0:0:
443,173,112559,1,0,0:0:0:0:
448,128,112641,1,8,0:0:0:0:
426,89,112722,1,0,0:0:0:0:
389,63,112803,5,10,0:0:0:0:
345,55,112884,1,0,0:0:0:0:
302,65,112965,1,8,0:0:0:0:
267,92,113046,1,0,0:0:0:0:
224,104,113127,1,10,0:0:0:0:
180,95,113208,1,0,0:0:0:0:
147,65,113289,1,8,0:0:0:0:
103,56,113370,1,0,0:0:0:0:
63,75,113451,6,0,L|25:69,1,33.0000003147125,10|0,0:0|0:0,0:0:0:0:
209,13,113614,2,0,L|245:19,1,33.0000003147125,10|0,0:0|0:0,0:0:0:0:
115,165,113776,2,0,L|70:157,1,33.0000003147125,10|0,0:0|0:0,0:0:0:0:
258,106,113939,2,0,L|293:111,1,33.0000003147125,10|0,0:0|0:0,0:0:0:0:
161,247,114100,6,0,B|116:260|116:260|68:252,2,88.0000008392334,10|2|2,0:0|0:0|0:0,0:0:0:0:
390,184,114424,2,0,B|350:178|350:178|305:191,2,88.0000008392334,10|2|2,0:0|0:0|0:0,0:0:0:0:
123,334,115073,5,4,0:0:0:0:
256,192,115154,12,0,119938,0:0:0:0:
