osu file format v14

[General]
AudioFilename: [SDVX II ] BLACK or WHITE_ [NOFX].mp3
AudioLeadIn: 1500
PreviewTime: 52458
Countdown: 0
SampleSet: Normal
StackLeniency: 0.7
Mode: 0
LetterboxInBreaks: 0
WidescreenStoryboard: 0

[Editor]
Bookmarks: 43702
DistanceSpacing: 1
BeatDivisor: 4
GridSize: 32
TimelineZoom: 1.500006

[Metadata]
Title:BLACK or WHITE?
TitleUnicode:BLACK or WHITE?
Artist:BlackYooh vs. siromaru
ArtistUnicode:BlackYooh vs. siromaru
Creator:BluOxy
Version:INFINITE
Source:SOUND VOLTEX II -infinite infection-
Tags:Yooh BlackY KAC2013 hardcore symphonic speed schranz sdvx konami
BeatmapID:637477
BeatmapSetID:248876

[Difficulty]
HPDrainRate:7
CircleSize:4
OverallDifficulty:8
ApproachRate:9
SliderMultiplier:1.5
SliderTickRate:1

[Events]
//Background and Video events
0,0,"nyaa.png",0,0
//Break Periods
//Storyboard Layer 0 (Background)
//Storyboard Layer 1 (Fail)
//Storyboard Layer 2 (Pass)
//Storyboard Layer 3 (Foreground)
//Storyboard Sound Samples

[TimingPoints]
587,324.324324324324,4,1,1,50,1,0
8370,-100,4,1,2,50,0,0
10641,-100,4,1,1,50,0,0
10965,-100,4,1,3,50,0,0
21343,-100,4,1,2,50,0,0
25884,-66.6666666666667,4,1,3,50,0,0
26532,-100,4,1,1,60,0,0
27830,-100,4,1,1,55,0,0
28154,-100,4,1,1,60,0,0
28478,-100,4,1,1,65,0,0
28803,-100,4,1,1,70,0,0
29127,-66.6666666666667,4,1,1,75,0,0
30424,-100,4,1,1,75,0,0
31722,-200,4,2,1,50,0,0
34316,-200,4,2,1,30,0,0
35614,-200,4,2,1,20,0,0
36262,-200,4,2,1,10,0,0
36586,-200,4,2,1,5,0,0
36911,-200,4,2,1,50,0,0
42100,-100,4,1,1,50,0,0
51181,-100,4,1,2,50,0,0
52154,-66.6666666666667,4,1,2,55,0,0
52478,-100,4,1,4,70,0,1
56370,-90.9090909090909,4,1,4,70,0,1
57668,-100,4,1,4,70,0,1
61559,-90.9090909090909,4,1,4,70,0,1
62857,-100,4,1,4,70,0,1
65451,-133.333333333333,4,1,4,50,0,0
65776,-100,4,1,4,70,0,1
66424,-90.9090909090909,4,1,4,70,0,1
68046,-133.333333333333,4,1,4,70,0,1
68127,-100,4,1,4,60,0,1
68614,-133.333333333333,4,1,4,60,0,1
68776,-100,4,1,4,60,0,1
69262,-133.333333333333,4,1,4,60,0,1
69424,-100,4,1,4,60,0,1
69911,-133.333333333333,4,1,4,60,0,1
70073,-100,4,1,4,70,0,1
70641,-66.6666666666667,4,1,4,70,0,1
71289,-100,4,1,4,70,0,1
73235,-200,4,2,0,43,0,0
81019,-200,4,2,0,49,0,0
81668,-133.333333333333,4,2,0,55,0,0
82316,-100,4,2,0,60,0,0
83614,-100,4,1,2,55,0,0
88154,-66.6666666666667,4,1,2,70,0,0
88803,-100,4,1,2,60,0,0
93992,-133.333333333333,4,1,2,50,0,0
94316,-100,4,1,4,75,0,1
97884,-66.6666666666667,4,1,2,70,0,0
99181,-133.333333333333,4,1,4,60,0,0
99505,-100,4,1,4,75,0,1
109559,-100,4,1,4,65,0,1
110208,-100,4,1,4,70,0,1
110857,-100,4,1,4,75,0,1
111505,-100,4,1,4,80,0,1
112154,-100,4,1,4,85,0,1
113451,-100,4,1,4,90,0,1
114100,-66.6666666666667,4,1,2,75,0,0
115073,-100,4,2,0,70,0,0
115154,-100,4,2,0,57,0,0
116046,-100,4,2,0,44,0,0
117343,-100,4,2,0,31,0,0
118641,-100,4,2,0,18,0,0
119938,-100,4,2,0,5,0,0

[Colours]
Combo1 : 149,149,149
Combo2 : 49,49,49

[HitObjects]
162,45,587,6,0,L|200:40,1,37.5
242,115,749,2,0,L|280:120,1,37.5
333,54,911,2,0,L|370:48,3,37.5,8|0|0|0,0:0|0:0|0:0|0:0,0:0:0:0:
410,44,1235,1,2,0:0:0:0:
385,72,1316,1,0,0:0:0:0:
375,108,1397,1,0,0:0:0:0:
378,145,1478,1,0,0:0:0:0:
394,178,1559,2,0,L|435:227,3,37.5,8|0|0|0,0:0|0:0|0:0|0:0,0:0:0:0:
447,230,1884,6,0,P|471:264|478:300,1,75,2|0,0:0|0:0,0:0:0:0:
473,333,2127,1,0,0:0:0:0:
449,362,2208,1,8,0:0:0:0:
415,378,2289,1,0,0:0:0:0:
377,380,2370,1,0,0:0:0:0:
341,367,2451,1,0,0:0:0:0:
315,341,2532,2,0,P|278:325|243:327,1,75,2|0,0:0|0:0,0:0:0:0:
210,345,2776,1,0,0:0:0:0:
173,353,2857,1,8,0:0:0:0:
135,348,2938,1,0,0:0:0:0:
102,329,3019,1,0,0:0:0:0:
69,189,3181,6,0,L|64:264,1,75,2|0,0:0|0:0,0:0:0:0:
99,251,3424,1,0,0:0:0:0:
136,256,3505,1,8,0:0:0:0:
171,244,3586,1,0,0:0:0:0:
196,216,3668,1,0,0:0:0:0:
207,180,3749,1,0,0:0:0:0:
200,143,3830,2,0,L|206:106,3,37.5,2|0|0|0,0:0|0:0|0:0|0:0,0:0:0:0:
220,71,4154,2,0,L|247:42,1,37.5,8|0,0:0|0:0,0:0:0:0:
343,0,4316,2,0,L|318:27,1,37.5,0|0,0:0|0:0,0:0:0:0:
275,128,4478,5,2,0:0:0:0:
309,112,4559,1,0,0:0:0:0:
346,109,4641,1,0,0:0:0:0:
381,120,4722,1,0,0:0:0:0:
409,144,4803,2,0,P|425:167|428:191,3,37.5,8|0|0|0,0:0|0:0|0:0|0:0,0:0:0:0:
432,212,5127,1,2,0:0:0:0:
424,248,5208,1,0,0:0:0:0:
403,279,5289,1,0,0:0:0:0:
372,300,5370,1,0,0:0:0:0:
336,310,5451,2,0,P|307:307|292:304,3,37.5,8|0|0|0,0:0|0:0|0:0|0:0,0:0:0:0:
265,287,5776,6,0,L|263:369,1,75,2|0,0:0|0:0,0:0:0:0:
227,349,6019,1,0,0:0:0:0:
189,344,6100,1,8,0:0:0:0:
152,351,6181,1,0,0:0:0:0:
123,375,6262,1,0,0:0:0:0:
48,366,6424,6,0,L|46:284,1,75,2|0,0:0|0:0,0:0:0:0:
73,265,6668,1,0,0:0:0:0:
96,235,6749,1,8,0:0:0:0:
104,198,6830,1,0,0:0:0:0:
98,160,6911,1,0,0:0:0:0:
49,60,7073,6,0,L|56:97,1,37.5,2|0,0:0|0:0,0:0:0:0:
123,49,7235,1,0,0:0:0:0:
136,84,7316,1,0,0:0:0:0:
165,107,7397,1,8,0:0:0:0:
200,119,7478,1,0,0:0:0:0:
237,117,7559,1,0,0:0:0:0:
271,101,7641,1,0,0:0:0:0:
295,72,7722,6,0,L|308:23,1,37.5,2|0,0:0|0:0,0:0:0:0:
318,200,7884,2,0,L|305:249,1,37.5,2|0,0:0|0:0,0:0:0:0:
389,141,8046,1,8,0:0:0:0:
426,136,8127,1,0,0:0:0:0:
461,148,8208,1,0,0:0:0:0:
491,170,8289,1,0,0:0:0:0:
509,202,8370,6,0,L|514:281,3,75,8|8|8|8,0:0|0:0|0:0|0:0,0:0:0:0:
372,330,9019,2,0,L|376:255,1,75,8|8,0:0|0:0,0:0:0:0:
397,110,9343,2,0,L|401:184,1,75,8|8,0:0|0:0,0:0:0:0:
401,184,9992,5,0,0:0:0:0:
383,182,10073,1,0,0:0:0:0:
364,179,10154,1,0,0:0:0:0:
345,176,10235,1,0,0:0:0:0:
326,173,10316,1,0,0:0:0:0:
307,170,10397,1,0,0:0:0:0:
288,167,10478,1,0,0:0:0:0:
269,164,10559,1,0,0:0:0:0:
250,161,10641,6,0,L|244:75,1,75,2|0,0:0|0:0,0:0:0:0:
173,174,10965,5,4,0:0:0:0:
298,221,11127,2,0,L|366:215,2,37.5,0|0|8,0:0|0:0|0:0,0:0:0:0:
143,248,11451,2,0,L|75:241,2,37.5,0|0|8,0:0|0:0|0:0,0:0:0:0:
280,304,11776,1,0,0:0:0:0:
280,304,11857,1,0,0:0:0:0:
280,304,11938,2,0,L|189:313,1,75,8|0,0:0|0:0,0:0:0:0:
349,351,12262,5,8,0:0:0:0:
377,203,12424,2,0,L|368:162,2,37.5,0|0|8,0:0|0:0|0:0,0:0:0:0:
432,324,12749,2,0,L|423:360,2,37.5,0|0|8,0:0|0:0|0:0,0:0:0:0:
467,162,13073,1,0,0:0:0:0:
283,215,13235,1,8,0:0:0:0:
288,177,13316,1,0,0:0:0:0:
293,139,13397,1,0,0:0:0:0:
299,102,13478,1,0,0:0:0:0:
305,65,13559,6,0,B|277:57|277:57|211:66,1,75,8|0,0:0|0:0,0:0:0:0:
157,78,13803,1,0,0:0:0:0:
157,78,13884,2,0,L|55:71,1,75,8|0,0:0|0:0,0:0:0:0:
153,214,14208,1,8,0:0:0:0:
302,195,14370,1,0,0:0:0:0:
302,195,14451,1,0,0:0:0:0:
302,195,14532,2,0,L|385:203,1,75,8|0,0:0|0:0,0:0:0:0:
199,148,14857,5,8,0:0:0:0:
293,278,15019,1,0,0:0:0:0:
293,278,15100,1,0,0:0:0:0:
293,278,15181,2,0,L|285:353,1,75,8|0,0:0|0:0,0:0:0:0:
362,123,15505,1,8,0:0:0:0:
362,123,15586,1,0,0:0:0:0:
362,123,15668,2,0,L|356:71,1,37.5
428,161,15830,2,0,L|424:199,1,37.5,8|0,0:0|0:0,0:0:0:0:
415,272,15992,1,0,0:0:0:0:
277,158,16154,6,2,L|199:165,1,75,2|0,0:0|0:0,0:0:0:0:
114,141,16478,5,8,0:0:0:0:
201,287,16641,2,0,L|195:330,2,37.5,0|0|8,0:0|0:0|0:0,0:0:0:0:
229,89,16965,2,0,L|223:46,2,37.5,0|0|8,0:0|0:0|0:0,0:0:0:0:
323,231,17289,1,0,0:0:0:0:
323,231,17370,1,0,0:0:0:0:
323,231,17451,6,0,B|372:236|372:236|397:248,1,75,8|0,0:0|0:0,0:0:0:0:
392,284,17695,1,0,0:0:0:0:
386,321,17776,1,8,0:0:0:0:
501,193,17938,1,0,0:0:0:0:
501,193,18019,1,0,0:0:0:0:
501,193,18100,2,0,L|491:119,1,75,8|0,0:0|0:0,0:0:0:0:
420,37,18343,1,0,0:0:0:0:
420,37,18424,2,0,L|428:75,1,37.5,8|0,0:0|0:0,0:0:0:0:
378,164,18586,2,0,L|370:126,1,37.5
300,80,18749,6,0,B|263:90|263:90|217:85,1,75,8|0,0:0|0:0,0:0:0:0:
166,41,18992,1,0,0:0:0:0:
166,41,19073,2,0,L|110:48,1,37.5,8|0,0:0|0:0,0:0:0:0:
182,151,19235,2,0,L|122:140,1,37.5
76,113,19397,6,0,B|89:147|89:147|83:196,1,75,8|0,0:0|0:0,0:0:0:0:
52,254,19641,1,0,0:0:0:0:
52,254,19722,2,0,L|64:305,1,37.5,8|0,0:0|0:0,0:0:0:0:
152,227,19884,2,0,L|140:278,1,37.5
119,334,20046,5,8,0:0:0:0:
244,239,20208,1,0,0:0:0:0:
392,288,20370,1,8,0:0:0:0:
208,321,20532,1,0,0:0:0:0:
327,224,20695,1,8,0:0:0:0:
327,224,20776,1,0,0:0:0:0:
327,224,20857,1,0,0:0:0:0:
327,224,20938,1,0,0:0:0:0:
327,224,21019,2,0,L|314:268,2,37.5,8|0|0,0:0|0:0|0:0,0:0:0:0:
301,335,21343,5,12,0:0:0:0:
418,193,21505,1,8,0:0:0:0:
418,193,21668,2,0,P|342:187|299:142,1,112.5,4|0,0:0|0:0,0:0:0:0:
291,132,21992,5,8,0:0:0:0:
459,112,22154,1,8,0:0:0:0:
459,112,22316,2,0,P|451:184|496:240,1,112.5,4|0,0:0|0:0,0:0:0:0:
479,322,22641,6,0,L|489:248,1,75,8|8,0:0|0:0,0:0:0:0:
358,365,22965,1,12,0:0:0:0:
358,365,23046,2,0,L|311:369,1,37.5,8|0,0:0|0:0,0:0:0:0:
373,288,23289,2,0,B|297:293|297:293|230:255,1,150,8|4,0:0|0:0,0:0:0:0:
168,217,23776,1,0,0:0:0:0:
168,217,23938,5,8,0:0:0:0:
141,364,24100,1,8,0:0:0:0:
8,293,24262,2,0,L|120:285,1,112.5,4|0,0:0|0:0,0:0:0:0:
160,291,24586,5,8,0:0:0:0:
188,138,24749,1,8,0:0:0:0:
323,230,24911,2,0,L|211:222,1,112.5,4|0,0:0|0:0,0:0:0:0:
168,217,25235,6,0,L|126:213,1,37.5,8|0,0:0|0:0,0:0:0:0:
188,138,25397,2,0,L|146:134,1,37.5,8|0,0:0|0:0,0:0:0:0:
335,71,25559,2,0,L|293:67,1,37.5,4|0,0:0|0:0,0:0:0:0:
315,150,25722,2,0,L|273:146,1,37.5,8|0,0:0|0:0,0:0:0:0:
420,95,25884,6,0,B|427:60|427:60|418:20,2,75.000002861023,8|0|0,0:0|0:0|0:0,0:0:0:0:
397,174,26208,2,0,B|390:209|390:209|399:249,2,75.000002861023,8|0|0,0:0|0:0|0:0,0:0:0:0:
486,267,26532,5,2,0:0:0:0:
486,267,26695,1,0,0:0:0:0:
384,331,26857,1,2,0:0:0:0:
384,331,27020,1,0,0:0:0:0:
269,224,27181,1,2,0:0:0:0:
269,224,27344,1,0,0:0:0:0:
167,288,27506,1,2,0:0:0:0:
167,288,27669,1,0,0:0:0:0:
55,185,27830,6,0,L|66:105,1,75,2|0,0:0|0:0,0:0:0:0:
161,38,28154,2,0,L|150:112,1,75,2|0,0:0|0:0,0:0:0:0:
218,257,28478,2,0,L|228:182,1,75,2|0,0:0|0:0,0:0:0:0:
357,38,28803,2,0,L|346:112,1,75,2|0,0:0|0:0,0:0:0:0:
326,276,29127,6,0,L|439:286,1,112.500004291535,2|0,0:0|0:0,0:0:0:0:
229,191,29451,2,0,L|341:181,1,112.500004291535,2|0,0:0|0:0,0:0:0:0:
221,281,29776,1,2,0:0:0:0:
221,281,29938,1,0,0:0:0:0:
127,127,30100,1,2,0:0:0:0:
127,127,30262,1,0,0:0:0:0:
98,312,30424,6,0,L|85:273,3,37.5,2|0|0|0,0:0|0:0|0:0|0:0,0:0:0:0:
55,247,30749,1,8,0:0:0:0:
63,210,30830,1,0,0:0:0:0:
71,173,30911,1,0,0:0:0:0:
79,136,30992,1,0,0:0:0:0:
87,99,31073,6,0,L|72:49,3,37.5,2|0|0|0,0:0|0:0|0:0|0:0,0:0:0:0:
62,28,31397,1,8,0:0:0:0:
99,30,31478,1,0,0:0:0:0:
136,31,31559,1,0,0:0:0:0:
173,34,31641,1,0,0:0:0:0:
210,36,31722,5,4,0:0:0:0:
256,192,31803,12,0,36586,0:0:0:0:
165,181,36911,6,0,P|176:219|172:264,1,75,2|2,0:0|0:0,0:0:0:0:
144,322,37397,1,0,0:0:0:0:
144,322,37559,2,0,L|106:326,1,37.5,2|0,0:0|0:0,0:0:0:0:
255,352,37884,2,0,L|217:348,1,37.5,2|0,0:0|0:0,0:0:0:0:
300,283,38208,6,0,L|286:248,1,37.5,2|0,0:0|0:0,0:0:0:0:
380,309,38532,1,2,0:0:0:0:
408,283,38695,1,2,0:0:0:0:
435,257,38857,2,0,B|461:230|461:230|468:190,1,75,2|2,0:0|0:0,0:0:0:0:
372,102,39505,6,0,L|384:184,1,75,2|2,0:0|0:0,0:0:0:0:
457,116,39992,1,0,0:0:0:0:
456,117,40154,2,0,L|493:113,1,37.5,2|0,0:0|0:0,0:0:0:0:
299,162,40478,2,0,L|262:158,1,37.5,2|0,0:0|0:0,0:0:0:0:
173,72,40803,6,0,L|213:69,1,37.5,2|0,0:0|0:0,0:0:0:0:
123,142,41127,1,2,0:0:0:0:
85,137,41289,1,2,0:0:0:0:
47,132,41451,2,0,L|37:51,1,75,2|2,0:0|0:0,0:0:0:0:
110,232,42100,5,6,0:0:0:0:
147,230,42181,1,0,0:0:0:0:
182,241,42262,1,0,0:0:0:0:
209,266,42343,1,0,0:0:0:0:
221,300,42424,2,0,P|231:315|248:332,3,37.5,8|0|0|0,0:0|0:0|0:0|0:0,0:0:0:0:
278,347,42749,5,2,0:0:0:0:
314,353,42830,1,0,0:0:0:0:
350,346,42911,1,0,0:0:0:0:
381,326,42992,1,0,0:0:0:0:
402,295,43073,2,0,L|410:256,1,37.5,8|0,0:0|0:0,0:0:0:0:
367,150,43235,2,0,L|375:189,1,37.5
455,160,43397,6,0,L|492:164,3,37.5,2|0|0|0,0:0|0:0|0:0|0:0,0:0:0:0:
378,63,43722,2,0,L|415:59,3,37.5,8|0|0|0,0:0|0:0|0:0|0:0,0:0:0:0:
234,139,44046,6,0,L|279:143,3,37.5,2|0|0|0,0:0|0:0|0:0|0:0,0:0:0:0:
154,47,44370,2,0,L|199:43,3,37.5,8|0|0|0,0:0|0:0|0:0|0:0,0:0:0:0:
62,114,44695,5,2,0:0:0:0:
99,110,44776,1,0,0:0:0:0:
132,127,44857,1,0,0:0:0:0:
154,157,44938,1,0,0:0:0:0:
158,194,45019,2,0,P|153:221|148:235,1,37.5,8|0,0:0|0:0,0:0:0:0:
72,291,45181,2,0,P|68:272|68:254,1,37.5
108,356,45343,5,2,0:0:0:0:
140,337,45424,1,0,0:0:0:0:
177,333,45505,1,0,0:0:0:0:
213,340,45586,1,0,0:0:0:0:
245,359,45668,2,0,P|263:364|282:366,3,37.5,8|0|0|0,0:0|0:0|0:0|0:0,0:0:0:0:
318,360,45992,5,2,0:0:0:0:
352,344,46073,1,0,0:0:0:0:
388,337,46154,2,0,P|414:336|433:342,1,37.5
451,268,46316,1,8,0:0:0:0:
420,246,46397,1,0,0:0:0:0:
396,218,46478,2,0,P|382:195|377:176,1,37.5
385,109,46641,6,0,L|391:64,3,37.5,2|0|0|0,0:0|0:0|0:0|0:0,0:0:0:0:
279,54,46965,2,0,L|285:99,3,37.5,8|0|0|0,0:0|0:0|0:0|0:0,0:0:0:0:
304,126,47289,5,2,0:0:0:0:
266,128,47370,1,0,0:0:0:0:
232,145,47451,1,0,0:0:0:0:
208,173,47532,1,0,0:0:0:0:
200,210,47614,2,0,P|196:229|199:260,1,37.5,8|0,0:0|0:0,0:0:0:0:
88,171,47776,2,0,P|84:152|87:121,1,37.5
52,253,47938,5,2,0:0:0:0:
88,242,48019,1,0,0:0:0:0:
125,247,48100,1,0,0:0:0:0:
157,266,48181,1,0,0:0:0:0:
177,297,48262,2,0,P|185:320|183:341,1,37.5,8|0,0:0|0:0,0:0:0:0:
312,245,48424,2,0,P|320:222|318:201,1,37.5,0|0,0:0|0:0,0:0:0:0:
276,322,48586,6,0,L|279:364,3,37.5,2|0|0|0,0:0|0:0|0:0|0:0,0:0:0:0:
415,266,48911,2,0,L|412:308,3,37.5,8|0|0|0,0:0|0:0|0:0|0:0,0:0:0:0:
281,191,49235,6,0,L|284:233,3,37.5,2|0|0|0,0:0|0:0|0:0|0:0,0:0:0:0:
433,126,49559,2,0,L|430:168,3,37.5,8|0|0|0,0:0|0:0|0:0|0:0,0:0:0:0:
364,78,49884,5,2,0:0:0:0:
331,96,49965,1,0,0:0:0:0:
293,102,50046,1,0,0:0:0:0:
255,98,50127,1,0,0:0:0:0:
219,84,50208,2,0,P|196:66|182:48,3,37.5,8|0|0|0,0:0|0:0|0:0|0:0,0:0:0:0:
171,28,50532,5,2,0:0:0:0:
139,6,50614,1,0,0:0:0:0:
101,3,50695,1,0,0:0:0:0:
69,23,50776,1,0,0:0:0:0:
53,57,50857,2,0,L|55:104,1,37.5,8|0,0:0|0:0,0:0:0:0:
106,148,51019,2,0,L|104:195,1,37.5
46,244,51181,6,0,L|55:326,1,75,2|0,0:0|0:0,0:0:0:0:
268,171,51505,1,2,0:0:0:0:
268,171,51586,1,0,0:0:0:0:
268,171,51668,2,0,L|260:231,1,37.5,8|8,0:0|0:0,0:0:0:0:
220,84,51830,1,8,0:0:0:0:
195,271,51992,1,0,0:0:0:0:
195,271,52154,6,0,B|151:274|121:263|121:263|156:279,1,112.500004291535,4|0,0:0|0:0,0:0:0:0:
296,293,52478,6,0,L|376:290,1,75,14|0,0:0|0:0,0:0:0:0:
407,299,52722,1,0,0:0:0:0:
443,309,52803,1,8,0:0:0:0:
370,198,52965,1,0,0:0:0:0:
370,198,53046,1,0,0:0:0:0:
370,198,53127,1,10,0:0:0:0:
475,85,53289,1,2,0:0:0:0:
446,217,53451,1,10,0:0:0:0:
395,68,53613,1,2,0:0:0:0:
421,141,53776,5,10,0:0:0:0:
315,53,53938,2,0,L|308:11,2,37.5,0|0|10,0:0|0:0|0:0,0:0:0:0:
291,187,54262,2,0,L|284:229,2,37.5,0|0|10,0:0|0:0|0:0,0:0:0:0:
159,57,54586,1,0,0:0:0:0:
195,46,54667,1,0,0:0:0:0:
232,36,54749,1,10,0:0:0:0:
81,35,54911,1,0,0:0:0:0:
202,127,55073,6,0,B|204:168|204:168|189:212,1,75,10|0,0:0|0:0,0:0:0:0:
71,186,55316,1,0,0:0:0:0:
71,186,55397,2,0,L|112:182,1,37.5,8|0,0:0|0:0,0:0:0:0:
240,279,55559,2,0,L|202:275,1,37.5
127,262,55722,5,10,0:0:0:0:
320,222,55884,1,2,0:0:0:0:
297,351,56046,1,10,0:0:0:0:
207,173,56208,1,2,0:0:0:0:
399,127,56370,6,0,B|399:207|399:207|423:253,1,123.75000377655,2|0,0:0|0:0,0:0:0:0:
419,245,56695,2,0,L|411:331,1,82.5000025177003,2|0,0:0|0:0,0:0:0:0:
174,87,57019,2,0,B|259:84|259:84|299:72,1,123.75000377655,2|0,0:0|0:0,0:0:0:0:
296,72,57343,2,0,L|291:156,1,82.5000025177003,2|0,0:0|0:0,0:0:0:0:
103,155,57668,5,10,0:0:0:0:
265,245,57830,2,0,L|308:241,2,37.5,0|0|8,0:0|0:0|0:0,0:0:0:0:
91,260,58154,1,0,0:0:0:0:
126,238,58235,1,0,0:0:0:0:
161,217,58316,1,10,0:0:0:0:
70,375,58478,1,2,0:0:0:0:
206,289,58641,1,10,0:0:0:0:
23,302,58803,1,2,0:0:0:0:
173,368,58965,5,10,0:0:0:0:
248,208,59127,2,0,L|243:171,2,37.5,0|0|10,0:0|0:0|0:0,0:0:0:0:
332,322,59451,2,0,L|327:359,2,37.5,0|0|10,0:0|0:0|0:0,0:0:0:0:
407,161,59776,2,0,L|402:124,2,37.5,0|0|10,0:0|0:0|0:0,0:0:0:0:
373,243,60100,1,0,0:0:0:0:
441,40,60262,6,0,B|410:60|410:60|360:68,1,75,10|0,0:0|0:0,0:0:0:0:
298,55,60505,1,0,0:0:0:0:
298,55,60586,2,0,L|306:107,1,37.5,8|0,0:0|0:0,0:0:0:0:
229,261,60749,2,0,L|234:223,1,37.5
247,150,60911,5,10,0:0:0:0:
120,162,61073,1,2,0:0:0:0:
75,280,61235,1,10,0:0:0:0:
80,90,61397,1,2,0:0:0:0:
156,231,61559,6,0,B|161:274|161:274|156:321,1,82.5000025177003,10|0,0:0|0:0,0:0:0:0:
77,362,61884,2,0,B|72:319|72:319|77:272,1,82.5000025177003,10|0,0:0|0:0,0:0:0:0:
231,263,62208,2,0,L|254:260,6,20.6250006294251,10|0|0|0|0|0|0,0:0|0:0|0:0|0:0|0:0|0:0|0:0,0:0:0:0:
79,195,62532,2,0,L|53:193,6,20.6250006294251,10|0|0|0|0|0|0,0:0|0:0|0:0|0:0|0:0|0:0|0:0,0:0:0:0:
227,180,62857,6,0,L|220:96,1,75,10|0,0:0|0:0,0:0:0:0:
218,67,63100,1,0,0:0:0:0:
215,29,63181,1,8,0:0:0:0:
305,133,63343,1,0,0:0:0:0:
333,108,63424,1,0,0:0:0:0:
362,85,63505,5,10,0:0:0:0:
310,213,63668,1,2,0:0:0:0:
295,42,63830,1,10,0:0:0:0:
450,114,63992,1,2,0:0:0:0:
310,213,64154,5,10,0:0:0:0:
450,233,64316,2,0,L|492:226,2,37.5,0|0|10,0:0|0:0|0:0,0:0:0:0:
301,303,64641,2,0,L|259:296,2,37.5,0|0|10,0:0|0:0|0:0,0:0:0:0:
442,327,64965,1,0,0:0:0:0:
408,343,65046,1,0,0:0:0:0:
374,360,65127,2,0,L|383:275,1,75,10|0,0:0|0:0,0:0:0:0:
311,68,65451,6,2,L|320:145,1,56.2500021457673,0|2,0:0|0:0,0:0:0:0:
380,13,65776,5,10,0:0:0:0:
240,125,65938,1,10,0:0:0:0:
397,104,66100,1,10,0:0:0:0:
226,35,66262,1,10,0:0:0:0:
397,104,66424,6,0,B|372:137|372:137|361:220,1,123.75000377655,2|0,0:0|0:0,0:0:0:0:
365,295,66749,6,0,B|321:290|321:290|283:296,1,82.5000025177003,10|0,0:0|0:0,0:0:0:0:
284,373,66992,2,0,B|326:378|326:378|365:372,1,82.5000025177003,10|0,0:0|0:0,0:0:0:0:
438,333,67235,1,10,0:0:0:0:
214,331,67397,2,0,L|168:342,2,41.2500012588501,10|0|0,0:0|0:0|0:0,0:0:0:0:
442,241,67722,1,10,0:0:0:0:
401,248,67803,1,2,0:0:0:0:
360,241,67884,1,2,0:0:0:0:
324,219,67965,1,2,0:0:0:0:
303,183,68046,6,0,L|296:107,1,56.2500021457673,14|0,0:0|0:0,0:0:0:0:
332,60,68289,5,0,0:0:0:0:
332,60,68370,2,0,L|428:36,1,75,2|2,0:0|0:0,0:0:0:0:
264,21,68695,6,0,L|197:37,1,56.2500021457673,14|0,0:0|0:0,0:0:0:0:
136,18,68938,5,0,0:0:0:0:
136,18,69019,2,0,L|143:107,1,75,2|2,0:0|0:0,0:0:0:0:
107,165,69343,5,14,0:0:0:0:
294,138,69505,2,0,L|342:146,2,37.5,0|0|2,0:0|0:0|0:0,0:0:0:0:
256,139,69749,1,2,0:0:0:0:
221,153,69830,1,2,0:0:0:0:
195,180,69911,1,2,0:0:0:0:
182,215,69992,6,0,B|176:244|176:244|179:281,1,56.2500021457673,14|0,0:0|0:0,0:0:0:0:
59,226,70316,1,2,0:0:0:0:
76,192,70397,1,2,0:0:0:0:
81,154,70478,1,2,0:0:0:0:
69,118,70559,1,2,0:0:0:0:
45,88,70641,6,0,L|15:69,16,28.1250010728836,14|0|0|0|0|0|0|0|10|0|0|0|2|0|0|0|10,0:0|0:0|0:0|0:0|0:0|0:0|0:0|0:0|0:0|0:0|0:0|0:0|0:0|0:0|0:0|0:0|0:0,0:0:0:0:
131,36,71451,1,10,0:0:0:0:
186,111,71614,1,0,0:0:0:0:
215,87,71695,1,0,0:0:0:0:
250,74,71776,1,0,0:0:0:0:
287,73,71857,1,0,0:0:0:0:
322,85,71938,6,0,P|341:86|361:84,3,37.5,10|0|0|0,0:0|0:0|0:0|0:0,0:0:0:0:
394,71,72262,2,0,P|412:69|431:70,3,37.5,10|0|0|0,0:0|0:0|0:0|0:0,0:0:0:0:
467,81,72586,5,10,0:0:0:0:
497,104,72668,1,0,0:0:0:0:
508,139,72749,1,2,0:0:0:0:
497,174,72830,1,0,0:0:0:0:
470,200,72911,1,10,0:0:0:0:
433,209,72992,1,0,0:0:0:0:
405,234,73073,1,2,0:0:0:0:
390,266,73154,1,0,0:0:0:0:
390,305,73235,6,0,B|408:323|408:323|457:328,1,75,6|2,0:0|0:0,0:0:0:0:
310,269,73722,1,2,0:0:0:0:
310,269,73884,2,0,L|306:317,1,37.5,2|2,0:0|0:0,0:0:0:0:
234,198,74208,2,0,L|238:246,1,37.5,2|2,0:0|0:0,0:0:0:0:
319,163,74532,6,0,L|325:85,1,75,2|2,0:0|0:0,0:0:0:0:
404,54,75019,1,2,0:0:0:0:
404,54,75181,2,0,L|449:58,1,37.5,2|2,0:0|0:0,0:0:0:0:
287,91,75505,2,0,L|332:87,1,37.5,2|2,0:0|0:0,0:0:0:0:
230,33,75830,6,0,B|191:30|191:30|152:37,1,75,2|2,0:0|0:0,0:0:0:0:
86,69,76316,1,2,0:0:0:0:
86,69,76478,2,0,L|78:27,1,37.5,2|2,0:0|0:0,0:0:0:0:
148,148,76803,2,0,L|156:106,1,37.5,2|2,0:0|0:0,0:0:0:0:
67,169,77127,6,0,B|79:206|79:206|75:250,1,75,2|2,0:0|0:0,0:0:0:0:
59,315,77614,1,2,0:0:0:0:
59,315,77776,2,0,L|69:357,1,37.5,2|2,0:0|0:0,0:0:0:0:
160,233,78100,2,0,L|150:275,1,37.5,2|2,0:0|0:0,0:0:0:0:
237,212,78424,6,0,P|271:203|314:209,1,75,2|2,0:0|0:0,0:0:0:0:
345,221,78911,1,2,0:0:0:0:
374,243,79073,1,2,0:0:0:0:
409,254,79235,1,2,0:0:0:0:
446,250,79397,1,2,0:0:0:0:
477,230,79559,1,2,0:0:0:0:
499,199,79722,5,2,0:0:0:0:
259,82,80046,1,2,0:0:0:0:
277,116,80208,1,2,0:0:0:0:
278,153,80370,1,2,0:0:0:0:
264,188,80532,1,2,0:0:0:0:
237,214,80695,1,2,0:0:0:0:
203,227,80857,1,2,0:0:0:0:
165,226,81019,6,0,L|109:209,1,37.5,2|0,0:0|0:0,0:0:0:0:
283,278,81343,2,0,L|340:269,1,37.5,2|0,0:0|0:0,0:0:0:0:
137,308,81668,6,0,L|71:286,1,56.2500021457673,2|0,0:0|0:0,0:0:0:0:
285,364,81992,2,0,L|353:351,1,56.2500021457673,2|0,0:0|0:0,0:0:0:0:
211,358,82316,5,2,0:0:0:0:
215,320,82397,1,0,0:0:0:0:
219,282,82478,1,0,0:0:0:0:
223,244,82559,1,0,0:0:0:0:
227,206,82641,2,0,L|216:159,3,37.5,2|0|0|0,0:0|0:0|0:0|0:0,0:0:0:0:
199,137,82965,5,2,0:0:0:0:
234,147,83046,1,0,0:0:0:0:
271,147,83127,1,0,0:0:0:0:
306,134,83208,1,0,0:0:0:0:
334,109,83289,1,2,0:0:0:0:
352,76,83370,1,0,0:0:0:0:
361,39,83451,1,0,0:0:0:0:
498,166,83614,5,8,0:0:0:0:
331,211,83776,1,8,0:0:0:0:
331,211,83938,2,0,P|405:204|453:253,1,112.5,4|0,0:0|0:0,0:0:0:0:
457,252,84262,5,8,0:0:0:0:
290,297,84424,1,8,0:0:0:0:
290,297,84586,2,0,L|208:287,1,75,4|0,0:0|0:0,0:0:0:0:
375,287,84911,5,8,0:0:0:0:
281,135,85235,1,8,0:0:0:0:
407,163,85559,1,10,0:0:0:0:
257,255,85884,1,10,0:0:0:0:
156,109,86208,5,8,0:0:0:0:
19,206,86370,1,8,0:0:0:0:
19,206,86532,2,0,P|93:222|132:279,1,112.5,4|0,0:0|0:0,0:0:0:0:
134,280,86857,5,8,0:0:0:0:
14,98,87019,1,8,0:0:0:0:
14,98,87181,2,0,P|85:106|144:67,1,112.5,4|0,0:0|0:0,0:0:0:0:
154,73,87505,6,0,L|245:79,1,75,8|8,0:0|0:0,0:0:0:0:
208,163,87830,2,0,L|299:157,1,75,8|8,0:0|0:0,0:0:0:0:
347,100,88154,6,0,B|350:63|350:63|337:25,2,75.000002861023,8|8|8,0:0|0:0|0:0,0:0:0:0:
283,159,88478,2,0,B|280:196|280:196|293:234,2,75.000002861023,8|8|8,0:0|0:0|0:0,0:0:0:0:
347,101,88803,5,8,0:0:0:0:
387,92,88884,1,0,0:0:0:0:
427,97,88965,1,10,0:0:0:0:
462,117,89046,1,0,0:0:0:0:
486,150,89127,2,0,P|494:175|494:198,3,37.5,4|0|10|0,0:0|0:0|0:0|0:0,0:0:0:0:
494,227,89451,5,8,0:0:0:0:
478,265,89532,1,0,0:0:0:0:
448,294,89614,1,10,0:0:0:0:
409,307,89695,1,0,0:0:0:0:
367,306,89776,2,0,P|345:301|318:288,3,37.5,4|0|10|0,0:0|0:0|0:0|0:0,0:0:0:0:
300,268,90100,5,8,0:0:0:0:
263,258,90181,1,0,0:0:0:0:
226,264,90262,1,10,0:0:0:0:
194,284,90343,1,0,0:0:0:0:
171,313,90424,2,0,P|162:337|158:357,1,37.5,4|0,0:0|0:0,0:0:0:0:
69,371,90586,2,0,P|68:352|63:334,1,37.5,10|0,0:0|0:0,0:0:0:0:
25,252,90749,5,8,0:0:0:0:
30,214,90830,1,0,0:0:0:0:
35,176,90911,1,10,0:0:0:0:
40,138,90992,1,0,0:0:0:0:
45,100,91073,1,4,0:0:0:0:
131,48,91235,1,10,0:0:0:0:
125,143,91397,5,8,0:0:0:0:
160,130,91478,1,0,0:0:0:0:
197,128,91559,1,10,0:0:0:0:
232,140,91641,1,0,0:0:0:0:
258,166,91722,2,0,P|272:183|277:204,3,37.5,4|0|10|0,0:0|0:0|0:0|0:0,0:0:0:0:
277,235,92046,5,8,0:0:0:0:
297,266,92127,1,0,0:0:0:0:
329,283,92208,1,10,0:0:0:0:
366,282,92289,1,0,0:0:0:0:
396,260,92370,2,0,L|403:221,1,37.5,4|0,0:0|0:0,0:0:0:0:
357,121,92532,2,0,L|364:158,1,37.5,10|0,0:0|0:0,0:0:0:0:
387,51,92695,5,8,0:0:0:0:
452,165,92857,1,8,0:0:0:0:
278,114,93019,1,8,0:0:0:0:
475,88,93181,1,8,0:0:0:0:
328,180,93343,5,8,0:0:0:0:
293,164,93424,1,8,0:0:0:0:
255,159,93505,1,8,0:0:0:0:
218,166,93586,1,8,0:0:0:0:
184,184,93668,1,8,0:0:0:0:
157,210,93749,1,8,0:0:0:0:
138,242,93830,1,8,0:0:0:0:
127,277,93911,1,8,0:0:0:0:
124,310,93992,6,0,L|134:371,1,56.2500021457673,2|0,0:0|0:0,0:0:0:0:
280,364,94316,5,10,0:0:0:0:
280,364,94397,1,0,0:0:0:0:
280,364,94478,2,0,L|263:306,1,37.5
291,251,94641,2,0,P|250:250|214:268,1,75,10|0,0:0|0:0,0:0:0:0:
360,291,94884,2,0,P|394:305|431:303,1,75,10|0,0:0|0:0,0:0:0:0:
374,175,95127,2,0,L|360:210,1,37.5,10|0,0:0|0:0,0:0:0:0:
446,153,95289,6,0,L|477:79,1,75,10|0,0:0|0:0,0:0:0:0:
469,46,95532,1,10,0:0:0:0:
460,9,95614,1,0,0:0:0:0:
356,131,95776,1,10,0:0:0:0:
195,82,95938,6,0,B|233:87|233:87|270:82,1,75,10|0,0:0|0:0,0:0:0:0:
308,69,96181,1,10,0:0:0:0:
141,16,96343,1,0,0:0:0:0:
141,16,96424,1,10,0:0:0:0:
166,161,96586,5,10,0:0:0:0:
207,164,96668,1,0,0:0:0:0:
238,190,96749,1,0,0:0:0:0:
247,229,96830,1,0,0:0:0:0:
238,269,96911,2,0,P|228:289|210:305,3,37.5,10|0|0|0,0:0|0:0|0:0|0:0,0:0:0:0:
184,324,97235,5,10,0:0:0:0:
143,333,97316,1,0,0:0:0:0:
102,325,97397,1,0,0:0:0:0:
69,299,97478,1,0,0:0:0:0:
49,262,97559,1,10,0:0:0:0:
46,220,97641,1,0,0:0:0:0:
56,180,97722,1,0,0:0:0:0:
55,138,97803,1,0,0:0:0:0:
35,101,97884,6,0,B|29:64|29:64|32:24,2,75,10|10|10,0:0|0:0|0:0,0:0:0:0:
129,182,98208,2,0,B|135:219|135:219|132:256,2,75,10|10|10,0:0|0:0|0:0,0:0:0:0:
109,64,98532,2,0,B|145:69|145:69|186:64,1,75.000002861023,10|10,0:0|0:0,0:0:0:0:
264,45,98749,1,10,0:0:0:0:
264,45,98857,2,0,L|350:51,1,75.000002861023,10|10,0:0|0:0,0:0:0:0:
418,28,99073,1,10,0:0:0:0:
418,28,99181,6,0,B|421:71|421:71|400:119,1,84.3750032186509
380,137,99505,6,0,L|387:184,1,37.5,10|0,0:0|0:0,0:0:0:0:
459,188,99668,2,0,L|452:235,1,37.5,2|0,0:0|0:0,0:0:0:0:
382,250,99830,2,0,L|394:333,1,75,10|0,0:0|0:0,0:0:0:0:
229,285,100154,2,0,L|222:238,1,37.5,10|0,0:0|0:0,0:0:0:0:
150,234,100317,2,0,L|157:187,1,37.5,2|0,0:0|0:0,0:0:0:0:
227,172,100478,5,10,0:0:0:0:
227,172,100559,2,0,L|218:122,1,37.5
134,121,100722,1,2,0:0:0:0:
134,121,100803,2,0,L|143:71,1,37.5,8|0,0:0|0:0,0:0:0:0:
213,46,100965,2,0,L|204:7,1,37.5,2|2,0:0|0:0,0:0:0:0:
213,46,101127,5,10,0:0:0:0:
248,57,101208,1,0,0:0:0:0:
285,57,101289,1,0,0:0:0:0:
320,46,101370,1,0,0:0:0:0:
350,24,101451,2,0,P|366:17|389:17,3,37.5,10|0|0|0,0:0|0:0|0:0|0:0,0:0:0:0:
422,26,101776,6,0,B|423:99|423:99|448:141,1,112.5,10|10,0:0|0:0,0:0:0:0:
443,132,102100,6,0,L|439:220,1,75,0|10,0:0|0:0,0:0:0:0:
492,264,102424,6,0,B|434:248|434:248|379:255,1,112.5,10|10,0:0|0:0,0:0:0:0:
382,254,102749,6,0,L|389:339,1,75,0|10,0:0|0:0,0:0:0:0:
324,200,103073,5,10,0:0:0:0:
287,209,103154,1,0,0:0:0:0:
250,202,103235,1,0,0:0:0:0:
218,181,103316,1,0,0:0:0:0:
197,149,103397,2,0,P|192:127|194:97,3,37.5,10|0|0|0,0:0|0:0|0:0|0:0,0:0:0:0:
196,74,103722,6,0,B|159:85|159:85|79:82,1,112.5,10|10,0:0|0:0,0:0:0:0:
85,82,104046,1,0,0:0:0:0:
92,118,104127,1,0,0:0:0:0:
84,154,104208,1,10,0:0:0:0:
58,181,104289,1,8,0:0:0:0:
22,194,104370,5,10,0:0:0:0:
63,295,104532,2,0,L|57:337,2,37.5,0|0|10,0:0|0:0|0:0,0:0:0:0:
124,141,104857,1,2,0:0:0:0:
124,141,104938,1,2,0:0:0:0:
124,141,105019,2,0,B|122:177|122:177|134:214,1,75,10|2,0:0|0:0,0:0:0:0:
186,308,105343,2,0,L|177:382,1,75,10|2,0:0|0:0,0:0:0:0:
258,228,105668,5,10,0:0:0:0:
382,306,105830,1,0,0:0:0:0:
346,314,105911,1,0,0:0:0:0:
310,322,105992,1,10,0:0:0:0:
454,149,106154,1,2,0:0:0:0:
453,186,106235,1,2,0:0:0:0:
450,223,106316,2,0,B|448:262|448:262|460:302,1,75,10|2,0:0|0:0,0:0:0:0:
367,157,106641,2,0,B|369:118|369:118|357:78,1,75,10|2,0:0|0:0,0:0:0:0:
415,35,106965,5,10,0:0:0:0:
384,56,107046,1,0,0:0:0:0:
347,63,107127,1,0,0:0:0:0:
309,58,107208,1,0,0:0:0:0:
276,40,107289,2,0,P|252:35|233:33,3,37.5,10|0|0|0,0:0|0:0|0:0|0:0,0:0:0:0:
202,44,107614,6,0,P|182:40|168:35,6,18.75,10|0|0|0|0|0|0,0:0|0:0|0:0|0:0|0:0|0:0|0:0,0:0:0:0:
280,136,107938,2,0,P|300:132|314:127,6,18.75,10|0|0|0|0|0|0,0:0|0:0|0:0|0:0|0:0|0:0|0:0,0:0:0:0:
199,138,108262,5,10,0:0:0:0:
307,241,108424,1,0,0:0:0:0:
449,198,108586,1,10,0:0:0:0:
322,167,108749,1,0,0:0:0:0:
431,269,108911,6,0,B|440:307|440:307|435:347,1,75,2|0,0:0|0:0,0:0:0:0:
321,167,109235,2,0,B|312:129|312:129|317:89,1,75,2|0,0:0|0:0,0:0:0:0:
336,21,109559,5,10,0:0:0:0:
460,120,109722,1,10,0:0:0:0:
307,241,109884,1,10,0:0:0:0:
352,97,110046,1,10,0:0:0:0:
431,269,110208,1,10,0:0:0:0:
307,241,110370,6,0,L|279:242,4,18.75,10|0|0|0|10,0:0|0:0|0:0|0:0|0:0,0:0:0:0:
449,199,110695,6,0,L|477:200,4,18.75,10|0|0|0|10,0:0|0:0|0:0|0:0|0:0,0:0:0:0:
322,167,111019,1,10,0:0:0:0:
431,269,111181,1,10,0:0:0:0:
283,315,111343,1,10,0:0:0:0:
181,216,111505,1,10,0:0:0:0:
322,167,111668,6,0,L|354:169,4,18.75,10|0|0|0|10,0:0|0:0|0:0|0:0|0:0,0:0:0:0:
229,30,111992,6,0,L|227:-2,4,18.75,10|0|0|0|10,0:0|0:0|0:0|0:0|0:0,0:0:0:0:
275,109,112235,1,0,0:0:0:0:
238,117,112316,1,8,0:0:0:0:
200,114,112397,1,0,0:0:0:0:
167,95,112478,2,0,P|152:79|143:60,3,37.5,10|0|8|0,0:0|0:0|0:0|0:0,0:0:0:0:
136,30,112803,5,10,0:0:0:0:
107,5,112884,1,0,0:0:0:0:
69,5,112965,1,8,0:0:0:0:
40,29,113046,1,0,0:0:0:0:
27,64,113127,2,0,L|29:111,1,37.5,10|0,0:0|0:0,0:0:0:0:
85,150,113289,2,0,L|83:197,1,37.5,8|0,0:0|0:0,0:0:0:0:
48,253,113451,6,0,B|85:245|85:245|128:251,1,75,10|10,0:0|0:0,0:0:0:0:
195,267,113776,2,0,B|231:272|231:272|268:264,1,75,10|10,0:0|0:0,0:0:0:0:
342,235,114100,6,0,L|336:322,2,75.000002861023,10|2|2,0:0|0:0|0:0,0:0:0:0:
223,116,114424,2,0,L|229:203,2,75.000002861023,10|2|2,0:0|0:0|0:0,0:0:0:0:
400,179,115073,5,4,0:0:0:0:
256,192,115154,12,0,119938,0:0:0:0:
