osu file format v14

[General]
AudioFilename: [SDVX II ] BLACK or WHITE_ [NOFX].mp3
AudioLeadIn: 1500
PreviewTime: 52458
Countdown: 0
SampleSet: Normal
StackLeniency: 0.7
Mode: 0
LetterboxInBreaks: 0
WidescreenStoryboard: 0

[Editor]
Bookmarks: 43702
DistanceSpacing: 1
BeatDivisor: 4
GridSize: 32
TimelineZoom: 2.200006

[Metadata]
Title:BLACK or WHITE?
TitleUnicode:BLACK or WHITE?
Artist:BlackYooh vs. siromaru
ArtistUnicode:BlackYooh vs. siromaru
Creator:BluOxy
Version:EXHAUST
Source:SOUND VOLTEX II -infinite infection-
Tags:Yooh BlackY KAC2013 hardcore symphonic speed schranz sdvx konami
BeatmapID:578163
BeatmapSetID:248876

[Difficulty]
HPDrainRate:6
CircleSize:4
OverallDifficulty:7.5
ApproachRate:8
SliderMultiplier:1.4
SliderTickRate:1

[Events]
//Background and Video events
0,0,"nyaa.png",0,0
//Break Periods
//Storyboard Layer 0 (Background)
//Storyboard Layer 1 (Fail)
//Storyboard Layer 2 (Pass)
//Storyboard Layer 3 (Foreground)
//Storyboard Sound Samples

[TimingPoints]
587,324.324324324324,4,1,1,50,1,0
8370,-100,4,1,2,50,0,0
10641,-100,4,1,1,50,0,0
10965,-100,4,1,3,50,0,0
21343,-100,4,1,2,50,0,0
25884,-100,4,1,3,50,0,0
26532,-100,4,1,1,60,0,0
27830,-100,4,1,1,55,0,0
28154,-100,4,1,1,60,0,0
28478,-100,4,1,1,65,0,0
28803,-100,4,1,1,70,0,0
29127,-100,4,1,1,75,0,0
31722,-200,4,2,1,50,0,0
34316,-200,4,2,1,30,0,0
35614,-200,4,2,1,20,0,0
36262,-200,4,2,1,10,0,0
36586,-200,4,2,1,5,0,0
36911,-200,4,2,1,50,0,0
42100,-100,4,1,1,50,0,0
51181,-100,4,1,2,50,0,0
52154,-100,4,1,2,55,0,0
52478,-100,4,1,4,70,0,1
65451,-100,4,1,4,50,0,0
65776,-100,4,1,4,70,0,1
68046,-100,4,1,4,60,0,1
70641,-100,4,1,4,70,0,1
73235,-200,4,2,0,43,0,0
81019,-200,4,2,0,49,0,0
81668,-133.333333333333,4,2,0,55,0,0
82316,-100,4,2,0,60,0,0
83614,-100,4,1,2,55,0,0
88154,-100,4,1,2,70,0,0
88803,-100,4,1,2,60,0,0
93992,-100,4,1,2,50,0,0
94316,-100,4,1,4,75,0,1
97884,-100,4,1,2,70,0,0
99181,-100,4,1,4,60,0,0
99505,-100,4,1,4,75,0,1
109559,-100,4,1,4,65,0,1
110208,-100,4,1,4,70,0,1
110857,-100,4,1,4,75,0,1
111505,-100,4,1,4,80,0,1
112154,-100,4,1,4,85,0,1
113451,-100,4,1,4,90,0,1
114100,-100,4,1,2,75,0,0
115073,-100,4,2,0,70,0,0
115154,-100,4,2,0,57,0,0
116046,-100,4,2,0,44,0,0
117343,-100,4,2,0,31,0,0
118641,-100,4,2,0,18,0,0
119938,-100,4,2,0,5,0,0

[Colours]
Combo1 : 149,149,149
Combo2 : 49,49,49

[HitObjects]
446,43,587,6,0,L|439:77,6,35,2|0|0|0|8|0|0,0:0|0:0|0:0|0:0|0:0|0:0|0:0,0:0:0:0:
379,157,1235,2,0,L|372:123,6,35,2|0|0|0|8|0|0,0:0|0:0|0:0|0:0|0:0|0:0|0:0,0:0:0:0:
438,226,1884,6,0,L|428:305,1,70,2|0,0:0|0:0,0:0:0:0:
360,234,2208,2,0,L|351:303,1,70,8|0,0:0|0:0,0:0:0:0:
283,240,2532,2,0,L|273:319,1,70,2|0,0:0|0:0,0:0:0:0:
206,248,2856,2,0,L|197:313,2,35,8|0|0,0:0|0:0|0:0,0:0:0:0:
217,174,3181,6,0,L|208:109,6,35,2|0|0|0|8|0|0,0:0|0:0|0:0|0:0|0:0|0:0|0:0,0:0:0:0:
134,106,3830,2,0,L|129:140,6,35,2|0|0|0|8|0|0,0:0|0:0|0:0|0:0|0:0|0:0|0:0,0:0:0:0:
203,57,4478,6,0,B|238:61|238:61|275:57,1,70,2|0,0:0|0:0,0:0:0:0:
340,20,4803,2,0,P|375:14|411:21,1,70,8|0,0:0|0:0,0:0:0:0:
475,58,5127,2,0,B|488:92|488:92|488:139,1,70,2|0,0:0|0:0,0:0:0:0:
452,193,5451,2,0,B|451:230|451:230|458:264,1,70,8|0,0:0|0:0,0:0:0:0:
371,195,5776,6,0,L|368:232,6,35,2|0|0|0|8|0|0,0:0|0:0|0:0|0:0|0:0|0:0|0:0,0:0:0:0:
326,334,6424,2,0,L|323:297,6,35,2|0|0|0|8|0|0,0:0|0:0|0:0|0:0|0:0|0:0|0:0,0:0:0:0:
288,187,7073,6,0,L|285:224,6,35,2|0|0|0|8|0|0,0:0|0:0|0:0|0:0|0:0|0:0|0:0,0:0:0:0:
243,326,7721,2,0,L|240:289,6,35,2|0|0|0|8|0|0,0:0|0:0|0:0|0:0|0:0|0:0|0:0,0:0:0:0:
199,213,8370,6,0,L|130:206,1,70,8|8,0:0|0:0,0:0:0:0:
164,131,8695,2,0,L|95:124,1,70,8|8,0:0|0:0,0:0:0:0:
247,140,9019,2,0,L|316:147,1,70,8|8,0:0|0:0,0:0:0:0:
293,63,9343,2,0,L|362:70,1,70,8|8,0:0|0:0,0:0:0:0:
431,39,9992,6,0,L|447:8,6,35
362,70,10641,6,0,B|385:97|385:97|396:131,1,70,4|0,0:0|0:0,0:0:0:0:
384,205,10965,5,8,0:0:0:0:
460,210,11127,2,0,L|498:197,2,35,0|0|8,0:0|0:0|0:0,0:0:0:0:
314,234,11451,2,0,L|274:234,2,35,0|0|8,0:0|0:0|0:0,0:0:0:0:
446,284,11776,1,0,0:0:0:0:
446,284,11857,1,0,0:0:0:0:
446,284,11938,2,0,B|453:319|453:319|448:353,1,70,8|0,0:0|0:0,0:0:0:0:
384,205,12262,5,8,0:0:0:0:
318,123,12424,1,0,0:0:0:0:
318,123,12505,1,0,0:0:0:0:
318,123,12586,2,0,B|285:136|285:136|249:137,1,70,8|0,0:0|0:0,0:0:0:0:
174,121,12911,2,0,P|147:117|108:130,1,70,8|0,0:0|0:0,0:0:0:0:
52,220,13235,5,8,0:0:0:0:
52,220,13316,1,0,0:0:0:0:
52,220,13397,2,0,L|60:260,2,35,0|0|8,0:0|0:0|0:0,0:0:0:0:
180,207,13722,2,0,L|214:202,2,35,0|0|8,0:0|0:0|0:0,0:0:0:0:
74,102,14046,2,0,L|79:43,2,35,0|0|8,0:0|0:0|0:0,0:0:0:0:
60,251,14370,1,0,0:0:0:0:
60,251,14451,1,0,0:0:0:0:
60,251,14532,2,0,B|98:253|98:253|132:266,1,70,8|0,0:0|0:0,0:0:0:0:
196,301,14857,5,8,0:0:0:0:
294,233,15019,2,0,L|300:196,2,35,0|0|8,0:0|0:0|0:0,0:0:0:0:
412,283,15343,1,0,0:0:0:0:
314,350,15505,1,8,0:0:0:0:
314,350,15586,1,0,0:0:0:0:
314,350,15668,1,0,0:0:0:0:
314,350,15749,1,0,0:0:0:0:
314,350,15830,2,0,L|307:388,2,35,8|0|0,0:0|0:0|0:0,0:0:0:0:
399,214,16154,6,2,L|412:283,1,70,2|2,0:0|0:0,0:0:0:0:
431,144,16478,5,8,0:0:0:0:
279,124,16641,2,0,L|229:129,2,35,0|0|8,0:0|0:0|0:0,0:0:0:0:
422,66,16965,2,0,L|456:69,2,35,0|0|8,0:0|0:0|0:0,0:0:0:0:
314,52,17289,1,0,0:0:0:0:
300,206,17451,5,8,0:0:0:0:
132,103,17614,1,0,0:0:0:0:
132,103,17695,1,0,0:0:0:0:
132,103,17776,2,0,L|60:111,1,70,8|0,0:0|0:0,0:0:0:0:
185,34,18100,1,8,0:0:0:0:
153,181,18262,1,0,0:0:0:0:
278,124,18424,5,8,0:0:0:0:
278,124,18505,1,0,0:0:0:0:
278,124,18586,2,0,L|236:120,2,35,0|0|8,0:0|0:0|0:0,0:0:0:0:
373,66,18911,1,0,0:0:0:0:
373,66,18992,1,0,0:0:0:0:
373,66,19073,2,0,L|365:102,2,35,8|0|0,0:0|0:0|0:0,0:0:0:0:
458,33,19397,1,8,0:0:0:0:
420,190,19559,1,0,0:0:0:0:
420,190,19640,1,0,0:0:0:0:
420,190,19721,2,0,L|428:154,2,35,8|0|0,0:0|0:0|0:0,0:0:0:0:
506,165,20046,6,0,B|508:201|508:201|493:244,1,70,8|0,0:0|0:0,0:0:0:0:
336,217,20370,2,0,B|334:181|334:181|349:138,1,70,8|0,0:0|0:0,0:0:0:0:
408,272,20695,1,8,0:0:0:0:
408,272,20776,1,0,0:0:0:0:
408,272,20857,1,0,0:0:0:0:
408,272,20938,1,0,0:0:0:0:
408,272,21019,2,0,L|403:315,2,35,8|0|0,0:0|0:0|0:0,0:0:0:0:
479,347,21343,5,12,0:0:0:0:
324,296,21505,1,8,0:0:0:0:
324,296,21668,2,0,B|256:312|256:312|188:296,1,140,4|8,0:0|0:0,0:0:0:0:
111,250,22154,1,8,0:0:0:0:
111,250,22316,6,0,B|39:259|39:259|63:195,1,140,4|8,0:0|0:0,0:0:0:0:
34,116,22803,1,8,0:0:0:0:
34,116,22965,2,0,L|-3:109,1,35,12|8,0:0|0:0,0:0:0:0:
124,92,23289,2,0,B|192:109|192:109|260:92,1,140,8|4,0:0|0:0,0:0:0:0:
425,184,23938,5,8,0:0:0:0:
347,66,24100,1,8,0:0:0:0:
264,232,24262,2,0,B|337:224|337:224|400:252,1,140,4|8,0:0|0:0,0:0:0:0:
339,183,24749,1,8,0:0:0:0:
339,183,24911,1,4,0:0:0:0:
469,294,25235,6,0,L|457:368,1,70,8|8,0:0|0:0,0:0:0:0:
317,342,25559,2,0,L|328:272,1,70,12|8,0:0|0:0,0:0:0:0:
275,161,25884,6,0,B|250:163|250:163|230:154,2,46.6666666666667,8|0|0,0:0|0:0|0:0,0:0:0:0:
351,139,26208,2,0,B|375:136|375:136|395:145,2,46.6666666666667,8|0|0,0:0|0:0|0:0,0:0:0:0:
275,162,26532,6,0,L|262:249,1,70,2|0,0:0|0:0,0:0:0:0:
196,182,26857,2,0,L|183:269,1,70,2|0,0:0|0:0,0:0:0:0:
115,201,27181,2,0,L|102:288,1,70,2|0,0:0|0:0,0:0:0:0:
36,221,27506,2,0,L|23:308,1,70,2|0,0:0|0:0,0:0:0:0:
60,142,27830,6,0,L|73:55,1,70,2|0,0:0|0:0,0:0:0:0:
139,122,28155,2,0,L|152:35,1,70,2|0,0:0|0:0,0:0:0:0:
220,103,28479,2,0,L|233:16,1,70,2|0,0:0|0:0,0:0:0:0:
299,83,28804,2,0,L|312:-4,1,70,2|0,0:0|0:0,0:0:0:0:
379,62,29127,5,2,0:0:0:0:
360,143,29289,1,0,0:0:0:0:
441,122,29451,2,0,B|476:126|476:126|508:139,1,70,2|0,0:0|0:0,0:0:0:0:
399,260,29776,2,0,B|366:245|366:245|339:224,1,70,2|0,0:0|0:0,0:0:0:0:
484,222,30100,2,0,L|494:310,1,70,2|0,0:0|0:0,0:0:0:0:
441,122,30424,6,0,L|446:76,6,35,2|0|0|0|8|0|0,0:0|0:0|0:0|0:0|0:0|0:0|0:0,0:0:0:0:
298,49,31073,6,0,L|301:83,6,35,2|0|0|0|8|0|0,0:0|0:0|0:0|0:0|0:0|0:0|0:0,0:0:0:0:
221,157,31722,5,4,0:0:0:0:
256,192,31803,12,0,36586,0:0:0:0:
64,101,36911,6,0,P|104:100|139:112,1,70,2|2,0:0|0:0,0:0:0:0:
184,174,37559,2,0,L|175:250,1,70,2|2,0:0|0:0,0:0:0:0:
251,128,38208,6,0,B|281:147|319:146,1,70,2|2,0:0|0:0,0:0:0:0:
380,108,38695,1,2,0:0:0:0:
380,108,38857,2,0,B|374:143|374:143|382:180,1,70,2|2,0:0|0:0,0:0:0:0:
417,252,39505,6,0,L|497:256,1,70,2|2,0:0|0:0,0:0:0:0:
373,316,40154,2,0,L|303:312,1,70,2|2,0:0|0:0,0:0:0:0:
250,369,40641,1,2,0:0:0:0:
177,337,40803,2,0,P|166:301|170:269,1,70,2|2,0:0|0:0,0:0:0:0:
220,202,41289,1,2,0:0:0:0:
220,202,41451,2,0,B|183:203|183:203|152:193,1,70,2|2,0:0|0:0,0:0:0:0:
74,170,42100,5,6,0:0:0:0:
74,170,42181,1,0,0:0:0:0:
74,170,42262,1,0,0:0:0:0:
74,170,42343,1,0,0:0:0:0:
74,170,42424,2,0,L|79:221,2,35,8|0|0,0:0|0:0|0:0,0:0:0:0:
198,88,42749,2,0,L|193:139,6,35,2|0|0|0|8|0|0,0:0|0:0|0:0|0:0|0:0|0:0|0:0,0:0:0:0:
220,202,43397,6,0,L|300:199,1,70,2|0,0:0|0:0,0:0:0:0:
367,166,43722,2,0,P|401:164|448:183,1,70,8|0,0:0|0:0,0:0:0:0:
499,228,44046,2,0,L|489:302,1,70,2|0,0:0|0:0,0:0:0:0:
418,341,44370,2,0,L|381:346,2,35,8|0|0,0:0|0:0|0:0,0:0:0:0:
320,289,44695,5,2,0:0:0:0:
320,289,44776,1,0,0:0:0:0:
320,289,44857,1,0,0:0:0:0:
320,289,44938,1,0,0:0:0:0:
320,289,45019,2,0,L|325:249,2,35,8|0|0,0:0|0:0|0:0,0:0:0:0:
416,226,45343,2,0,L|421:266,6,35,2|0|0|0|8|0|0,0:0|0:0|0:0|0:0|0:0|0:0|0:0,0:0:0:0:
261,198,45992,6,0,L|270:128,1,70,2|0,0:0|0:0,0:0:0:0:
453,147,46316,2,0,L|444:77,1,70,8|0,0:0|0:0,0:0:0:0:
306,27,46641,2,0,B|341:27|341:27|376:20,1,70,2|0,0:0|0:0,0:0:0:0:
224,51,46965,2,0,L|212:6,2,35,8|0|0,0:0|0:0|0:0,0:0:0:0:
265,133,47289,5,2,0:0:0:0:
265,133,47370,1,0,0:0:0:0:
265,133,47451,1,0,0:0:0:0:
265,133,47532,1,0,0:0:0:0:
265,133,47614,2,0,L|298:145,2,35,8|0|0,0:0|0:0|0:0,0:0:0:0:
142,61,47938,2,0,L|109:49,6,35,2|0|0|0|8|0|0,0:0|0:0|0:0|0:0|0:0|0:0|0:0,0:0:0:0:
264,134,48586,6,0,B|250:167|250:167|241:214,1,70,2|0,0:0|0:0,0:0:0:0:
330,300,48911,2,0,B|344:267|344:267|350:233,1,70,8|0,0:0|0:0,0:0:0:0:
366,81,49235,2,0,L|351:149,1,70,2|0,0:0|0:0,0:0:0:0:
450,161,49559,2,0,L|442:196,2,35,8|0|0,0:0|0:0|0:0,0:0:0:0:
348,226,49884,5,2,0:0:0:0:
348,226,49965,1,0,0:0:0:0:
348,226,50046,1,0,0:0:0:0:
348,226,50127,1,0,0:0:0:0:
348,226,50208,2,0,L|302:214,2,35,8|0|0,0:0|0:0|0:0,0:0:0:0:
467,266,50532,2,0,L|512:254,6,35,2|0|0|0|8|0|0,0:0|0:0|0:0|0:0|0:0|0:0|0:0,0:0:0:0:
331,301,51181,6,0,B|297:307|297:307|259:300,1,70,2|0,0:0|0:0,0:0:0:0:
181,278,51505,1,8,0:0:0:0:
160,282,51586,1,0,0:0:0:0:
139,286,51668,1,0,0:0:0:0:
118,290,51749,1,0,0:0:0:0:
97,294,51830,2,0,L|25:283,1,70,2|0,0:0|0:0,0:0:0:0:
183,195,52154,6,0,B|219:201|219:201|252:192,1,70,4|0,0:0|0:0,0:0:0:0:
97,149,52478,6,0,L|93:218,1,70,14|0,0:0|0:0,0:0:0:0:
184,112,52803,1,8,0:0:0:0:
100,62,52965,2,0,L|63:57,2,35,0|0|10,0:0|0:0|0:0,0:0:0:0:
269,69,53289,2,0,L|308:65,2,35,2|0|10,0:0|0:0|0:0,0:0:0:0:
183,24,53614,1,2,0:0:0:0:
259,159,53776,5,10,0:0:0:0:
392,111,53938,2,0,L|431:115,2,35,0|0|10,0:0|0:0|0:0,0:0:0:0:
269,70,54262,2,0,L|230:74,2,35,0|0|10,0:0|0:0|0:0,0:0:0:0:
405,25,54586,1,0,0:0:0:0:
405,25,54668,1,0,0:0:0:0:
405,25,54749,2,0,B|440:31|440:31|477:27,1,70,10|0,0:0|0:0,0:0:0:0:
345,187,55073,6,0,L|334:115,1,70,10|0,0:0|0:0,0:0:0:0:
473,151,55397,1,8,0:0:0:0:
463,169,55478,1,0,0:0:0:0:
453,187,55559,1,0,0:0:0:0:
444,206,55641,1,0,0:0:0:0:
434,224,55722,6,0,L|446:304,1,70,10|2,0:0|0:0,0:0:0:0:
289,322,56046,2,0,L|299:252,1,70,10|2,0:0|0:0,0:0:0:0:
217,213,56370,6,0,P|148:222|114:206,1,105,2|0,0:0|0:0,0:0:0:0:
93,182,56695,5,2,0:0:0:0:
118,44,57019,6,0,P|187:35|221:51,1,105,2|0,0:0|0:0,0:0:0:0:
244,71,57343,6,0,L|320:66,1,70,2|0,0:0|0:0,0:0:0:0:
464,49,57668,6,0,L|395:45,1,70,10|0,0:0|0:0,0:0:0:0:
488,130,57992,1,8,0:0:0:0:
440,244,58154,2,0,L|442:282,2,35,0|0|10,0:0|0:0|0:0,0:0:0:0:
365,162,58478,2,0,L|367:124,2,35,2|0|10,0:0|0:0|0:0,0:0:0:0:
314,270,58803,1,2,0:0:0:0:
212,185,58965,6,0,B|244:189|244:189|281:189,1,70,10|0,0:0|0:0,0:0:0:0:
160,301,59289,2,0,B|192:296|192:296|229:296,1,70,10|0,0:0|0:0,0:0:0:0:
125,205,59614,1,10,0:0:0:0:
269,102,59776,2,0,L|305:105,2,35,0|0|10,0:0|0:0|0:0,0:0:0:0:
166,25,60100,1,0,0:0:0:0:
37,127,60262,6,0,B|42:161|42:161|58:206,1,70,10|0,0:0|0:0,0:0:0:0:
171,103,60586,1,8,0:0:0:0:
171,103,60668,1,0,0:0:0:0:
171,103,60749,2,0,L|122:98,1,35
107,79,60911,1,10,0:0:0:0:
234,37,61073,1,2,0:0:0:0:
238,173,61235,2,0,L|223:258,1,70,10|2,0:0|0:0,0:0:0:0:
303,117,61559,6,0,B|374:111|374:111|435:137,1,105,10|0,0:0|0:0,0:0:0:0:
436,139,61884,6,0,L|428:60,1,70,10|0,0:0|0:0,0:0:0:0:
381,203,62208,6,0,L|387:234,6,17.5,10|0|0|0|0|0|0,0:0|0:0|0:0|0:0|0:0|0:0|0:0,0:0:0:0:
499,191,62532,2,0,L|499:218,6,17.5,10|0|0|0|0|0|0,0:0|0:0|0:0|0:0|0:0|0:0|0:0,0:0:0:0:
444,259,62857,6,0,B|479:257|479:257|514:266,1,70,10|0,0:0|0:0,0:0:0:0:
357,287,63181,1,8,0:0:0:0:
437,140,63343,2,0,L|432:98,2,35,0|0|10,0:0|0:0|0:0,0:0:0:0:
470,341,63668,2,0,L|465:375,2,35,2|0|10,0:0|0:0|0:0,0:0:0:0:
381,203,63992,1,2,0:0:0:0:
512,265,64154,5,10,0:0:0:0:
372,364,64316,2,0,L|337:359,2,35,0|0|10,0:0|0:0|0:0,0:0:0:0:
277,305,64641,2,0,L|242:309,2,35,0|0|10,0:0|0:0|0:0,0:0:0:0:
304,230,64965,1,0,0:0:0:0:
304,230,65046,1,0,0:0:0:0:
304,230,65127,2,0,B|385:221,1,70,10|0,0:0|0:0,0:0:0:0:
463,136,65451,6,2,B|393:143,1,70,0|2,0:0|0:0,0:0:0:0:
271,84,65776,5,10,0:0:0:0:
271,84,65939,1,10,0:0:0:0:
429,25,66100,1,10,0:0:0:0:
429,25,66263,1,10,0:0:0:0:
271,84,66424,2,0,L|201:73,1,70,10|0,0:0|0:0,0:0:0:0:
342,21,66749,6,0,B|354:91|354:91|379:115,2,105,10|10|10,0:0|0:0|0:0,0:0:0:0:
444,167,67397,2,0,L|433:232,2,35,10|0|0,0:0|0:0|0:0,0:0:0:0:
363,236,67722,1,10,0:0:0:0:
363,236,67803,1,2,0:0:0:0:
363,236,67884,1,2,0:0:0:0:
363,236,67965,1,2,0:0:0:0:
363,236,68046,6,0,B|432:229|432:229|494:269,1,140,10|10,0:0|0:0,0:0:0:0:
491,267,68451,1,2,0:0:0:0:
491,267,68532,1,2,0:0:0:0:
491,267,68614,1,2,0:0:0:0:
491,267,68695,6,0,B|501:232|501:232|478:128,1,140,10|10,0:0|0:0,0:0:0:0:
478,131,69100,1,2,0:0:0:0:
478,131,69181,1,2,0:0:0:0:
478,131,69262,1,2,0:0:0:0:
478,131,69343,6,0,B|409:138|409:138|347:98,1,140,10|10,0:0|0:0,0:0:0:0:
349,99,69749,1,2,0:0:0:0:
349,99,69830,1,2,0:0:0:0:
349,99,69911,1,2,0:0:0:0:
349,99,69992,6,0,B|299:151|299:151|219:162,1,140,10|10,0:0|0:0,0:0:0:0:
237,176,70397,1,2,0:0:0:0:
241,192,70478,1,2,0:0:0:0:
244,209,70559,1,2,0:0:0:0:
249,225,70641,6,0,L|225:248,16,17.5,10|0|0|0|0|0|0|0|10|0|0|0|2|0|0|0|10,0:0|0:0|0:0|0:0|0:0|0:0|0:0|0:0|0:0|0:0|0:0|0:0|0:0|0:0|0:0|0:0|0:0,0:0:0:0:
349,99,71451,1,10,0:0:0:0:
443,170,71614,1,2,0:0:0:0:
443,170,71695,1,2,0:0:0:0:
443,170,71776,1,2,0:0:0:0:
443,170,71857,1,2,0:0:0:0:
443,170,71938,6,0,L|479:155,6,35,10|0|0|0|10|0|0,0:0|0:0|0:0|0:0|0:0|0:0|0:0,0:0:0:0:
350,64,72586,6,0,L|349:99,8,35,10|0|2|0|10|0|2|0|6,0:0|0:0|0:0|0:0|0:0|0:0|0:0|0:0|0:0,0:0:0:0:
269,41,73559,1,2,0:0:0:0:
209,100,73884,2,0,P|172:113|129:115,1,70,2|2,0:0|0:0,0:0:0:0:
62,86,74532,5,2,0:0:0:0:
215,183,74857,1,2,0:0:0:0:
48,168,75181,2,0,P|87:175|122:194,1,70,2|2,0:0|0:0,0:0:0:0:
168,252,75830,5,2,0:0:0:0:
214,182,76154,1,2,0:0:0:0:
274,239,76478,2,0,P|287:269|290:305,1,70,2|2,0:0|0:0,0:0:0:0:
258,383,77127,5,2,0:0:0:0:
374,292,77451,1,2,0:0:0:0:
214,182,77776,2,0,L|225:111,1,70,2|2,0:0|0:0,0:0:0:0:
300,76,78424,6,0,P|231:88|166:47,1,140,2|2,0:0|0:0,0:0:0:0:
148,19,79235,1,2,0:0:0:0:
108,4,79397,1,2,0:0:0:0:
68,18,79559,1,2,0:0:0:0:
40,50,79722,6,0,B|25:93|43:122|43:122|59:148|45:186,1,140,2|2,0:0|0:0,0:0:0:0:
28,223,80532,1,2,0:0:0:0:
30,265,80695,1,2,0:0:0:0:
53,299,80857,1,2,0:0:0:0:
90,317,81019,6,0,L|136:323,1,35,2|0,0:0|0:0,0:0:0:0:
181,257,81343,6,0,L|218:260,1,35,2|0,0:0|0:0,0:0:0:0:
272,193,81668,6,0,L|327:196,1,52.5000020027161,2|0,0:0|0:0,0:0:0:0:
381,123,81992,6,0,L|433:124,1,52.5000020027161,2|0,0:0|0:0,0:0:0:0:
338,50,82316,6,0,L|332:16,2,35,2|0|0,0:0|0:0|0:0,0:0:0:0:
426,204,82641,2,0,L|420:238,2,35,2|0|0,0:0|0:0|0:0,0:0:0:0:
479,54,82965,1,2,0:0:0:0:
479,54,83046,1,0,0:0:0:0:
479,54,83127,1,0,0:0:0:0:
381,124,83289,1,2,0:0:0:0:
344,136,83370,1,0,0:0:0:0:
306,128,83451,1,0,0:0:0:0:
273,107,83532,1,0,0:0:0:0:
253,73,83614,5,8,0:0:0:0:
334,209,83776,1,8,0:0:0:0:
334,209,83938,2,0,B|296:209|296:209|232:183|232:183|199:183,1,140,4|8,0:0|0:0,0:0:0:0:
125,210,84424,1,8,0:0:0:0:
125,210,84586,2,0,L|104:143,1,70,4|0,0:0|0:0,0:0:0:0:
75,278,84911,5,8,0:0:0:0:
180,96,85235,1,8,0:0:0:0:
251,247,85559,1,8,0:0:0:0:
356,65,85883,1,8,0:0:0:0:
420,220,86208,5,8,0:0:0:0:
301,167,86370,1,8,0:0:0:0:
301,167,86532,2,0,B|332:229|332:229|323:300,1,140,4|8,0:0|0:0,0:0:0:0:
307,382,87019,1,8,0:0:0:0:
307,382,87181,6,0,L|145:351,1,140,4|8,0:0|0:0,0:0:0:0:
121,286,87668,2,0,L|130:243,2,35,8|8|8,0:0|0:0|0:0,0:0:0:0:
37,284,87992,1,8,0:0:0:0:
37,284,88073,1,0,0:0:0:0:
37,284,88154,6,0,L|49:330,2,46.6666666666667,8|8|8,0:0|0:0|0:0,0:0:0:0:
198,318,88478,2,0,L|169:355,2,46.6666666666667,8|8|8,0:0|0:0|0:0,0:0:0:0:
133,218,88803,6,0,L|122:287,1,70,8|10,0:0|0:0,0:0:0:0:
219,209,89127,2,0,L|241:178,2,35,4|0|10,0:0|0:0|0:0,0:0:0:0:
159,138,89451,2,0,L|170:69,1,70,8|10,0:0|0:0,0:0:0:0:
73,147,89775,2,0,L|51:178,2,35,4|0|10,0:0|0:0|0:0,0:0:0:0:
254,69,90100,6,0,B|287:77|287:77|331:76,1,70,8|10,0:0|0:0,0:0:0:0:
405,62,90424,2,0,L|450:53,2,35,4|0|10,0:0|0:0|0:0,0:0:0:0:
244,154,90749,2,0,B|277:162|277:162|321:161,1,70,8|10,0:0|0:0,0:0:0:0:
396,150,91073,2,0,L|439:143,2,35,4|0|10,0:0|0:0|0:0,0:0:0:0:
232,237,91397,6,0,B|265:245|265:245|301:260,1,70,8|10,0:0|0:0,0:0:0:0:
374,296,91722,1,4,0:0:0:0:
374,296,91803,1,0,0:0:0:0:
374,296,91884,2,0,L|431:289,2,35,10|0|8,0:0|0:0|0:0,0:0:0:0:
213,323,92208,1,10,0:0:0:0:
213,323,92289,1,0,0:0:0:0:
213,323,92370,2,0,L|156:316,2,35,4|0|10,0:0|0:0|0:0,0:0:0:0:
290,349,92695,6,0,L|291:267,1,70,8|8,0:0|0:0,0:0:0:0:
419,205,93019,2,0,L|349:214,1,70,8|8,0:0|0:0,0:0:0:0:
145,229,93343,1,8,0:0:0:0:
145,229,93424,1,8,0:0:0:0:
145,229,93505,1,8,0:0:0:0:
145,229,93586,1,8,0:0:0:0:
145,229,93668,2,0,L|180:234,3,35,8|8|8|8,0:0|0:0|0:0|0:0,0:0:0:0:
220,241,93992,6,0,L|221:159,1,70,2|0,0:0|0:0,0:0:0:0:
154,119,94316,6,0,L|113:123,2,35,10|0|0,0:0|0:0|0:0,0:0:0:0:
286,117,94641,2,0,L|390:134,2,105,10|10|10,0:0|0:0|0:0,0:0:0:0:
214,51,95289,6,0,P|245:53|289:39,1,70,10|0,0:0|0:0,0:0:0:0:
319,22,95532,2,0,L|427:37,1,105,10|10,0:0|0:0,0:0:0:0:
351,202,95938,2,0,L|245:211,2,105,10|10|10,0:0|0:0|0:0,0:0:0:0:
431,224,96586,6,0,L|436:187,6,35,10|0|0|0|10|0|0,0:0|0:0|0:0|0:0|0:0|0:0|0:0,0:0:0:0:
340,87,97235,2,0,L|345:124,6,35,10|0|0|0|10|0|0,0:0|0:0|0:0|0:0|0:0|0:0|0:0,0:0:0:0:
426,102,97884,6,0,B|448:104|448:104|478:102,2,46.6666666666667,10|8|8,0:0|0:0|0:0,0:0:0:0:
257,112,98208,2,0,B|235:110|235:110|205:112,2,46.6666666666667,10|8|8,0:0|0:0|0:0,0:0:0:0:
437,189,98532,6,0,B|459:191|459:191|489:189,2,46.6666666666667,10|8|8,0:0|0:0|0:0,0:0:0:0:
257,197,98856,2,0,B|235:195|235:195|205:197,2,46.6666666666667,10|8|8,0:0|0:0|0:0,0:0:0:0:
357,222,99181,6,0,L|346:133,1,70,2|0,0:0|0:0,0:0:0:0:
251,279,99505,6,0,L|245:319,2,35,10|0|2,0:0|0:0|0:0,0:0:0:0:
87,241,99830,2,0,L|156:235,1,70,10|0,0:0|0:0,0:0:0:0:
357,222,100154,2,0,L|405:224,2,35,10|0|2,0:0|0:0|0:0,0:0:0:0:
127,132,100478,6,0,L|92:135,1,35,10|0,0:0|0:0,0:0:0:0:
256,198,100722,2,0,L|221:195,1,35,2|8,0:0|0:0,0:0:0:0:
345,112,100965,1,2,0:0:0:0:
345,112,101046,1,0,0:0:0:0:
345,112,101127,2,0,L|306:117,6,35,10|0|0|0|10|0|0,0:0|0:0|0:0|0:0|0:0|0:0|0:0,0:0:0:0:
440,170,101776,6,0,B|413:106|413:106|419:57,1,105,10|10,0:0|0:0,0:0:0:0:
479,239,102262,1,10,0:0:0:0:
479,239,102343,1,0,0:0:0:0:
479,239,102424,2,0,B|472:308|472:308|485:348,1,105,10|10,0:0|0:0,0:0:0:0:
499,373,102749,2,0,L|422:356,1,70,0|10,0:0|0:0,0:0:0:0:
348,339,103073,6,0,L|308:346,4,35,10|0|0|0|10,0:0|0:0|0:0|0:0|0:0,0:0:0:0:
368,240,103559,1,0,0:0:0:0:
265,261,103722,2,0,L|284:133,1,105,10|10,0:0|0:0,0:0:0:0:
394,87,104127,2,0,L|400:50,2,35,0|10|8,0:0|0:0|0:0,0:0:0:0:
386,122,104370,6,0,L|468:106,1,70,10|0,0:0|0:0,0:0:0:0:
283,75,104695,1,10,0:0:0:0:
436,193,104857,1,0,0:0:0:0:
436,193,104938,1,0,0:0:0:0:
436,193,105019,2,0,B|447:228|447:228|445:271,1,70,10|0,0:0|0:0,0:0:0:0:
299,285,105343,2,0,B|288:250|288:250|290:207,1,70,10|0,0:0|0:0,0:0:0:0:
369,243,105668,6,0,L|378:312,1,70,10|0,0:0|0:0,0:0:0:0:
355,160,105992,1,10,0:0:0:0:
217,263,106154,2,0,L|221:302,2,35,0|0|10,0:0|0:0|0:0,0:0:0:0:
212,120,106478,2,0,L|216:81,2,35,0|0|10,0:0|0:0|0:0,0:0:0:0:
132,268,106803,1,0,0:0:0:0:
253,193,106965,6,0,L|292:184,6,35,10|0|0|0|10|0|0,0:0|0:0|0:0|0:0|0:0|0:0|0:0,0:0:0:0:
130,122,107614,6,0,L|98:114,12,17.5,10|0|0|0|0|0|0|0|10|0|0|0|0,0:0|0:0|0:0|0:0|0:0|0:0|0:0|0:0|0:0|0:0|0:0|0:0|0:0,0:0:0:0:
211,121,108262,5,10,0:0:0:0:
81,51,108424,1,0,0:0:0:0:
91,197,108586,1,10,0:0:0:0:
91,197,108749,1,0,0:0:0:0:
37,134,108911,2,0,B|33:109|33:109|53:54,1,70,2|0,0:0|0:0,0:0:0:0:
149,257,109235,2,0,B|153:282|153:282|133:337,1,70,2|0,0:0|0:0,0:0:0:0:
91,197,109559,6,0,L|17:207,1,70,10|10,0:0|0:0,0:0:0:0:
219,262,109884,2,0,L|149:257,1,70,10|10,0:0|0:0,0:0:0:0:
294,214,110208,5,10,0:0:0:0:
277,328,110370,6,0,L|282:354,4,17.5,10|0|0|0|10,0:0|0:0|0:0|0:0|0:0,0:0:0:0:
239,139,110695,6,0,L|244:113,4,17.5,10|0|0|0|10,0:0|0:0|0:0|0:0|0:0,0:0:0:0:
219,261,111019,1,10,0:0:0:0:
294,213,111181,2,0,L|364:208,1,70,10|10,0:0|0:0,0:0:0:0:
163,184,111505,5,10,0:0:0:0:
325,126,111668,6,0,L|347:124,4,17.5,10|0|0|0|10,0:0|0:0|0:0|0:0|0:0,0:0:0:0:
158,97,111992,6,0,L|136:95,2,17.5,10|0|0,0:0|0:0|0:0,0:0:0:0:
236,53,112154,6,0,L|234:15,6,35,10|0|8|0|10|0|8,0:0|0:0|0:0|0:0|0:0|0:0|0:0,0:0:0:0:
326,126,112803,6,0,L|324:164,6,35,10|0|8|0|10|0|8,0:0|0:0|0:0|0:0|0:0|0:0|0:0,0:0:0:0:
405,93,113451,6,0,L|476:99,1,70,10|10,0:0|0:0,0:0:0:0:
283,211,113776,2,0,L|354:205,1,70,10|10,0:0|0:0,0:0:0:0:
430,174,114100,6,0,B|437:198|437:198|436:231,2,46.6666666666667,8|0|0,0:0|0:0|0:0,0:0:0:0:
321,128,114424,2,0,B|314:104|314:104|315:71,2,46.6666666666667,8|0|0,0:0|0:0|0:0,0:0:0:0:
424,308,115073,5,4,0:0:0:0:
256,192,115154,12,0,119938,0:0:0:0:
