osu file format v14

[General]
AudioFilename: [SDVX II ] BLACK or WHITE_ [NOFX].mp3
AudioLeadIn: 1500
PreviewTime: 52458
Countdown: 0
SampleSet: Normal
StackLeniency: 0.7
Mode: 0
LetterboxInBreaks: 0
WidescreenStoryboard: 0

[Editor]
Bookmarks: 8350,43702
DistanceSpacing: 1
BeatDivisor: 4
GridSize: 4
TimelineZoom: 1.900006

[Metadata]
Title:BLACK or WHITE?
TitleUnicode:BLACK or WHITE?
Artist:BlackYooh vs. siromaru
ArtistUnicode:BlackYooh vs. siromaru
Creator:BluOxy
Version:ADVANCED
Source:SOUND VOLTEX II -infinite infection-
Tags:Yooh BlackY KAC2013 hardcore symphonic speed schranz sdvx konami
BeatmapID:581185
BeatmapSetID:248876

[Difficulty]
HPDrainRate:6
CircleSize:4
OverallDifficulty:6.5
ApproachRate:8
SliderMultiplier:1.4
SliderTickRate:1

[Events]
//Background and Video events
0,0,"nyaa.png",0,0
//Break Periods
//Storyboard Layer 0 (Background)
//Storyboard Layer 1 (Fail)
//Storyboard Layer 2 (Pass)
//Storyboard Layer 3 (Foreground)
//Storyboard Sound Samples

[TimingPoints]
587,324.324324324324,4,1,1,50,1,0
8370,-90.9090909090909,4,1,2,50,0,0
10641,-90.9090909090909,4,1,1,50,0,0
10965,-90.9090909090909,4,1,3,50,0,0
21343,-90.9090909090909,4,1,2,50,0,0
25884,-90.9090909090909,4,1,3,50,0,0
26532,-90.9090909090909,4,1,1,60,0,0
27830,-90.9090909090909,4,1,1,55,0,0
28154,-90.9090909090909,4,1,1,60,0,0
28478,-90.9090909090909,4,1,1,65,0,0
28803,-90.9090909090909,4,1,1,70,0,0
29127,-90.9090909090909,4,1,1,75,0,0
31722,-181.818181818182,4,2,1,50,0,0
33019,-181.818181818182,4,2,1,40,0,0
34316,-181.818181818182,4,2,1,30,0,0
35614,-181.818181818182,4,2,1,20,0,0
36262,-181.818181818182,4,2,1,10,0,0
36586,-181.818181818182,4,2,1,5,0,0
36911,-181.818181818182,4,2,1,50,0,0
42100,-90.9090909090909,4,1,1,50,0,0
51181,-90.9090909090909,4,1,2,50,0,0
52073,-90.9090909090909,4,1,2,5,0,0
52154,-90.9090909090909,4,1,2,55,0,0
52478,-90.9090909090909,4,1,4,70,0,1
65451,-90.9090909090909,4,1,4,50,0,0
65776,-90.9090909090909,4,1,4,70,0,1
68046,-90.9090909090909,4,1,4,60,0,1
70641,-90.9090909090909,4,1,4,70,0,1
73235,-181.818181818182,4,2,0,43,0,0
81019,-181.818181818182,4,2,0,49,0,0
81668,-181.818181818182,4,2,0,55,0,0
82316,-90.9090909090909,4,2,0,60,0,0
83614,-90.9090909090909,4,1,2,55,0,0
88154,-90.9090909090909,4,1,2,70,0,0
88803,-90.9090909090909,4,1,2,60,0,0
93992,-90.9090909090909,4,1,2,50,0,0
94316,-90.9090909090909,4,1,4,75,0,1
97884,-90.9090909090909,4,1,2,70,0,0
99181,-90.9090909090909,4,1,4,60,0,0
99505,-90.9090909090909,4,1,4,75,0,1
109559,-90.9090909090909,4,1,4,65,0,1
110208,-90.9090909090909,4,1,4,70,0,1
110857,-90.9090909090909,4,1,4,75,0,1
111505,-90.9090909090909,4,1,4,80,0,1
112154,-90.9090909090909,4,1,4,85,0,1
113451,-90.9090909090909,4,1,4,90,0,1
114100,-90.9090909090909,4,1,2,75,0,0
115073,-90.9090909090909,4,2,0,70,0,0
115154,-90.9090909090909,4,2,0,57,0,0
116046,-90.9090909090909,4,2,0,44,0,0
117343,-90.9090909090909,4,2,0,31,0,0
118641,-90.9090909090909,4,2,0,18,0,0
119938,-90.9090909090909,4,2,0,5,0,0

[Colours]
Combo1 : 149,149,149
Combo2 : 49,49,49

[HitObjects]
43,160,587,6,0,P|74:153|113:159,1,70,6|0,0:0|0:0,0:0:0:0:
178,195,911,2,0,L|176:237,2,35,8|0|0,0:0|0:0|0:0,0:0:0:0:
198,120,1235,2,0,L|196:78,2,35,2|0|0,0:0|0:0|0:0,0:0:0:0:
257,168,1559,2,0,P|291:173|325:166,1,70,8|0,0:0|0:0,0:0:0:0:
381,113,1884,6,0,L|373:43,1,70,2|0,0:0|0:0,0:0:0:0:
445,154,2208,2,0,L|437:232,1,70,8|0,0:0|0:0,0:0:0:0:
441,300,2532,2,0,L|477:294,2,35,2|0|0,0:0|0:0|0:0,0:0:0:0:
370,267,2857,2,0,L|299:281,1,70,8|0,0:0|0:0,0:0:0:0:
223,277,3181,6,0,P|290:287|319:347,1,140,2|8,0:0|0:0,0:0:0:0:
163,325,3668,1,0,0:0:0:0:
114,265,3830,2,0,P|108:231|117:187,1,70,2|0,0:0|0:0,0:0:0:0:
173,147,4154,2,0,L|247:153,1,70,8|0,0:0|0:0,0:0:0:0:
316,176,4478,6,0,B|312:75|312:75|333:42,1,140,2|8,0:0|0:0,0:0:0:0:
364,236,4965,1,0,0:0:0:0:
288,248,5127,2,0,L|216:243,1,70,2|0,0:0|0:0,0:0:0:0:
409,307,5451,2,0,L|481:302,1,70,8|0,0:0|0:0,0:0:0:0:
318,324,5776,6,0,B|213:317|213:317|173:331,1,140,2|8,0:0|0:0,0:0:0:0:
110,361,6262,1,0,0:0:0:0:
41,326,6424,2,0,P|33:289|37:256,1,70,2|0,0:0|0:0,0:0:0:0:
74,189,6749,2,0,L|71:117,1,70,8|0,0:0|0:0,0:0:0:0:
16,65,7073,6,0,P|73:98|154:83,1,140,2|8,0:0|0:0,0:0:0:0:
209,48,7559,1,0,0:0:0:0:
277,84,7722,1,2,0:0:0:0:
215,129,7884,1,0,0:0:0:0:
215,129,7965,1,0,0:0:0:0:
215,129,8046,2,0,L|217:198,1,70,8|0,0:0|0:0,0:0:0:0:
176,273,8370,6,0,L|98:266,2,77.0000023498536,8|8|8,0:0|0:0|0:0,0:0:0:0:
254,305,8857,1,8,0:0:0:0:
319,251,9019,2,0,L|397:244,1,77.0000023498536,8|8,0:0|0:0,0:0:0:0:
471,206,9343,1,8,0:0:0:0:
510,280,9505,1,8,0:0:0:0:
278,174,9992,6,0,L|283:136,7,38.5000011749268
294,94,10641,6,0,L|217:100,1,77.0000023498536,4|0,0:0|0:0,0:0:0:0:
139,68,10965,6,0,P|134:112|153:153,1,77.0000023498536,8|0,0:0|0:0,0:0:0:0:
180,218,11289,2,0,L|88:215,1,77.0000023498536,8|0,0:0|0:0,0:0:0:0:
18,226,11614,2,0,P|83:227|111:304,1,154.000004699707,8|8,0:0|0:0,0:0:0:0:
55,364,12100,1,0,0:0:0:0:
187,300,12262,6,0,B|303:295|303:295|340:314,1,154.000004699707,8|8,0:0|0:0,0:0:0:0:
409,355,12749,1,0,0:0:0:0:
464,290,12911,2,0,P|469:250|460:212,1,77.0000023498536,8|0,0:0|0:0,0:0:0:0:
429,136,13235,2,0,L|431:90,2,38.5000011749268,8|0|0,0:0|0:0|0:0,0:0:0:0:
375,201,13559,6,0,P|300:206|239:154,1,154.000004699707,8|8,0:0|0:0,0:0:0:0:
179,100,14046,1,0,0:0:0:0:
102,136,14208,2,0,L|119:212,1,77.0000023498536,8|0,0:0|0:0,0:0:0:0:
87,289,14532,2,0,L|10:284,1,77.0000023498536,8|0,0:0|0:0,0:0:0:0:
158,334,14857,6,0,L|235:329,1,77.0000023498536,8|0,0:0|0:0,0:0:0:0:
312,295,15181,1,8,0:0:0:0:
366,359,15343,1,0,0:0:0:0:
439,316,15505,2,0,L|483:313,2,38.5000011749268,8|0|0,0:0|0:0|0:0,0:0:0:0:
312,295,15830,2,0,L|320:217,1,77.0000023498536,8|0,0:0|0:0,0:0:0:0:
446,234,16154,6,2,L|438:157,1,77.0000023498536
370,20,16478,6,0,L|378:97,1,77.0000023498536,8|0,0:0|0:0,0:0:0:0:
304,139,16803,2,0,B|190:128|190:128|152:147,1,154.000004699707,8|8,0:0|0:0,0:0:0:0:
82,189,17289,1,0,0:0:0:0:
10,143,17451,5,8,0:0:0:0:
81,96,17614,1,0,0:0:0:0:
81,96,17695,1,0,0:0:0:0:
81,96,17776,2,0,P|89:58|85:14,1,77.0000023498536,8|0,0:0|0:0,0:0:0:0:
10,143,18100,2,0,L|17:250,1,77.0000023498536,8|0,0:0|0:0,0:0:0:0:
56,293,18424,2,0,L|96:284,2,38.5000011749268,8|0|0,0:0|0:0|0:0,0:0:0:0:
15,219,18749,6,0,L|98:202,1,77.0000023498536,8|0,0:0|0:0,0:0:0:0:
232,144,19073,2,0,P|194:141|159:154,1,77.0000023498536,8|0,0:0|0:0,0:0:0:0:
199,301,19397,2,0,L|205:225,1,77.0000023498536,8|0,0:0|0:0,0:0:0:0:
153,77,19722,2,0,L|159:154,1,77.0000023498536,8|0,0:0|0:0,0:0:0:0:
296,84,20046,6,0,P|371:72|436:120,1,154.000004699707,8|8,0:0|0:0,0:0:0:0:
340,314,20695,2,0,L|351:162,1,154.000004699707,8|8,0:0|0:0,0:0:0:0:
422,361,21343,5,8,0:0:0:0:
422,361,21505,1,8,0:0:0:0:
422,361,21668,2,0,B|362:334|311:367|311:367|270:361,1,154.000004699707,4|8,0:0|0:0,0:0:0:0:
191,350,22154,1,8,0:0:0:0:
191,350,22316,1,4,0:0:0:0:
222,210,22641,6,0,P|254:185|289:179,1,77.0000023498536,8|8,0:0|0:0,0:0:0:0:
370,173,22965,2,0,L|357:134,1,38.5000011749268,12|8,0:0|0:0,0:0:0:0:
460,61,23289,2,0,P|384:79|312:48,1,154.000004699707,8|12,0:0|0:0,0:0:0:0:
248,0,23776,1,8,0:0:0:0:
181,52,23938,5,8,0:0:0:0:
181,52,24100,1,8,0:0:0:0:
181,52,24262,2,0,B|150:124|150:124|229:114,1,154.000004699707,4|8,0:0|0:0,0:0:0:0:
287,171,24748,1,8,0:0:0:0:
287,171,24911,1,4,0:0:0:0:
128,219,25235,6,0,L|35:211,1,77.0000023498536,8|8,0:0|0:0,0:0:0:0:
284,263,25559,2,0,L|377:255,1,77.0000023498536,12|8,0:0|0:0,0:0:0:0:
191,281,25884,6,0,L|192:334,5,51.3333348999024,8|2|2|8|2|2,0:0|0:0|0:0|0:0|0:0|0:0,0:0:0:0:
196,384,26532,5,2,0:0:0:0:
42,311,26857,1,2,0:0:0:0:
143,175,27181,2,0,P|144:98|104:29,1,154.000004699707,2|2,0:0|0:0,0:0:0:0:
49,191,27830,5,2,0:0:0:0:
191,281,28154,1,2,0:0:0:0:
293,146,28478,2,0,P|329:130|378:131,1,77.0000023498536,2|0,0:0|0:0,0:0:0:0:
447,154,28803,2,0,L|454:231,1,77.0000023498536,2|0,0:0|0:0,0:0:0:0:
457,315,29127,6,0,B|343:305|343:305|298:319,1,154.000004699707,2|2,0:0|0:0,0:0:0:0:
225,346,29614,1,0,0:0:0:0:
158,293,29776,2,0,P|150:252|157:218,1,77.0000023498536,2|0,0:0|0:0,0:0:0:0:
211,153,30100,1,2,0:0:0:0:
128,134,30262,1,0,0:0:0:0:
186,73,30424,6,0,P|224:69|270:90,1,77.0000023498536,2|0,0:0|0:0,0:0:0:0:
333,125,30749,2,0,L|411:118,1,77.0000023498536,8|0,0:0|0:0,0:0:0:0:
485,155,31073,2,0,P|492:193|485:231,1,77.0000023498536,2|0,0:0|0:0,0:0:0:0:
409,265,31397,2,0,L|333:259,1,77.0000023498536,8|0,0:0|0:0,0:0:0:0:
259,301,31722,5,6,0:0:0:0:
256,192,31803,12,0,36586,0:0:0:0:
414,121,36911,6,0,P|377:138|334:137,1,77.0000023498536,2|2,0:0|0:0,0:0:0:0:
259,117,37559,2,0,L|178:126,1,77.0000023498536,2|2,0:0|0:0,0:0:0:0:
100,105,38208,5,2,0:0:0:0:
59,179,38532,2,0,L|65:227,2,38.5000011749268,2|0|2,0:0|0:0|0:0,0:0:0:0:
100,105,39181,1,2,0:0:0:0:
178,205,39505,6,0,P|187:243|183:284,1,77.0000023498536,2|2,0:0|0:0,0:0:0:0:
122,338,40154,2,0,L|45:331,1,77.0000023498536,2|2,0:0|0:0,0:0:0:0:
266,307,40803,5,2,0:0:0:0:
348,326,41127,2,0,L|396:321,2,38.5000011749268,2|0|2,0:0|0:0|0:0,0:0:0:0:
205,363,41776,1,2,0:0:0:0:
342,241,42100,6,0,L|323:164,1,77.0000023498536,6|0,0:0|0:0,0:0:0:0:
269,101,42424,2,0,P|310:84|347:88,1,77.0000023498536,8|0,0:0|0:0,0:0:0:0:
419,121,42749,1,2,0:0:0:0:
485,68,42911,2,0,L|486:24,2,38.5000011749268,0|0|8,0:0|0:0|0:0,0:0:0:0:
419,121,43235,1,0,0:0:0:0:
479,179,43397,6,0,L|469:255,1,77.0000023498536,2|0,0:0|0:0,0:0:0:0:
418,323,43722,2,0,P|454:338|492:335,1,77.0000023498536,8|0,0:0|0:0,0:0:0:0:
352,273,44046,2,0,L|291:277,2,38.5000011749268,2|0|0,0:0|0:0|0:0,0:0:0:0:
404,206,44370,1,8,0:0:0:0:
340,149,44532,1,0,0:0:0:0:
420,122,44695,6,0,L|481:126,2,38.5000011749268,2|0|0,0:0|0:0|0:0,0:0:0:0:
356,66,45019,2,0,L|276:78,1,77.0000023498536,8|0,0:0|0:0,0:0:0:0:
199,51,45343,1,2,0:0:0:0:
147,117,45505,1,0,0:0:0:0:
67,85,45668,2,0,L|53:50,2,38.5000011749268,8|0|0,0:0|0:0|0:0,0:0:0:0:
120,198,45992,6,0,L|36:189,1,77.0000023498536,2|0,0:0|0:0,0:0:0:0:
202,227,46316,2,0,L|286:218,1,77.0000023498536,8|0,0:0|0:0,0:0:0:0:
357,187,46641,2,0,P|363:231|350:270,1,77.0000023498536,2|0,0:0|0:0,0:0:0:0:
324,341,46965,2,0,L|331:386,2,38.5000011749268,8|0|0,0:0|0:0|0:0,0:0:0:0:
248,302,47289,6,0,L|171:310,1,77.0000023498536,2|0,0:0|0:0,0:0:0:0:
96,351,47614,2,0,P|86:311|93:274,1,77.0000023498536,8|0,0:0|0:0,0:0:0:0:
120,198,47938,2,0,L|113:114,1,77.0000023498536,2|0,0:0|0:0,0:0:0:0:
154,47,48262,2,0,L|230:54,1,77.0000023498536,8|0,0:0|0:0,0:0:0:0:
305,15,48586,6,0,L|346:20,2,38.5000011749268,2|0|0,0:0|0:0|0:0,0:0:0:0:
230,54,48911,2,0,L|236:130,1,77.0000023498536,8|0,0:0|0:0,0:0:0:0:
275,205,49235,1,2,0:0:0:0:
199,244,49397,1,0,0:0:0:0:
247,313,49559,2,0,P|283:323|323:319,1,77.0000023498536,8|0,0:0|0:0,0:0:0:0:
398,282,49884,6,0,L|438:287,2,38.5000011749268,2|0|0,0:0|0:0|0:0,0:0:0:0:
275,205,50208,2,0,L|355:195,1,77.0000023498536,8|0,0:0|0:0,0:0:0:0:
435,203,50532,2,0,P|443:164|436:127,1,77.0000023498536,2|0,0:0|0:0,0:0:0:0:
388,57,50857,2,0,L|392:12,2,38.5000011749268,8|0|0,0:0|0:0|0:0,0:0:0:0:
323,111,51181,6,0,P|248:120|180:79,1,154.000004699707,8|8,0:0|0:0,0:0:0:0:
127,16,51668,1,8,0:0:0:0:
63,71,51830,2,0,L|74:171,1,77.0000023498536,8|8,0:0|0:0,0:0:0:0:
66,300,52154,6,0,P|48:267|50:229,1,77.0000023498536,4|0,0:0|0:0,0:0:0:0:
136,244,52478,6,0,L|216:234,1,77.0000023498536,14|0,0:0|0:0,0:0:0:0:
290,268,52803,1,8,0:0:0:0:
344,202,52965,2,0,L|338:160,2,38.5000011749268,0|0|10,0:0|0:0|0:0,0:0:0:0:
416,245,53289,1,2,0:0:0:0:
469,179,53451,2,0,P|470:146|449:102,1,77.0000023498536,10|2,0:0|0:0,0:0:0:0:
379,62,53776,6,0,L|295:78,1,77.0000023498536,10|0,0:0|0:0,0:0:0:0:
225,43,54100,1,10,0:0:0:0:
179,114,54262,1,0,0:0:0:0:
101,76,54424,2,0,P|92:40|97:2,1,77.0000023498536,10|0,0:0|0:0,0:0:0:0:
179,114,54749,2,0,P|189:152|183:189,1,77.0000023498536,10|0,0:0|0:0,0:0:0:0:
136,259,55073,6,0,L|141:335,1,77.0000023498536,10|0,0:0|0:0,0:0:0:0:
64,213,55397,2,0,L|18:208,2,38.5000011749268,8|0|0,0:0|0:0|0:0,0:0:0:0:
183,188,55722,2,0,L|280:195,1,77.0000023498536,10|2,0:0|0:0,0:0:0:0:
335,155,56046,1,10,0:0:0:0:
405,201,56208,1,2,0:0:0:0:
478,159,56370,5,2,0:0:0:0:
394,306,56695,1,2,0:0:0:0:
318,120,57019,1,2,0:0:0:0:
394,306,57343,1,2,0:0:0:0:
499,124,57668,6,0,P|458:122|423:102,1,77.0000023498536,10|0,0:0|0:0,0:0:0:0:
363,49,57992,1,8,0:0:0:0:
318,120,58154,2,0,L|324:169,2,38.5000011749268,0|0|10,0:0|0:0|0:0,0:0:0:0:
253,64,58478,1,2,0:0:0:0:
200,130,58641,2,0,P|197:169|213:214,1,77.0000023498536,10|2,0:0|0:0,0:0:0:0:
274,257,58965,6,0,L|359:244,1,77.0000023498536,10|0,0:0|0:0,0:0:0:0:
421,200,59289,1,10,0:0:0:0:
498,233,59451,1,0,0:0:0:0:
429,282,59614,2,0,P|427:321|437:358,1,77.0000023498536,10|0,0:0|0:0,0:0:0:0:
498,233,59938,2,0,P|505:194|496:149,1,77.0000023498536,10|0,0:0|0:0,0:0:0:0:
424,116,60262,6,0,L|339:129,1,77.0000023498536,10|0,0:0|0:0,0:0:0:0:
502,73,60586,2,0,L|510:32,2,38.5000011749268,8|0|0,0:0|0:0|0:0,0:0:0:0:
348,127,60911,2,0,P|342:89|349:51,1,77.0000023498536,10|2,0:0|0:0,0:0:0:0:
499,157,61235,2,0,P|504:195|498:233,1,77.0000023498536,10|2,0:0|0:0,0:0:0:0:
403,188,61559,6,0,P|344:175|288:192,1,115.50000352478,10|0,0:0|0:0,0:0:0:0:
292,189,61884,2,0,L|303:272,1,77.0000023498536,10|0,0:0|0:0,0:0:0:0:
203,160,62208,2,0,L|161:170,2,38.5000011749268,10|0|0,0:0|0:0|0:0,0:0:0:0:
349,127,62532,2,0,L|391:137,2,38.5000011749268,10|0|0,0:0|0:0|0:0,0:0:0:0:
205,76,62857,6,0,L|208:0,1,77.0000023498536,10|2,0:0|0:0,0:0:0:0:
149,140,63181,2,0,L|152:216,1,77.0000023498536,8|0,0:0|0:0,0:0:0:0:
189,293,63505,1,10,0:0:0:0:
105,307,63668,1,2,0:0:0:0:
189,293,63830,2,0,P|228:293|268:314,1,77.0000023498536,10|2,0:0|0:0,0:0:0:0:
332,355,64154,6,0,L|419:349,1,77.0000023498536,10|0,0:0|0:0,0:0:0:0:
473,295,64478,2,0,P|487:330|488:368,1,77.0000023498536,10|0,0:0|0:0,0:0:0:0:
398,252,64803,2,0,P|383:216|383:176,1,77.0000023498536,10|0,0:0|0:0,0:0:0:0:
410,98,65127,1,10,0:0:0:0:
491,122,65289,1,0,0:0:0:0:
410,98,65451,6,2,B|334:103|334:103|292:91,1,115.50000352478,0|2,0:0|0:0,0:0:0:0:
296,92,65776,6,0,L|304:171,1,77.0000023498536,10|10,0:0|0:0,0:0:0:0:
261,241,66100,1,10,0:0:0:0:
326,294,66262,1,10,0:0:0:0:
274,361,66424,2,0,P|235:366|197:357,1,77.0000023498536,10|0,0:0|0:0,0:0:0:0:
121,322,66749,6,0,L|3:333,2,115.50000352478,10|10|10,0:0|0:0|0:0,0:0:0:0:
244,288,67397,2,0,L|285:291,2,38.5000011749268,10|0|0,0:0|0:0|0:0,0:0:0:0:
125,242,67722,2,0,L|84:245,2,38.5000011749268,10|0|0,0:0|0:0|0:0,0:0:0:0:
251,208,68046,6,0,L|329:217,1,77.0000023498536,10|0,0:0|0:0,0:0:0:0:
327,216,68289,1,0,0:0:0:0:
327,216,68370,2,0,L|318:295,1,77.0000023498536
476,179,68695,2,0,L|398:170,1,77.0000023498536,10|0,0:0|0:0,0:0:0:0:
400,171,68938,1,0,0:0:0:0:
400,171,69019,2,0,L|409:92,1,77.0000023498536
318,41,69343,6,0,L|326:117,1,77.0000023498536,10|0,0:0|0:0,0:0:0:0:
326,117,69586,1,0,0:0:0:0:
326,117,69668,2,0,L|223:104,1,77.0000023498536
93,71,69992,2,0,L|170:61,1,77.0000023498536,10|0,0:0|0:0,0:0:0:0:
170,61,70235,1,0,0:0:0:0:
170,61,70316,2,0,L|165:154,1,77.0000023498536
133,216,70641,6,0,P|94:221|56:210,1,77.0000023498536,10|0,0:0|0:0,0:0:0:0:
240,184,70965,2,0,P|279:179|317:190,1,77.0000023498536,10|2,0:0|0:0,0:0:0:0:
208,260,71289,2,0,L|209:342,1,77.0000023498536,10|10,0:0|0:0,0:0:0:0:
208,336,71938,6,8,L|132:329,1,77.0000023498536,10|0,0:0|0:0,0:0:0:0:
289,311,72262,1,10,0:0:0:0:
335,381,72424,1,0,0:0:0:0:
415,356,72586,2,0,L|459:361,2,38.5000011749268,2|0|2,0:0|0:0|0:0,0:0:0:0:
289,311,72911,2,0,L|245:316,2,38.5000011749268,2|0|2,0:0|0:0|0:0,0:0:0:0:
370,286,73235,5,6,0:0:0:0:
256,192,73316,12,0,78100,0:0:0:0:
165,322,78424,6,0,L|180:166,1,154.000004699707,2|2,0:0|0:0,0:0:0:0:
143,92,79397,1,2,0:0:0:0:
219,55,79722,6,0,P|256:49|294:55,1,77.0000023498536,2|2,0:0|0:0,0:0:0:0:
370,93,80370,2,0,L|451:77,1,77.0000023498536,2|2,0:0|0:0,0:0:0:0:
330,168,81019,5,2,0:0:0:0:
408,200,81343,1,2,0:0:0:0:
374,277,81668,1,2,0:0:0:0:
295,245,81992,1,2,0:0:0:0:
216,280,82316,6,0,P|216:322|227:354,1,77.0000023498536,2|0,0:0|0:0,0:0:0:0:
295,245,82641,2,0,P|295:203|284:171,1,77.0000023498536,2|0,0:0|0:0,0:0:0:0:
207,132,82965,2,0,L|99:148,1,77.0000023498536,2|0,0:0|0:0,0:0:0:0:
54,180,83289,2,0,P|45:142|54:104,1,77.0000023498536,2|0,0:0|0:0,0:0:0:0:
130,57,83614,5,8,0:0:0:0:
130,57,83776,1,8,0:0:0:0:
130,57,83938,2,0,B|245:40|245:40|283:50,1,154.000004699707,4|8,0:0|0:0,0:0:0:0:
360,79,84424,1,8,0:0:0:0:
360,79,84586,6,0,B|375:155|375:155|437:107,1,154.000004699707,4|8,0:0|0:0,0:0:0:0:
333,243,85235,1,8,0:0:0:0:
225,112,85559,1,8,0:0:0:0:
385,168,85884,1,8,0:0:0:0:
219,202,86208,6,0,P|212:244|219:289,1,77.0000023498536,8|8,0:0|0:0,0:0:0:0:
291,316,86532,2,0,P|222:290|148:312,1,154.000004699707,4|8,0:0|0:0,0:0:0:0:
78,362,87019,1,8,0:0:0:0:
78,362,87181,1,4,0:0:0:0:
56,194,87505,6,0,L|137:199,1,77.0000023498536,8|8,0:0|0:0,0:0:0:0:
219,201,87830,2,0,P|226:159|219:114,1,77.0000023498536,8|8,0:0|0:0,0:0:0:0:
188,47,88154,6,0,L|121:53,5,51.3333348999024,8|8|8|8|8|8,0:0|0:0|0:0|0:0|0:0|0:0,0:0:0:0:
80,60,88803,6,0,P|88:96|88:135,1,77.0000023498536,8|10,0:0|0:0,0:0:0:0:
62,216,89127,2,0,L|67:280,2,38.5000011749268,4|0|10,0:0|0:0|0:0,0:0:0:0:
144,195,89451,2,0,P|186:194|219:202,1,77.0000023498536,8|10,0:0|0:0,0:0:0:0:
297,238,89776,2,0,L|380:226,1,77.0000023498536,4|10,0:0|0:0,0:0:0:0:
440,175,90100,5,8,0:0:0:0:
450,91,90262,2,0,L|457:45,2,38.5000011749268,10|0|4,0:0|0:0|0:0,0:0:0:0:
488,244,90586,1,10,0:0:0:0:
367,135,90749,2,0,P|293:124|224:162,1,154.000004699707,8|4,0:0|0:0,0:0:0:0:
179,231,91235,1,10,0:0:0:0:
104,190,91397,6,0,P|101:148|116:107,1,77.0000023498536,8|10,0:0|0:0,0:0:0:0:
152,40,91722,2,0,L|150:1,2,38.5000011749268,4|0|10,0:0|0:0|0:0,0:0:0:0:
227,78,92046,2,0,L|313:67,1,77.0000023498536,8|10,0:0|0:0,0:0:0:0:
111,115,92370,2,0,L|25:104,1,77.0000023498536,4|10,0:0|0:0,0:0:0:0:
189,151,92695,6,0,P|190:192|178:237,1,77.0000023498536,8|8,0:0|0:0,0:0:0:0:
128,292,93019,2,8,L|43:280,1,77.0000023498536,8|0,0:0|0:0,0:0:0:0:
263,260,93343,2,0,L|303:253,2,38.5000011749268,8|8|8,0:0|0:0|0:0,0:0:0:0:
205,325,93668,1,8,0:0:0:0:
205,325,93749,1,8,0:0:0:0:
205,325,93830,1,8,0:0:0:0:
182,226,93992,6,0,L|194:98,1,115.50000352478
198,69,94316,6,0,L|204:20,2,38.5000011749268,10|0|0,0:0|0:0|0:0,0:0:0:0:
117,96,94641,2,0,L|3:85,2,115.50000352478,10|10|10,0:0|0:0|0:0,0:0:0:0:
192,111,95289,6,0,P|229:116|269:100,1,77.0000023498536,10|0,0:0|0:0,0:0:0:0:
299,76,95532,2,0,P|332:62|381:65,1,77.0000023498536,10|0,0:0|0:0,0:0:0:0:
412,78,95776,1,10,0:0:0:0:
355,140,95938,2,0,L|373:258,1,115.50000352478,10|10,0:0|0:0,0:0:0:0:
254,301,96424,1,10,0:0:0:0:
254,301,96505,1,0,0:0:0:0:
254,301,96586,6,0,L|249:340,2,38.5000011749268,2|0|0,0:0|0:0|0:0,0:0:0:0:
373,255,96911,2,0,L|380:292,2,38.5000011749268,10|0|0,0:0|0:0|0:0,0:0:0:0:
204,225,97235,2,0,L|162:231,2,38.5000011749268,10|0|0,0:0|0:0|0:0,0:0:0:0:
375,165,97559,2,0,L|417:171,2,38.5000011749268,10|0|0,0:0|0:0|0:0,0:0:0:0:
232,138,97884,6,8,L|178:145,5,51.3333348999024,10|8|8|10|8|8,0:0|0:0|0:0|0:0|0:0|0:0,0:0:0:0:
127,161,98532,2,0,L|73:154,5,51.3333348999024,10|8|8|10|8|8,0:0|0:0|0:0|0:0|0:0|0:0,0:0:0:0:
21,138,99181,6,0,L|30:255,1,115.50000352478
35,295,99505,5,10,0:0:0:0:
117,273,99668,1,2,0:0:0:0:
183,325,99830,2,0,P|256:346|331:325,1,154.000004699707,10|10,0:0|0:0,0:0:0:0:
395,273,100316,1,2,0:0:0:0:
477,295,100478,6,0,L|473:340,1,38.5000011749268,10|0,0:0|0:0,0:0:0:0:
395,273,100722,2,0,L|386:229,1,38.5000011749268,2|8,0:0|0:0,0:0:0:0:
368,152,100965,1,2,0:0:0:0:
450,171,101127,2,0,L|493:181,2,38.5000011749268,10|0|0,0:0|0:0|0:0,0:0:0:0:
302,209,101451,2,0,L|258:195,2,38.5000011749268,10|0|0,0:0|0:0|0:0,0:0:0:0:
387,235,101776,6,0,L|360:121,2,115.50000352478,10|10|10,0:0|0:0|0:0,0:0:0:0:
281,125,102424,1,10,0:0:0:0:
431,88,102586,2,0,L|469:91,2,38.5000011749268,0|10|0,0:0|0:0|0:0,0:0:0:0:
347,70,102911,1,10,0:0:0:0:
281,125,103073,6,0,P|239:123|191:100,1,77.0000023498536,10|0,0:0|0:0,0:0:0:0:
133,67,103397,2,0,L|126:151,1,77.0000023498536,10|0,0:0|0:0,0:0:0:0:
36,155,103722,2,0,L|47:33,2,115.50000352478,10|10|10,0:0|0:0|0:0,0:0:0:0:
127,306,104370,6,0,L|133:220,1,77.0000023498536,10|0,0:0|0:0,0:0:0:0:
93,383,104695,1,10,0:0:0:0:
177,373,104857,2,0,L|233:367,2,38.5000011749268,0|0|10,0:0|0:0|0:0,0:0:0:0:
46,316,105181,1,0,0:0:0:0:
205,294,105343,2,0,P|244:299|279:323,1,77.0000023498536,10|0,0:0|0:0,0:0:0:0:
127,306,105668,6,0,L|133:220,1,77.0000023498536,10|0,0:0|0:0,0:0:0:0:
138,144,105992,1,10,0:0:0:0:
55,160,106154,2,0,L|-1:171,2,38.5000011749268,0|0|10,0:0|0:0|0:0,0:0:0:0:
216,178,106478,1,0,0:0:0:0:
75,75,106641,2,0,L|0:91,1,77.0000023498536,10|0,0:0|0:0,0:0:0:0:
155,29,106965,6,0,P|230:16|303:47,1,154.000004699707,10|10,0:0|0:0,0:0:0:0:
357,107,107451,1,0,0:0:0:0:
431,65,107614,2,0,P|440:107|431:147,1,77.0000023498536,10|0,0:0|0:0,0:0:0:0:
285,224,107938,2,0,P|276:182|285:142,1,77.0000023498536,10|0,0:0|0:0,0:0:0:0:
366,248,108262,6,0,P|285:239|225:277,1,154.000004699707,10|10,0:0|0:0,0:0:0:0:
179,347,108749,1,0,0:0:0:0:
98,319,108911,2,0,P|89:280|100:237,1,77.0000023498536,2|0,0:0|0:0,0:0:0:0:
144,174,109235,2,0,L|139:89,1,77.0000023498536,2|0,0:0|0:0,0:0:0:0:
94,25,109559,6,0,P|126:12|180:21,1,77.0000023498536,10|10,0:0|0:0,0:0:0:0:
248,42,109884,2,0,L|345:37,1,77.0000023498536,10|10,0:0|0:0,0:0:0:0:
406,15,110208,1,10,0:0:0:0:
465,75,110370,2,0,L|507:72,2,38.5000011749268,10|0|10,0:0|0:0|0:0,0:0:0:0:
383,99,110695,1,10,0:0:0:0:
383,99,110776,1,0,0:0:0:0:
383,99,110857,6,0,P|385:142|408:182,1,77.0000023498536,10|10,0:0|0:0,0:0:0:0:
449,240,111181,2,0,L|369:248,1,77.0000023498536,10|10,0:0|0:0,0:0:0:0:
290,226,111505,1,10,0:0:0:0:
257,304,111668,2,0,L|265:358,2,38.5000011749268,10|0|10,0:0|0:0|0:0,0:0:0:0:
225,170,111992,1,10,0:0:0:0:
225,170,112073,1,0,0:0:0:0:
225,170,112154,6,0,L|135:178,1,77.0000023498536,10|8,0:0|0:0,0:0:0:0:
28,243,112478,2,0,L|118:251,1,77.0000023498536,10|8,0:0|0:0,0:0:0:0:
189,256,112803,1,10,0:0:0:0:
62,155,112965,1,8,0:0:0:0:
62,155,113046,1,0,0:0:0:0:
62,155,113127,2,0,P|60:113|69:78,1,77.0000023498536,10|8,0:0|0:0,0:0:0:0:
127,19,113451,6,0,L|232:24,1,77.0000023498536,10|10,0:0|0:0,0:0:0:0:
279,62,113776,1,10,0:0:0:0:
350,17,113938,1,10,0:0:0:0:
427,50,114100,2,0,L|482:46,5,51.3333348999024,8|0|0|8|0|0,0:0|0:0|0:0|0:0|0:0|0:0,0:0:0:0:
276,147,115073,5,4,0:0:0:0:
256,192,115154,12,0,119938,0:0:0:0:
