osu file format v14

[General]
AudioFilename: XROSS INFECTION.mp3
AudioLeadIn: 0
PreviewTime: 71890
Countdown: 0
SampleSet: Normal
StackLeniency: 0.7
Mode: 1
LetterboxInBreaks: 0
WidescreenStoryboard: 1

[Editor]
Bookmarks: 15756
DistanceSpacing: 1.7
BeatDivisor: 4
GridSize: 32
TimelineZoom: 2.5

[Metadata]
Title:XROSS INFECTION
TitleUnicode:XROSS INFECTION
Artist:BlackY vs. Yooh
ArtistUnicode:BlackY vs. Yooh
Creator:ll-oscar
Version:ll-taiko
Source:SOUND VOLTEX II -infinite infection-
Tags:sdvx
BeatmapID:939191
BeatmapSetID:433685

[Difficulty]
HPDrainRate:5
CircleSize:5
OverallDifficulty:5
ApproachRate:5
SliderMultiplier:1.4
SliderTickRate:1

[Events]
//Background and Video events
0,0,"687474703a2f2f7075752e73682f634c5971722f663830643061373861322e6a7067.jpg",0,0
//Break Periods
//Storyboard Layer 0 (Background)
//Storyboard Layer 1 (Fail)
//Storyboard Layer 2 (Pass)
//Storyboard Layer 3 (Foreground)
//Storyboard Sound Samples

[TimingPoints]
1994,309.278350515464,4,1,0,90,1,0
32921,-100,4,1,0,70,0,0
62612,-100,4,1,0,70,0,0
67561,-100,4,1,0,80,0,0
68798,-100,4,1,0,90,0,0
72509,-100,4,1,0,90,0,1
92303,-100,4,1,0,90,0,0
94777,-100,4,1,0,90,0,1
114803,-100,4,1,0,90,0,0

[HitObjects]
256,192,1994,5,12,0:0:0:0:
256,192,3231,1,8,0:0:0:0:
256,192,4468,1,0,0:0:0:0:
256,192,6942,1,8,0:0:0:0:
256,192,9416,1,8,0:0:0:0:
256,192,11890,1,4,0:0:0:0:
256,192,13128,1,4,0:0:0:0:
256,192,13282,1,0,0:0:0:0:
256,192,13359,1,0,0:0:0:0:
256,192,13437,1,8,0:0:0:0:
256,192,13591,1,8,0:0:0:0:
256,192,13746,1,0,0:0:0:0:
256,192,13823,1,8,0:0:0:0:
256,192,13901,1,0,0:0:0:0:
256,160,13978,1,0,0:0:0:0:
256,192,14055,1,8,0:0:0:0:
256,192,14210,1,8,0:0:0:0:
256,176,14365,1,0,0:0:0:0:
240,176,14519,1,0,0:0:0:0:
256,176,14597,1,0,0:0:0:0:
256,176,14674,1,8,0:0:0:0:
256,176,14829,1,8,0:0:0:0:
256,176,14983,1,0,0:0:0:0:
256,176,15061,1,8,0:0:0:0:
256,176,15138,1,0,0:0:0:0:
256,176,15215,1,0,0:0:0:0:
256,176,15292,1,8,0:0:0:0:
256,176,15447,1,8,0:0:0:0:
240,192,15602,1,0,0:0:0:0:
256,192,15756,1,0,0:0:0:0:
256,192,15833,1,0,0:0:0:0:
256,192,15911,1,8,0:0:0:0:
256,192,16065,1,8,0:0:0:0:
256,192,16220,1,0,0:0:0:0:
256,192,16297,1,8,0:0:0:0:
256,192,16375,1,0,0:0:0:0:
256,160,16452,1,0,0:0:0:0:
256,192,16529,1,8,0:0:0:0:
256,192,16684,1,8,0:0:0:0:
256,176,16839,1,0,0:0:0:0:
256,176,16993,1,0,0:0:0:0:
256,176,17071,1,0,0:0:0:0:
256,176,17148,1,8,0:0:0:0:
256,176,17303,1,8,0:0:0:0:
256,176,17457,1,0,0:0:0:0:
256,176,17535,1,8,0:0:0:0:
256,176,17612,1,0,0:0:0:0:
256,176,17689,1,0,0:0:0:0:
256,176,17766,1,8,0:0:0:0:
256,176,17921,1,8,0:0:0:0:
272,176,18076,1,0,0:0:0:0:
256,176,18231,1,8,0:0:0:0:
256,176,18308,1,0,0:0:0:0:
256,176,18385,1,8,0:0:0:0:
256,176,18540,1,8,0:0:0:0:
256,176,18695,1,0,0:0:0:0:
256,176,18772,1,8,0:0:0:0:
256,176,18926,1,8,0:0:0:0:
256,176,19004,1,0,0:0:0:0:
256,176,19081,1,0,0:0:0:0:
256,176,19158,1,8,0:0:0:0:
256,176,19313,1,0,0:0:0:0:
256,176,19468,1,8,0:0:0:0:
256,176,19545,1,0,0:0:0:0:
256,176,19622,1,8,0:0:0:0:
256,176,19777,1,8,0:0:0:0:
256,176,19932,1,0,0:0:0:0:
256,176,20009,1,8,0:0:0:0:
256,176,20164,1,8,0:0:0:0:
256,176,20241,1,0,0:0:0:0:
256,176,20318,1,0,0:0:0:0:
256,176,20396,1,8,0:0:0:0:
256,176,20550,1,0,0:0:0:0:
256,176,20705,1,8,0:0:0:0:
256,176,20782,1,0,0:0:0:0:
256,176,20859,1,8,0:0:0:0:
256,176,21014,1,8,0:0:0:0:
256,176,21169,1,0,0:0:0:0:
256,176,21246,1,8,0:0:0:0:
256,176,21401,1,8,0:0:0:0:
256,176,21478,1,0,0:0:0:0:
256,176,21555,1,0,0:0:0:0:
256,176,21633,1,8,0:0:0:0:
256,176,21787,1,0,0:0:0:0:
256,176,21942,1,8,0:0:0:0:
256,176,22019,1,0,0:0:0:0:
256,176,22097,1,8,0:0:0:0:
256,176,22251,1,8,0:0:0:0:
256,176,22406,1,0,0:0:0:0:
256,176,22483,1,8,0:0:0:0:
256,176,22561,1,0,0:0:0:0:
256,176,22638,1,0,0:0:0:0:
256,176,22715,1,8,0:0:0:0:
256,176,22792,1,0,0:0:0:0:
256,176,22870,1,8,0:0:0:0:
272,176,23024,1,4,0:0:0:0:
272,160,23179,1,0,0:0:0:0:
272,176,23256,1,0,0:0:0:0:
272,176,23334,1,8,0:0:0:0:
272,176,23488,1,8,0:0:0:0:
272,176,23643,1,0,0:0:0:0:
272,176,23720,1,8,0:0:0:0:
288,160,23798,1,0,0:0:0:0:
272,160,23875,1,0,0:0:0:0:
272,160,23952,1,8,0:0:0:0:
272,176,24107,1,8,0:0:0:0:
272,176,24262,1,0,0:0:0:0:
272,176,24416,1,8,0:0:0:0:
272,176,24494,1,0,0:0:0:0:
272,176,24571,1,8,0:0:0:0:
256,176,24725,1,8,0:0:0:0:
256,176,24880,1,0,0:0:0:0:
256,176,24957,1,8,0:0:0:0:
256,176,25112,1,8,0:0:0:0:
256,176,25189,1,0,0:0:0:0:
256,176,25267,1,0,0:0:0:0:
256,176,25344,1,8,0:0:0:0:
256,176,25499,1,0,0:0:0:0:
272,160,25654,1,0,0:0:0:0:
272,176,25731,1,0,0:0:0:0:
272,176,25809,1,8,0:0:0:0:
272,176,25963,1,8,0:0:0:0:
272,176,26118,1,0,0:0:0:0:
272,176,26195,1,8,0:0:0:0:
256,176,26272,1,0,0:0:0:0:
272,176,26350,1,0,0:0:0:0:
272,176,26426,1,8,0:0:0:0:
272,176,26582,1,8,0:0:0:0:
272,176,26737,1,0,0:0:0:0:
240,176,26890,1,8,0:0:0:0:
272,176,26969,1,0,0:0:0:0:
272,176,27046,1,8,0:0:0:0:
256,176,27200,1,8,0:0:0:0:
256,176,27355,1,0,0:0:0:0:
256,176,27432,1,8,0:0:0:0:
256,176,27587,1,8,0:0:0:0:
256,176,27664,1,0,0:0:0:0:
256,176,27741,1,0,0:0:0:0:
256,176,27819,1,8,0:0:0:0:
272,176,27973,1,12,0:0:0:0:
256,192,28128,1,0,0:0:0:0:
256,176,28282,1,0,0:0:0:0:
240,176,28359,1,0,0:0:0:0:
256,160,28437,1,8,0:0:0:0:
240,176,28514,1,0,0:0:0:0:
256,176,28591,1,0,0:0:0:0:
256,176,28746,1,8,0:0:0:0:
240,176,28901,1,0,0:0:0:0:
240,192,28978,1,8,0:0:0:0:
240,176,29055,1,0,0:0:0:0:
240,176,29210,1,0,0:0:0:0:
240,176,29365,1,8,0:0:0:0:
240,176,29519,1,0,0:0:0:0:
256,176,29597,1,0,0:0:0:0:
240,176,29674,1,8,0:0:0:0:
240,176,29829,1,0,0:0:0:0:
240,176,29983,1,8,0:0:0:0:
256,160,30061,1,8,0:0:0:0:
240,160,30138,1,0,0:0:0:0:
224,160,30215,1,0,0:0:0:0:
240,160,30292,1,8,0:0:0:0:
208,160,30447,1,8,0:0:0:0:
224,160,30524,1,0,0:0:0:0:
224,160,30602,1,0,0:0:0:0:
224,160,30679,1,8,0:0:0:0:
224,160,30756,1,0,0:0:0:0:
224,160,30834,1,0,0:0:0:0:
224,160,30911,1,8,0:0:0:0:
224,160,30988,1,0,0:0:0:0:
224,160,31066,1,0,0:0:0:0:
224,160,31143,1,8,0:0:0:0:
224,144,31220,1,0,0:0:0:0:
224,144,31298,1,0,0:0:0:0:
224,144,31375,1,8,0:0:0:0:
224,160,31530,1,8,0:0:0:0:
224,144,31684,1,0,0:0:0:0:
224,160,31762,1,0,0:0:0:0:
224,160,31839,1,8,0:0:0:0:
224,160,31916,1,8,0:0:0:0:
224,160,31994,1,8,0:0:0:0:
224,160,32071,1,0,0:0:0:0:
224,160,32148,1,8,0:0:0:0:
224,160,32225,1,8,0:0:0:0:
224,160,32303,1,0,0:0:0:0:
224,160,32380,1,0,0:0:0:0:
224,144,32457,1,8,0:0:0:0:
224,160,32535,1,0,0:0:0:0:
224,160,32612,1,8,0:0:0:0:
224,160,32689,1,8,0:0:0:0:
224,160,32767,1,0,0:0:0:0:
224,160,32921,1,12,0:0:0:0:
224,160,33231,1,8,0:0:0:0:
240,144,33540,1,8,0:0:0:0:
240,144,33695,1,0,0:0:0:0:
240,144,33849,1,8,0:0:0:0:
224,128,34158,1,8,0:0:0:0:
256,128,34468,1,8,0:0:0:0:
224,128,34777,1,8,0:0:0:0:
256,128,34932,1,0,0:0:0:0:
256,128,35086,1,8,0:0:0:0:
288,128,35164,1,8,0:0:0:0:
288,160,35241,1,0,0:0:0:0:
224,128,35396,1,8,0:0:0:0:
256,128,35705,1,8,0:0:0:0:
256,128,35782,1,8,0:0:0:0:
256,128,35859,1,0,0:0:0:0:
224,128,36014,1,8,0:0:0:0:
256,128,36323,1,8,0:0:0:0:
256,128,36401,1,8,0:0:0:0:
256,128,36478,1,0,0:0:0:0:
224,128,36633,1,8,0:0:0:0:
224,128,36787,1,8,0:0:0:0:
256,128,36942,1,0,0:0:0:0:
256,128,37097,1,0,0:0:0:0:
224,128,37251,1,8,0:0:0:0:
256,128,37561,1,0,0:0:0:0:
256,128,37638,1,0,0:0:0:0:
256,128,37715,1,0,0:0:0:0:
192,160,37792,1,0,0:0:0:0:
224,160,37870,1,8,0:0:0:0:
224,160,38180,1,8,0:0:0:0:
240,144,38489,1,8,0:0:0:0:
240,144,38644,1,0,0:0:0:0:
240,144,38798,1,8,0:0:0:0:
224,128,39107,1,8,0:0:0:0:
224,128,39184,1,0,0:0:0:0:
224,128,39262,1,0,0:0:0:0:
256,128,39416,1,8,0:0:0:0:
224,128,39571,1,0,0:0:0:0:
224,128,39725,1,8,0:0:0:0:
224,128,39803,1,8,0:0:0:0:
224,128,39880,1,8,0:0:0:0:
256,128,40035,1,8,0:0:0:0:
288,160,40190,1,0,0:0:0:0:
224,128,40345,1,8,0:0:0:0:
256,128,40654,1,8,0:0:0:0:
256,128,40731,1,8,0:0:0:0:
256,128,40808,1,0,0:0:0:0:
224,128,40963,1,8,0:0:0:0:
256,128,41272,1,8,0:0:0:0:
256,128,41350,1,8,0:0:0:0:
256,128,41427,1,0,0:0:0:0:
224,128,41582,1,8,0:0:0:0:
224,128,41736,1,8,0:0:0:0:
256,128,41891,1,0,0:0:0:0:
256,128,42046,1,0,0:0:0:0:
224,128,42122,1,0,0:0:0:0:
224,128,42200,1,8,0:0:0:0:
224,128,42354,1,0,0:0:0:0:
256,128,42510,1,0,0:0:0:0:
256,128,42587,1,0,0:0:0:0:
256,128,42664,1,0,0:0:0:0:
192,160,42741,1,0,0:0:0:0:
384,352,42819,1,8,0:0:0:0:
224,128,43128,1,8,0:0:0:0:
224,128,43437,1,8,0:0:0:0:
224,128,43591,1,0,0:0:0:0:
224,128,43746,1,8,0:0:0:0:
224,160,44055,1,0,0:0:0:0:
224,160,44133,1,0,0:0:0:0:
224,160,44210,1,0,0:0:0:0:
224,160,44365,1,8,0:0:0:0:
224,160,44519,1,0,0:0:0:0:
224,160,44674,1,8,0:0:0:0:
224,160,44751,1,8,0:0:0:0:
224,160,44829,1,8,0:0:0:0:
224,160,44983,1,8,0:0:0:0:
224,160,45138,1,0,0:0:0:0:
224,160,45292,1,8,0:0:0:0:
224,160,45370,1,8,0:0:0:0:
224,160,45447,1,8,0:0:0:0:
224,160,45602,1,8,0:0:0:0:
224,160,45756,1,0,0:0:0:0:
224,160,45911,1,8,0:0:0:0:
224,160,46066,1,0,0:0:0:0:
224,160,46220,1,8,0:0:0:0:
224,160,46375,1,0,0:0:0:0:
224,160,46530,1,8,0:0:0:0:
224,160,46607,1,0,0:0:0:0:
224,160,46684,1,8,0:0:0:0:
224,160,46839,1,8,0:0:0:0:
224,160,46994,1,0,0:0:0:0:
224,160,47148,1,8,0:0:0:0:
224,160,47225,1,8,0:0:0:0:
224,160,47303,1,0,0:0:0:0:
224,160,47457,1,8,0:0:0:0:
224,160,47767,1,4,0:0:0:0:
224,160,47921,1,0,0:0:0:0:
224,160,48076,1,8,0:0:0:0:
224,160,48231,1,0,0:0:0:0:
192,160,48385,1,0,0:0:0:0:
192,160,48540,1,0,0:0:0:0:
192,160,48695,1,8,0:0:0:0:
192,128,48849,1,0,0:0:0:0:
192,128,49004,1,4,0:0:0:0:
192,128,49158,1,0,0:0:0:0:
192,128,49313,1,8,0:0:0:0:
192,128,49468,1,0,0:0:0:0:
192,128,49622,1,4,0:0:0:0:
192,128,49777,1,0,0:0:0:0:
192,128,49932,1,8,0:0:0:0:
192,128,50086,1,0,0:0:0:0:
192,128,50241,1,4,0:0:0:0:
192,128,50473,1,4,0:0:0:0:
192,128,50705,1,4,0:0:0:0:
192,128,50937,1,4,0:0:0:0:
192,128,51169,1,4,0:0:0:0:
192,128,51323,1,4,0:0:0:0:
192,128,51478,1,0,0:0:0:0:
192,128,51555,1,0,0:0:0:0:
192,128,51633,1,0,0:0:0:0:
192,128,51710,1,0,0:0:0:0:
192,128,51787,1,8,0:0:0:0:
192,128,51865,1,8,0:0:0:0:
192,128,51942,1,8,0:0:0:0:
192,128,52019,1,8,0:0:0:0:
192,128,52097,1,0,0:0:0:0:
192,128,52174,1,0,0:0:0:0:
192,128,52251,1,8,0:0:0:0:
192,128,52329,1,0,0:0:0:0:
192,128,52406,1,8,0:0:0:0:
192,128,52483,1,8,0:0:0:0:
192,128,52561,1,0,0:0:0:0:
192,128,52715,1,12,0:0:0:0:
192,128,52947,1,12,0:0:0:0:
192,128,53179,1,4,0:0:0:0:
192,128,53411,1,4,0:0:0:0:
160,128,53643,1,0,0:0:0:0:
160,128,53798,1,8,0:0:0:0:
160,128,53952,1,0,0:0:0:0:
160,96,54107,1,0,0:0:0:0:
160,96,54184,1,0,0:0:0:0:
160,96,54262,1,8,0:0:0:0:
160,96,54416,1,0,0:0:0:0:
160,96,54494,1,8,0:0:0:0:
160,96,54648,1,0,0:0:0:0:
160,96,54725,1,8,0:0:0:0:
160,96,54880,1,0,0:0:0:0:
160,128,54957,1,0,0:0:0:0:
160,96,55035,1,8,0:0:0:0:
160,96,55189,1,12,0:0:0:0:
160,96,55421,1,12,0:0:0:0:
160,96,55653,1,4,0:0:0:0:
160,96,55885,1,4,0:0:0:0:
160,96,56117,1,8,0:0:0:0:
160,96,56272,1,0,0:0:0:0:
192,96,56426,1,8,0:0:0:0:
192,96,56581,1,0,0:0:0:0:
192,96,56658,1,0,0:0:0:0:
192,96,56736,1,8,0:0:0:0:
160,128,56890,1,0,0:0:0:0:
192,96,56968,1,8,0:0:0:0:
160,96,57045,1,0,0:0:0:0:
192,96,57200,1,8,0:0:0:0:
160,96,57277,1,0,0:0:0:0:
192,96,57354,1,8,0:0:0:0:
160,96,57432,1,8,0:0:0:0:
160,96,57509,1,0,0:0:0:0:
160,96,57664,1,12,0:0:0:0:
160,96,57896,1,12,0:0:0:0:
160,96,58128,1,4,0:0:0:0:
160,96,58359,1,4,0:0:0:0:
160,96,58591,1,0,0:0:0:0:
224,128,58669,1,0,0:0:0:0:
160,96,58746,1,8,0:0:0:0:
192,128,58901,1,4,0:0:0:0:
160,96,59133,1,4,0:0:0:0:
160,96,59365,1,12,0:0:0:0:
160,96,59597,1,12,0:0:0:0:
160,96,59829,1,8,0:0:0:0:
160,96,59906,1,8,0:0:0:0:
160,96,59983,1,0,0:0:0:0:
160,96,60138,1,12,0:0:0:0:
160,96,60370,1,12,0:0:0:0:
192,160,60602,1,0,0:0:0:0:
160,96,60756,1,12,0:0:0:0:
192,128,60988,1,12,0:0:0:0:
160,128,61220,1,0,0:0:0:0:
192,128,61298,1,0,0:0:0:0:
192,128,61375,1,8,0:0:0:0:
192,128,61452,1,8,0:0:0:0:
192,128,61530,1,0,0:0:0:0:
192,128,61607,1,8,0:0:0:0:
192,128,61684,1,8,0:0:0:0:
192,128,61762,1,8,0:0:0:0:
192,128,61839,1,0,0:0:0:0:
192,128,61916,1,0,0:0:0:0:
192,128,61994,1,8,0:0:0:0:
192,128,62071,1,0,0:0:0:0:
192,128,62148,1,0,0:0:0:0:
192,128,62225,1,0,0:0:0:0:
160,128,62303,1,8,0:0:0:0:
160,128,62380,1,8,0:0:0:0:
160,128,62457,1,0,0:0:0:0:
192,128,62612,1,8,0:0:0:0:
192,128,62844,1,8,0:0:0:0:
192,128,63076,1,0,0:0:0:0:
160,128,63308,1,0,0:0:0:0:
160,128,63385,1,0,0:0:0:0:
160,128,63463,1,8,0:0:0:0:
160,128,63540,1,8,0:0:0:0:
160,128,63695,1,0,0:0:0:0:
160,128,63849,1,8,0:0:0:0:
160,128,64004,1,0,0:0:0:0:
192,160,64081,1,0,0:0:0:0:
160,128,64236,1,0,0:0:0:0:
192,160,64313,1,0,0:0:0:0:
192,160,64390,1,0,0:0:0:0:
192,160,64468,1,8,0:0:0:0:
160,128,64622,1,0,0:0:0:0:
160,128,64700,1,8,0:0:0:0:
160,128,64854,1,0,0:0:0:0:
160,128,64932,1,8,0:0:0:0:
192,128,65086,1,8,0:0:0:0:
128,128,65318,1,8,0:0:0:0:
128,128,65550,1,0,0:0:0:0:
160,128,65782,1,0,0:0:0:0:
192,128,65859,1,8,0:0:0:0:
160,128,65937,1,0,0:0:0:0:
160,128,66014,1,0,0:0:0:0:
160,128,66169,1,8,0:0:0:0:
192,128,66323,1,0,0:0:0:0:
192,128,66478,1,0,0:0:0:0:
192,128,66555,1,0,0:0:0:0:
192,128,66633,1,8,0:0:0:0:
192,128,66787,1,0,0:0:0:0:
192,128,66865,1,0,0:0:0:0:
192,128,66942,1,8,0:0:0:0:
192,128,67097,1,0,0:0:0:0:
192,128,67174,1,8,0:0:0:0:
160,128,67329,1,0,0:0:0:0:
160,128,67406,1,8,0:0:0:0:
160,128,67561,1,4,0:0:0:0:
160,128,67715,1,0,0:0:0:0:
160,128,67792,1,0,0:0:0:0:
160,128,67870,1,8,0:0:0:0:
160,128,68024,1,0,0:0:0:0:
160,128,68102,1,8,0:0:0:0:
160,128,68179,1,0,0:0:0:0:
160,128,68256,1,0,0:0:0:0:
160,128,68334,1,8,0:0:0:0:
160,128,68488,1,8,0:0:0:0:
160,128,68643,1,8,0:0:0:0:
192,128,68798,1,4,0:0:0:0:
160,128,68952,1,0,0:0:0:0:
160,128,69030,1,0,0:0:0:0:
160,128,69107,1,8,0:0:0:0:
160,128,69262,1,0,0:0:0:0:
160,128,69339,1,8,0:0:0:0:
160,128,69416,1,8,0:0:0:0:
160,128,69494,1,0,0:0:0:0:
160,128,69571,1,8,0:0:0:0:
160,128,69725,1,8,0:0:0:0:
160,128,69880,1,0,0:0:0:0:
160,128,70035,1,0,0:0:0:0:
160,128,70112,1,0,0:0:0:0:
160,128,70189,1,8,0:0:0:0:
160,128,70267,1,0,0:0:0:0:
160,128,70344,1,8,0:0:0:0:
160,128,70499,1,0,0:0:0:0:
160,128,70576,1,0,0:0:0:0:
160,128,70653,1,0,0:0:0:0:
160,128,70731,1,0,0:0:0:0:
160,128,70808,1,8,0:0:0:0:
160,128,70885,1,0,0:0:0:0:
160,128,70963,1,8,0:0:0:0:
160,128,71040,1,8,0:0:0:0:
160,128,71117,1,0,0:0:0:0:
160,128,71272,1,4,0:0:0:0:
160,128,71890,1,0,0:0:0:0:
160,128,72200,1,0,0:0:0:0:
160,128,72509,1,12,0:0:0:0:
160,128,72664,1,8,0:0:0:0:
160,128,72818,1,0,0:0:0:0:
160,128,72973,1,8,0:0:0:0:
160,128,73050,1,0,0:0:0:0:
160,128,73205,1,0,0:0:0:0:
160,128,73282,1,8,0:0:0:0:
160,128,73437,1,8,0:0:0:0:
160,128,73591,1,0,0:0:0:0:
160,128,73669,1,8,0:0:0:0:
160,128,73746,1,0,0:0:0:0:
160,128,73901,1,0,0:0:0:0:
160,128,74055,1,8,0:0:0:0:
160,128,74210,1,0,0:0:0:0:
160,128,74287,1,0,0:0:0:0:
160,128,74365,1,8,0:0:0:0:
160,128,74519,1,0,0:0:0:0:
160,128,74597,1,8,0:0:0:0:
160,128,74751,1,0,0:0:0:0:
160,128,74829,1,0,0:0:0:0:
160,128,74906,1,8,0:0:0:0:
160,128,74983,1,8,0:0:0:0:
128,96,75138,1,8,0:0:0:0:
128,96,75292,1,8,0:0:0:0:
160,128,75447,1,8,0:0:0:0:
160,128,75524,1,0,0:0:0:0:
160,128,75679,1,0,0:0:0:0:
160,128,75756,1,8,0:0:0:0:
160,128,75911,1,0,0:0:0:0:
160,128,76066,1,0,0:0:0:0:
160,128,76143,1,8,0:0:0:0:
160,128,76220,1,8,0:0:0:0:
160,128,76375,1,8,0:0:0:0:
160,128,76530,1,8,0:0:0:0:
160,128,76607,1,8,0:0:0:0:
160,128,76684,1,0,0:0:0:0:
160,128,76839,1,8,0:0:0:0:
224,192,76994,1,8,0:0:0:0:
160,128,77148,1,8,0:0:0:0:
160,128,77457,1,8,0:0:0:0:
160,128,77612,1,0,0:0:0:0:
288,192,77767,1,8,0:0:0:0:
256,192,77921,1,0,0:0:0:0:
256,192,77999,1,8,0:0:0:0:
256,192,78153,1,0,0:0:0:0:
256,192,78231,1,8,0:0:0:0:
256,192,78385,1,8,0:0:0:0:
256,192,78540,1,8,0:0:0:0:
256,192,78617,1,8,0:0:0:0:
256,192,78695,1,0,0:0:0:0:
256,192,78849,1,0,0:0:0:0:
256,192,78926,1,8,0:0:0:0:
256,192,79004,1,0,0:0:0:0:
256,192,79158,1,0,0:0:0:0:
256,192,79236,1,0,0:0:0:0:
256,192,79313,1,8,0:0:0:0:
256,192,79390,1,8,0:0:0:0:
256,192,79468,1,0,0:0:0:0:
256,192,79545,1,8,0:0:0:0:
256,192,79622,1,0,0:0:0:0:
256,192,79777,1,8,0:0:0:0:
256,192,79932,1,8,0:0:0:0:
224,160,80009,1,0,0:0:0:0:
256,192,80086,1,8,0:0:0:0:
256,192,80241,1,0,0:0:0:0:
256,192,80396,1,8,0:0:0:0:
256,192,80550,1,0,0:0:0:0:
224,224,80628,1,0,0:0:0:0:
256,192,80782,1,8,0:0:0:0:
256,192,80859,1,0,0:0:0:0:
256,224,80937,1,0,0:0:0:0:
256,192,81014,1,8,0:0:0:0:
256,192,81169,1,8,0:0:0:0:
256,160,81246,1,8,0:0:0:0:
256,192,81323,1,8,0:0:0:0:
224,192,81478,1,0,0:0:0:0:
256,192,81555,1,0,0:0:0:0:
256,192,81633,1,0,0:0:0:0:
256,192,81787,1,0,0:0:0:0:
256,192,81865,1,0,0:0:0:0:
256,192,81942,1,8,0:0:0:0:
256,192,82019,1,0,0:0:0:0:
256,192,82097,1,8,0:0:0:0:
256,192,82174,1,0,0:0:0:0:
256,192,82251,1,8,0:0:0:0:
256,192,82406,1,12,0:0:0:0:
256,192,82561,1,8,0:0:0:0:
256,192,82715,1,0,0:0:0:0:
256,192,82792,1,0,0:0:0:0:
256,192,82870,1,0,0:0:0:0:
256,192,83024,1,8,0:0:0:0:
256,192,83179,1,8,0:0:0:0:
256,192,83334,1,0,0:0:0:0:
256,192,83411,1,0,0:0:0:0:
256,192,83488,1,0,0:0:0:0:
256,192,83643,1,8,0:0:0:0:
256,192,83798,1,8,0:0:0:0:
256,192,83952,1,8,0:0:0:0:
224,192,84107,1,0,0:0:0:0:
224,192,84184,1,8,0:0:0:0:
224,192,84339,1,8,0:0:0:0:
224,192,84416,1,0,0:0:0:0:
224,192,84571,1,0,0:0:0:0:
224,160,84725,1,8,0:0:0:0:
224,224,84880,1,8,0:0:0:0:
224,192,84957,1,0,0:0:0:0:
224,224,85035,1,8,0:0:0:0:
224,224,85189,1,0,0:0:0:0:
224,192,85267,1,8,0:0:0:0:
224,224,85344,1,0,0:0:0:0:
224,192,85421,1,0,0:0:0:0:
224,224,85499,1,8,0:0:0:0:
224,192,85653,1,0,0:0:0:0:
224,224,85808,1,0,0:0:0:0:
224,224,85885,1,0,0:0:0:0:
224,224,85963,1,8,0:0:0:0:
224,224,86117,1,12,0:0:0:0:
224,224,86349,1,4,0:0:0:0:
224,224,86581,1,12,0:0:0:0:
224,224,86736,1,12,0:0:0:0:
224,192,87045,1,0,0:0:0:0:
224,192,87354,1,4,0:0:0:0:
224,192,87509,1,8,0:0:0:0:
224,192,87586,1,8,0:0:0:0:
224,192,87664,1,8,0:0:0:0:
192,192,87818,1,0,0:0:0:0:
192,192,87896,1,8,0:0:0:0:
192,192,87973,1,8,0:0:0:0:
192,192,88050,1,0,0:0:0:0:
192,192,88128,1,8,0:0:0:0:
192,192,88282,1,0,0:0:0:0:
192,192,88437,1,8,0:0:0:0:
192,192,88591,1,8,0:0:0:0:
224,192,88669,1,8,0:0:0:0:
192,192,88746,1,0,0:0:0:0:
192,192,88901,1,8,0:0:0:0:
224,192,88978,1,0,0:0:0:0:
224,192,89055,1,0,0:0:0:0:
224,192,89133,1,8,0:0:0:0:
224,192,89210,1,0,0:0:0:0:
224,192,89287,1,0,0:0:0:0:
192,160,89365,1,8,0:0:0:0:
224,192,89519,1,0,0:0:0:0:
192,192,89674,1,8,0:0:0:0:
192,192,89829,1,8,0:0:0:0:
192,224,89906,1,0,0:0:0:0:
192,192,89983,1,8,0:0:0:0:
192,192,90061,1,8,0:0:0:0:
192,192,90138,1,0,0:0:0:0:
192,192,90215,1,0,0:0:0:0:
192,192,90292,1,0,0:0:0:0:
192,192,90447,1,8,0:0:0:0:
224,192,90524,1,0,0:0:0:0:
192,224,90602,1,8,0:0:0:0:
192,224,90679,1,8,0:0:0:0:
192,192,90756,1,0,0:0:0:0:
192,192,90834,1,0,0:0:0:0:
192,192,90911,1,0,0:0:0:0:
192,224,91066,1,12,0:0:0:0:
192,224,91298,1,12,0:0:0:0:
192,224,91530,1,12,0:0:0:0:
192,224,91762,1,12,0:0:0:0:
192,224,91994,1,12,0:0:0:0:
192,224,92148,1,12,0:0:0:0:
192,224,92303,1,4,0:0:0:0:
192,224,93540,1,0,0:0:0:0:
192,224,93617,1,0,0:0:0:0:
192,224,93695,1,0,0:0:0:0:
192,224,93772,1,0,0:0:0:0:
192,224,93849,1,8,0:0:0:0:
192,224,93926,1,8,0:0:0:0:
160,224,94004,1,0,0:0:0:0:
160,224,94081,1,8,0:0:0:0:
192,224,94158,1,0,0:0:0:0:
192,192,94210,1,0,0:0:0:0:
192,192,94262,1,0,0:0:0:0:
192,192,94313,1,0,0:0:0:0:
192,192,94365,1,0,0:0:0:0:
192,192,94416,1,0,0:0:0:0:
192,224,94468,1,8,0:0:0:0:
224,192,94777,1,12,0:0:0:0:
160,192,94932,1,0,0:0:0:0:
128,224,95009,1,0,0:0:0:0:
160,192,95086,1,8,0:0:0:0:
160,192,95241,1,8,0:0:0:0:
160,192,95396,1,0,0:0:0:0:
128,224,95473,1,8,0:0:0:0:
128,224,95550,1,0,0:0:0:0:
128,224,95628,1,0,0:0:0:0:
160,192,95705,1,8,0:0:0:0:
160,192,95859,1,0,0:0:0:0:
128,224,96014,1,8,0:0:0:0:
160,192,96169,1,0,0:0:0:0:
128,192,96246,1,0,0:0:0:0:
160,192,96323,1,8,0:0:0:0:
128,192,96401,1,8,0:0:0:0:
160,192,96478,1,0,0:0:0:0:
192,192,96633,1,0,0:0:0:0:
128,192,96710,1,0,0:0:0:0:
160,192,96787,1,8,0:0:0:0:
160,192,96942,1,8,0:0:0:0:
128,192,97019,1,8,0:0:0:0:
160,192,97097,1,0,0:0:0:0:
160,192,97251,1,8,0:0:0:0:
160,192,97406,1,8,0:0:0:0:
160,192,97561,1,0,0:0:0:0:
160,192,97715,1,0,0:0:0:0:
160,192,97792,1,8,0:0:0:0:
160,192,98024,1,8,0:0:0:0:
192,224,98179,1,8,0:0:0:0:
128,224,98256,1,0,0:0:0:0:
128,192,98334,1,0,0:0:0:0:
128,192,98488,1,0,0:0:0:0:
128,192,98643,1,0,0:0:0:0:
128,192,98798,1,8,0:0:0:0:
128,192,98952,1,0,0:0:0:0:
128,192,99030,1,0,0:0:0:0:
160,192,99184,1,0,0:0:0:0:
128,192,99262,1,0,0:0:0:0:
128,224,99416,1,0,0:0:0:0:
128,192,99725,1,8,0:0:0:0:
128,192,99803,1,8,0:0:0:0:
128,192,99880,1,0,0:0:0:0:
128,192,99957,1,8,0:0:0:0:
128,192,100035,1,8,0:0:0:0:
128,192,100112,1,0,0:0:0:0:
128,192,100189,1,8,0:0:0:0:
128,192,100267,1,8,0:0:0:0:
128,192,100344,1,0,0:0:0:0:
128,192,100421,1,8,0:0:0:0:
128,192,100499,1,8,0:0:0:0:
128,192,100576,1,0,0:0:0:0:
128,192,100653,1,8,0:0:0:0:
128,192,100731,1,8,0:0:0:0:
128,192,100808,1,0,0:0:0:0:
128,192,100885,1,8,0:0:0:0:
128,192,100963,1,8,0:0:0:0:
128,192,101040,1,0,0:0:0:0:
128,192,101117,1,8,0:0:0:0:
128,192,101195,1,8,0:0:0:0:
128,192,101272,1,0,0:0:0:0:
160,160,101349,1,0,0:0:0:0:
128,192,101426,1,8,0:0:0:0:
160,192,101581,1,8,0:0:0:0:
160,192,101658,1,0,0:0:0:0:
128,192,101736,1,0,0:0:0:0:
192,192,101813,1,8,0:0:0:0:
128,192,101890,1,0,0:0:0:0:
128,224,101968,1,0,0:0:0:0:
160,192,102045,1,8,0:0:0:0:
160,192,102200,1,8,0:0:0:0:
160,192,102277,1,8,0:0:0:0:
160,192,102354,1,8,0:0:0:0:
160,192,102509,1,0,0:0:0:0:
160,192,102664,1,8,0:0:0:0:
160,192,102818,1,8,0:0:0:0:
160,192,102973,1,0,0:0:0:0:
160,192,103050,1,0,0:0:0:0:
160,192,103128,1,8,0:0:0:0:
160,192,103282,1,0,0:0:0:0:
160,192,103437,1,0,0:0:0:0:
160,192,103514,1,8,0:0:0:0:
160,192,103591,1,8,0:0:0:0:
160,192,103669,1,0,0:0:0:0:
160,192,103746,1,0,0:0:0:0:
160,192,103823,1,8,0:0:0:0:
160,192,103901,1,8,0:0:0:0:
128,192,103978,1,0,0:0:0:0:
160,192,104055,1,8,0:0:0:0:
160,192,104210,1,0,0:0:0:0:
160,224,104365,1,8,0:0:0:0:
128,224,104519,1,8,0:0:0:0:
128,224,104674,1,12,0:0:0:0:
160,224,104829,1,8,0:0:0:0:
160,192,104983,1,0,0:0:0:0:
160,192,105138,1,8,0:0:0:0:
160,192,105292,1,0,0:0:0:0:
160,192,105370,1,8,0:0:0:0:
160,192,105447,1,0,0:0:0:0:
160,192,105524,1,0,0:0:0:0:
160,192,105602,1,0,0:0:0:0:
160,192,105756,1,8,0:0:0:0:
160,192,105911,1,0,0:0:0:0:
192,192,105988,1,0,0:0:0:0:
160,192,106066,1,8,0:0:0:0:
64,160,106220,1,8,0:0:0:0:
160,192,106375,1,0,0:0:0:0:
160,192,106530,1,0,0:0:0:0:
128,192,106607,1,0,0:0:0:0:
128,192,106684,1,0,0:0:0:0:
128,192,106762,1,0,0:0:0:0:
160,192,106839,1,8,0:0:0:0:
160,192,107148,1,8,0:0:0:0:
160,192,107303,1,8,0:0:0:0:
160,192,107457,1,0,0:0:0:0:
160,192,107612,1,8,0:0:0:0:
160,192,107767,1,0,0:0:0:0:
128,192,107844,1,0,0:0:0:0:
160,192,107999,1,8,0:0:0:0:
128,192,108076,1,8,0:0:0:0:
160,192,108231,1,0,0:0:0:0:
160,192,108385,1,8,0:0:0:0:
160,192,108540,1,8,0:0:0:0:
160,192,108695,1,8,0:0:0:0:
160,192,108849,1,0,0:0:0:0:
160,192,109004,1,0,0:0:0:0:
128,192,109081,1,8,0:0:0:0:
160,192,109158,1,0,0:0:0:0:
160,192,109236,1,0,0:0:0:0:
160,192,109313,1,8,0:0:0:0:
160,192,109468,1,8,0:0:0:0:
160,192,109545,1,0,0:0:0:0:
160,192,109622,1,8,0:0:0:0:
160,192,109777,1,0,0:0:0:0:
160,192,109932,1,8,0:0:0:0:
160,192,110009,1,0,0:0:0:0:
160,192,110086,1,0,0:0:0:0:
160,192,110241,1,0,0:0:0:0:
160,192,110396,1,8,0:0:0:0:
160,192,110550,1,0,0:0:0:0:
160,192,110705,1,0,0:0:0:0:
160,192,110782,1,8,0:0:0:0:
160,192,110859,1,0,0:0:0:0:
160,224,111014,1,8,0:0:0:0:
128,160,111091,1,8,0:0:0:0:
160,192,111169,1,0,0:0:0:0:
160,192,111323,1,8,0:0:0:0:
128,160,111401,1,8,0:0:0:0:
160,192,111478,1,0,0:0:0:0:
160,192,111633,1,8,0:0:0:0:
128,160,111710,1,8,0:0:0:0:
160,192,111787,1,0,0:0:0:0:
160,192,111942,1,0,0:0:0:0:
160,192,112097,1,8,0:0:0:0:
160,160,112174,1,0,0:0:0:0:
160,160,112251,1,0,0:0:0:0:
160,192,112329,1,8,0:0:0:0:
160,160,112406,1,0,0:0:0:0:
160,160,112483,1,0,0:0:0:0:
160,160,112561,1,8,0:0:0:0:
160,160,112638,1,0,0:0:0:0:
160,160,112715,1,0,0:0:0:0:
160,192,112792,1,8,0:0:0:0:
160,160,112870,1,0,0:0:0:0:
160,160,112947,1,0,0:0:0:0:
160,192,113024,1,8,0:0:0:0:
158,174,113179,1,8,0:0:0:0:
160,192,113334,1,8,0:0:0:0:
160,192,113411,1,0,0:0:0:0:
160,192,113488,1,0,0:0:0:0:
160,192,113566,1,0,0:0:0:0:
160,192,113643,1,8,0:0:0:0:
160,192,113720,1,0,0:0:0:0:
160,192,113798,1,8,0:0:0:0:
160,192,113875,1,8,0:0:0:0:
160,192,113952,1,8,0:0:0:0:
160,192,114030,1,0,0:0:0:0:
160,192,114107,1,8,0:0:0:0:
160,192,114184,1,8,0:0:0:0:
160,192,114262,1,8,0:0:0:0:
160,192,114339,1,0,0:0:0:0:
160,192,114416,1,8,0:0:0:0:
160,192,114571,1,12,0:0:0:0:
160,192,114803,1,12,0:0:0:0:
