osu file format v13

[General]
AudioFilename: [SDVX II ] XROSS INFECTION [EXH].mp3
AudioLeadIn: 0
PreviewTime: 72141
Countdown: 0
SampleSet: Soft
StackLeniency: 0.7
Mode: 3
LetterboxInBreaks: 0
SpecialStyle: 0
WidescreenStoryboard: 1

[Editor]
DistanceSpacing: 0.8
BeatDivisor: 4
GridSize: 8
TimelineZoom: 1

[Metadata]
Title:XROSS INFECTION
TitleUnicode:XROSS INFECTION
Artist:BlackY vs. Yooh
ArtistUnicode:BlackY vs. Yooh
Creator:TBLKitten
Version:4K ADVANCED
Source:SOUND VOLTEX II -infinite infection-
Tags:SDVX konami bemani sound voltex
BeatmapID:514310
BeatmapSetID:219650

[Difficulty]
HPDrainRate:4.6
CircleSize:4
OverallDifficulty:5.5
ApproachRate:5
SliderMultiplier:1.4
SliderTickRate:1

[Events]
//Background and Video events
0,0,"fantasy-planet-surface.jpg",0,0
//Break Periods
//Storyboard Layer 0 (Background)
//Storyboard Layer 1 (Fail)
//Storyboard Layer 2 (Pass)
//Storyboard Layer 3 (Foreground)
//Storyboard Sound Samples
//Background Colour Transformations
3,100,163,162,255

[TimingPoints]
2245,309.278350515464,4,2,0,5,1,0
13379,-100,4,2,0,5,0,1
33172,-100,4,2,0,5,0,0
72451,-100,4,2,0,5,0,1
77708,-100,4,2,0,5,0,0
95028,-100,4,2,0,5,0,1
102451,-100,4,2,0,5,0,0

[HitObjects]
320,192,2245,128,0,3482:0:0:0:0:
448,192,2245,1,0,0:0:0:0:
192,192,2245,1,0,0:0:0:0:
192,192,3482,128,0,4719:0:0:0:0:
448,192,3482,1,0,0:0:0:0:
64,192,3482,1,0,0:0:0:0:
448,192,4719,1,0,0:0:0:0:
320,192,4719,1,0,0:0:0:0:
64,192,4719,1,0,0:0:0:0:
64,192,7193,1,0,0:0:0:0:
320,192,7193,1,0,0:0:0:0:
448,192,7193,128,0,9668:0:0:0:0:
64,192,9667,1,0,0:0:0:0:
320,192,9667,1,0,0:0:0:0:
192,192,9667,128,0,12141:0:0:0:0:
448,192,10904,128,0,12141:0:0:0:0:
64,192,12141,1,0,0:0:0:0:
320,192,12141,1,0,0:0:0:0:
64,192,13069,1,0,0:0:0:0:
320,192,13069,1,0,0:0:0:0:
192,192,13379,1,0,0:0:0:0:
320,192,13533,1,0,0:0:0:0:
448,192,13688,1,0,0:0:0:0:
320,192,13842,1,0,0:0:0:0:
192,192,13997,1,0,0:0:0:0:
320,192,14152,1,0,0:0:0:0:
448,192,14306,1,0,0:0:0:0:
320,192,14461,1,0,0:0:0:0:
192,192,14616,1,0,0:0:0:0:
320,192,14770,1,0,0:0:0:0:
448,192,14925,1,0,0:0:0:0:
320,192,15080,1,0,0:0:0:0:
192,192,15234,1,0,0:0:0:0:
64,192,15389,1,0,0:0:0:0:
192,192,15543,1,0,0:0:0:0:
320,192,15698,1,0,0:0:0:0:
192,192,15853,1,0,0:0:0:0:
64,192,16007,1,0,0:0:0:0:
192,192,16162,1,0,0:0:0:0:
320,192,16317,1,0,0:0:0:0:
192,192,16471,1,0,0:0:0:0:
64,192,16626,1,0,0:0:0:0:
192,192,16781,1,0,0:0:0:0:
320,192,16935,1,0,0:0:0:0:
192,192,17090,1,0,0:0:0:0:
448,192,17245,1,0,0:0:0:0:
320,192,17399,1,0,0:0:0:0:
192,192,17554,1,0,0:0:0:0:
64,192,17708,128,0,18017:0:0:0:0:
448,192,18018,128,0,18327:0:0:0:0:
320,192,18327,1,0,0:0:0:0:
192,192,18482,1,0,0:0:0:0:
320,192,18636,1,0,0:0:0:0:
192,192,18791,1,0,0:0:0:0:
64,192,18946,1,0,0:0:0:0:
448,192,19100,1,0,0:0:0:0:
64,192,19255,1,0,0:0:0:0:
448,192,19409,1,0,0:0:0:0:
64,192,19564,1,0,0:0:0:0:
320,192,19719,1,0,0:0:0:0:
64,192,19873,1,0,0:0:0:0:
320,192,20028,1,0,0:0:0:0:
448,192,20183,1,0,0:0:0:0:
320,192,20337,1,0,0:0:0:0:
448,192,20492,1,0,0:0:0:0:
320,192,20647,1,0,0:0:0:0:
192,192,20801,1,0,0:0:0:0:
64,192,20956,1,0,0:0:0:0:
192,192,21110,1,0,0:0:0:0:
64,192,21265,1,0,0:0:0:0:
192,192,21420,1,0,0:0:0:0:
448,192,21574,1,0,0:0:0:0:
192,192,21729,1,0,0:0:0:0:
448,192,21884,1,0,0:0:0:0:
320,192,22038,1,0,0:0:0:0:
192,192,22193,1,0,0:0:0:0:
320,192,22348,1,0,0:0:0:0:
192,192,22502,1,0,0:0:0:0:
64,192,22657,128,0,22967:0:0:0:0:
320,192,22657,128,0,22967:0:0:0:0:
192,192,22966,128,0,23275:0:0:0:0:
448,192,22966,128,0,23275:0:0:0:0:
64,192,23275,1,0,0:0:0:0:
320,192,23275,1,0,0:0:0:0:
192,192,23585,128,0,23894:0:0:0:0:
64,192,23894,1,0,0:0:0:0:
320,192,23894,1,0,0:0:0:0:
192,192,24203,128,0,24512:0:0:0:0:
64,192,24513,1,0,0:0:0:0:
320,192,24513,1,0,0:0:0:0:
192,192,24822,128,0,25132:0:0:0:0:
64,192,25131,1,0,0:0:0:0:
320,192,25131,1,0,0:0:0:0:
320,192,25440,128,0,25749:0:0:0:0:
192,192,25750,1,0,0:0:0:0:
448,192,25750,1,0,0:0:0:0:
320,192,26059,128,0,26369:0:0:0:0:
192,192,26368,1,0,0:0:0:0:
448,192,26368,1,0,0:0:0:0:
320,192,26677,128,0,26986:0:0:0:0:
192,192,26987,1,0,0:0:0:0:
448,192,26987,1,0,0:0:0:0:
320,192,27296,128,0,27605:0:0:0:0:
192,192,27605,1,0,0:0:0:0:
448,192,27605,1,0,0:0:0:0:
320,192,27915,1,0,0:0:0:0:
192,192,28069,1,0,0:0:0:0:
64,192,28224,1,0,0:0:0:0:
192,192,28379,1,0,0:0:0:0:
320,192,28533,1,0,0:0:0:0:
192,192,28688,1,0,0:0:0:0:
320,192,28842,1,0,0:0:0:0:
448,192,28997,1,0,0:0:0:0:
320,192,29152,1,0,0:0:0:0:
192,192,29306,1,0,0:0:0:0:
64,192,29461,1,0,0:0:0:0:
192,192,29616,1,0,0:0:0:0:
320,192,29925,1,0,0:0:0:0:
448,192,30234,1,0,0:0:0:0:
320,192,30389,1,0,0:0:0:0:
192,192,30543,1,0,0:0:0:0:
64,192,30698,1,0,0:0:0:0:
64,192,30853,1,0,0:0:0:0:
192,192,30930,1,0,0:0:0:0:
192,192,31085,1,0,0:0:0:0:
320,192,31162,1,0,0:0:0:0:
320,192,31317,1,0,0:0:0:0:
448,192,31394,1,0,0:0:0:0:
448,192,31549,1,0,0:0:0:0:
320,192,31626,1,0,0:0:0:0:
192,192,31781,1,0,0:0:0:0:
64,192,31935,1,0,0:0:0:0:
192,192,32013,1,0,0:0:0:0:
320,192,32090,1,0,0:0:0:0:
448,192,32167,1,0,0:0:0:0:
320,192,32245,1,0,0:0:0:0:
192,192,32322,1,0,0:0:0:0:
64,192,32399,1,0,0:0:0:0:
192,192,32476,1,0,0:0:0:0:
320,192,32554,1,0,0:0:0:0:
448,192,32631,1,0,0:0:0:0:
320,192,32708,1,0,0:0:0:0:
192,192,32786,1,0,0:0:0:0:
64,192,32863,1,0,0:0:0:0:
320,192,33172,128,0,34409:0:0:0:0:
192,192,34409,128,0,35027:0:0:0:0:
64,192,35028,128,0,35647:0:0:0:0:
448,192,35647,128,0,36266:0:0:0:0:
320,192,36265,128,0,36883:0:0:0:0:
192,192,36884,128,0,37503:0:0:0:0:
64,192,37502,128,0,38120:0:0:0:0:
192,192,38121,128,0,38740:0:0:0:0:
320,192,38739,128,0,39048:0:0:0:0:
448,192,39049,128,0,39358:0:0:0:0:
320,192,39358,128,0,39977:0:0:0:0:
192,192,39976,128,0,40594:0:0:0:0:
64,192,40595,128,0,41369:0:0:0:0:
448,192,41368,128,0,41522:0:0:0:0:
320,192,41523,128,0,41678:0:0:0:0:
192,192,41677,128,0,41832:0:0:0:0:
64,192,41832,128,0,41986:0:0:0:0:
192,192,41987,128,0,42451:0:0:0:0:
320,192,42451,128,0,42760:0:0:0:0:
448,192,42451,128,0,42760:0:0:0:0:
64,192,42760,1,0,0:0:0:0:
192,192,42760,128,0,43070:0:0:0:0:
64,192,43069,128,0,44306:0:0:0:0:
192,192,44306,128,0,44924:0:0:0:0:
320,192,44925,128,0,45544:0:0:0:0:
448,192,45543,128,0,46780:0:0:0:0:
320,192,46781,128,0,48018:0:0:0:0:
192,192,48018,128,0,48946:0:0:0:0:
320,192,48172,1,0,0:0:0:0:
320,192,48327,1,0,0:0:0:0:
320,192,48482,1,0,0:0:0:0:
320,192,48636,1,0,0:0:0:0:
320,192,48791,1,0,0:0:0:0:
320,192,48946,1,0,0:0:0:0:
320,192,49255,1,0,0:0:0:0:
64,192,49255,128,0,50183:0:0:0:0:
320,192,49409,1,0,0:0:0:0:
320,192,49564,1,0,0:0:0:0:
320,192,49719,1,0,0:0:0:0:
320,192,49873,1,0,0:0:0:0:
320,192,50028,1,0,0:0:0:0:
320,192,50183,1,0,0:0:0:0:
64,192,50492,1,0,0:0:0:0:
192,192,50492,1,0,0:0:0:0:
320,192,50724,1,0,0:0:0:0:
448,192,50724,1,0,0:0:0:0:
64,192,50956,1,0,0:0:0:0:
192,192,50956,1,0,0:0:0:0:
448,192,51188,1,0,0:0:0:0:
320,192,51188,1,0,0:0:0:0:
192,192,51420,1,0,0:0:0:0:
320,192,51420,1,0,0:0:0:0:
320,192,51729,1,0,0:0:0:0:
192,192,51729,128,0,52966:0:0:0:0:
448,192,52348,1,0,0:0:0:0:
320,192,52425,1,0,0:0:0:0:
448,192,52502,1,0,0:0:0:0:
320,192,52580,1,0,0:0:0:0:
448,192,52657,1,0,0:0:0:0:
64,192,52966,1,0,0:0:0:0:
320,192,52966,1,0,0:0:0:0:
192,192,53198,1,0,0:0:0:0:
448,192,53198,1,0,0:0:0:0:
64,192,53430,1,0,0:0:0:0:
320,192,53430,1,0,0:0:0:0:
448,192,53739,1,0,0:0:0:0:
320,192,53894,1,0,0:0:0:0:
192,192,54049,1,0,0:0:0:0:
64,192,54203,1,0,0:0:0:0:
192,192,54358,1,0,0:0:0:0:
64,192,54513,1,0,0:0:0:0:
192,192,54667,1,0,0:0:0:0:
64,192,54822,1,0,0:0:0:0:
192,192,54976,1,0,0:0:0:0:
320,192,55131,1,0,0:0:0:0:
448,192,55286,1,0,0:0:0:0:
64,192,55440,1,0,0:0:0:0:
192,192,55440,1,0,0:0:0:0:
320,192,55672,1,0,0:0:0:0:
448,192,55672,1,0,0:0:0:0:
64,192,55904,1,0,0:0:0:0:
192,192,55904,1,0,0:0:0:0:
64,192,56136,1,0,0:0:0:0:
192,192,56214,1,0,0:0:0:0:
320,192,56368,1,0,0:0:0:0:
448,192,56523,1,0,0:0:0:0:
320,192,56677,1,0,0:0:0:0:
192,192,56832,1,0,0:0:0:0:
320,192,56987,1,0,0:0:0:0:
192,192,57141,1,0,0:0:0:0:
64,192,57296,1,0,0:0:0:0:
448,192,57451,1,0,0:0:0:0:
64,192,57605,1,0,0:0:0:0:
448,192,57760,1,0,0:0:0:0:
192,192,57915,128,0,58147:0:0:0:0:
320,192,57915,128,0,58147:0:0:0:0:
448,192,58147,128,0,58379:0:0:0:0:
64,192,58147,128,0,58379:0:0:0:0:
192,192,58379,1,0,0:0:0:0:
320,192,58379,1,0,0:0:0:0:
64,192,58688,1,0,0:0:0:0:
192,192,58765,1,0,0:0:0:0:
320,192,58842,1,0,0:0:0:0:
320,192,59152,1,0,0:0:0:0:
448,192,59152,1,0,0:0:0:0:
192,192,59384,1,0,0:0:0:0:
320,192,59384,1,0,0:0:0:0:
64,192,59616,1,0,0:0:0:0:
192,192,59616,1,0,0:0:0:0:
192,192,59848,1,0,0:0:0:0:
320,192,59848,1,0,0:0:0:0:
320,192,60080,1,0,0:0:0:0:
448,192,60080,1,0,0:0:0:0:
192,192,60234,1,0,0:0:0:0:
64,192,60389,1,0,0:0:0:0:
320,192,60389,1,0,0:0:0:0:
192,192,60698,128,0,61007:0:0:0:0:
320,192,61007,1,0,0:0:0:0:
448,192,61007,1,0,0:0:0:0:
192,192,61239,1,0,0:0:0:0:
320,192,61239,1,0,0:0:0:0:
64,192,61626,1,0,0:0:0:0:
192,192,61703,1,0,0:0:0:0:
320,192,61781,1,0,0:0:0:0:
448,192,61935,1,0,0:0:0:0:
320,192,62090,1,0,0:0:0:0:
192,192,62245,1,0,0:0:0:0:
320,192,62399,1,0,0:0:0:0:
192,192,62554,1,0,0:0:0:0:
64,192,62708,1,0,0:0:0:0:
320,192,62863,128,0,63094:0:0:0:0:
448,192,63095,128,0,63327:0:0:0:0:
320,192,63327,128,0,63559:0:0:0:0:
192,192,63559,1,0,0:0:0:0:
64,192,63636,1,0,0:0:0:0:
192,192,63791,1,0,0:0:0:0:
320,192,63946,1,0,0:0:0:0:
448,192,64100,1,0,0:0:0:0:
320,192,64255,1,0,0:0:0:0:
448,192,64409,1,0,0:0:0:0:
320,192,64564,1,0,0:0:0:0:
192,192,64719,1,0,0:0:0:0:
64,192,64873,1,0,0:0:0:0:
192,192,65028,1,0,0:0:0:0:
320,192,65183,1,0,0:0:0:0:
192,192,65337,128,0,65569:0:0:0:0:
64,192,65569,128,0,65801:0:0:0:0:
192,192,65801,128,0,65955:0:0:0:0:
320,192,65956,1,0,0:0:0:0:
448,192,66033,1,0,0:0:0:0:
320,192,66110,1,0,0:0:0:0:
448,192,66188,1,0,0:0:0:0:
320,192,66265,1,0,0:0:0:0:
192,192,66420,1,0,0:0:0:0:
320,192,66420,1,0,0:0:0:0:
192,192,66574,1,0,0:0:0:0:
64,192,66652,1,0,0:0:0:0:
192,192,66729,1,0,0:0:0:0:
64,192,66806,1,0,0:0:0:0:
192,192,66884,1,0,0:0:0:0:
192,192,67038,1,0,0:0:0:0:
320,192,67038,1,0,0:0:0:0:
448,192,67348,1,0,0:0:0:0:
320,192,67502,1,0,0:0:0:0:
64,192,67657,1,0,0:0:0:0:
320,192,67812,1,0,0:0:0:0:
448,192,67812,128,0,69049:0:0:0:0:
320,192,67966,1,0,0:0:0:0:
320,192,68121,1,0,0:0:0:0:
320,192,68275,1,0,0:0:0:0:
320,192,68430,1,0,0:0:0:0:
320,192,68585,1,0,0:0:0:0:
320,192,68739,1,0,0:0:0:0:
320,192,68894,1,0,0:0:0:0:
64,192,69049,1,0,0:0:0:0:
192,192,69049,128,0,70132:0:0:0:0:
64,192,69203,1,0,0:0:0:0:
64,192,69358,1,0,0:0:0:0:
64,192,69513,1,0,0:0:0:0:
64,192,69667,1,0,0:0:0:0:
64,192,69822,1,0,0:0:0:0:
64,192,69976,1,0,0:0:0:0:
64,192,70131,1,0,0:0:0:0:
320,192,70286,1,0,0:0:0:0:
448,192,70286,1,0,0:0:0:0:
192,192,70440,1,0,0:0:0:0:
64,192,70595,1,0,0:0:0:0:
192,192,70750,1,0,0:0:0:0:
320,192,70904,1,0,0:0:0:0:
448,192,70904,1,0,0:0:0:0:
192,192,71059,1,0,0:0:0:0:
64,192,71214,1,0,0:0:0:0:
192,192,71368,1,0,0:0:0:0:
320,192,71523,1,0,0:0:0:0:
448,192,71523,1,0,0:0:0:0:
448,192,72141,1,0,0:0:0:0:
192,192,72141,1,0,0:0:0:0:
64,192,72451,1,0,0:0:0:0:
320,192,72451,1,0,0:0:0:0:
192,192,72760,1,0,0:0:0:0:
320,192,72760,1,0,0:0:0:0:
64,192,72915,1,0,0:0:0:0:
320,192,73069,1,0,0:0:0:0:
448,192,73069,1,0,0:0:0:0:
192,192,73224,1,0,0:0:0:0:
320,192,73379,1,0,0:0:0:0:
448,192,73533,1,0,0:0:0:0:
64,192,73688,1,0,0:0:0:0:
320,192,73688,1,0,0:0:0:0:
192,192,73842,1,0,0:0:0:0:
320,192,73997,1,0,0:0:0:0:
64,192,74152,1,0,0:0:0:0:
320,192,74306,1,0,0:0:0:0:
192,192,74306,1,0,0:0:0:0:
320,192,74461,1,0,0:0:0:0:
64,192,74616,1,0,0:0:0:0:
448,192,74770,1,0,0:0:0:0:
64,192,74925,1,0,0:0:0:0:
192,192,74925,1,0,0:0:0:0:
320,192,75080,1,0,0:0:0:0:
448,192,75234,1,0,0:0:0:0:
192,192,75389,1,0,0:0:0:0:
320,192,75543,1,0,0:0:0:0:
448,192,75543,1,0,0:0:0:0:
192,192,75698,1,0,0:0:0:0:
64,192,75853,1,0,0:0:0:0:
320,192,76007,1,0,0:0:0:0:
192,192,76162,1,0,0:0:0:0:
448,192,76162,1,0,0:0:0:0:
320,192,76317,1,0,0:0:0:0:
448,192,76471,128,0,76625:0:0:0:0:
320,192,76626,128,0,76781:0:0:0:0:
192,192,76781,128,0,76936:0:0:0:0:
64,192,76935,128,0,77089:0:0:0:0:
192,192,77090,128,0,77400:0:0:0:0:
320,192,77399,1,0,0:0:0:0:
320,192,77708,1,0,0:0:0:0:
64,192,77863,1,0,0:0:0:0:
192,192,78018,1,0,0:0:0:0:
320,192,78172,1,0,0:0:0:0:
448,192,78250,1,0,0:0:0:0:
320,192,78482,1,0,0:0:0:0:
64,192,78636,1,0,0:0:0:0:
192,192,78791,1,0,0:0:0:0:
448,192,78946,1,0,0:0:0:0:
320,192,78946,1,0,0:0:0:0:
320,192,79255,1,0,0:0:0:0:
192,192,79255,1,0,0:0:0:0:
64,192,79564,1,0,0:0:0:0:
320,192,79641,1,0,0:0:0:0:
64,192,79719,1,0,0:0:0:0:
192,192,79873,1,0,0:0:0:0:
320,192,80028,1,0,0:0:0:0:
448,192,80183,1,0,0:0:0:0:
320,192,80337,1,0,0:0:0:0:
192,192,80492,1,0,0:0:0:0:
64,192,80647,1,0,0:0:0:0:
192,192,80801,1,0,0:0:0:0:
320,192,80801,1,0,0:0:0:0:
448,192,81033,1,0,0:0:0:0:
64,192,81033,1,0,0:0:0:0:
192,192,81265,1,0,0:0:0:0:
320,192,81265,1,0,0:0:0:0:
64,192,81420,1,0,0:0:0:0:
192,192,81574,1,0,0:0:0:0:
320,192,81574,1,0,0:0:0:0:
448,192,81729,1,0,0:0:0:0:
192,192,81884,1,0,0:0:0:0:
320,192,81884,1,0,0:0:0:0:
64,192,82038,128,0,82192:0:0:0:0:
192,192,82193,128,0,82348:0:0:0:0:
320,192,82348,128,0,82503:0:0:0:0:
448,192,82502,128,0,82656:0:0:0:0:
320,192,82657,1,0,0:0:0:0:
192,192,82657,1,0,0:0:0:0:
64,192,82812,1,0,0:0:0:0:
320,192,82966,1,0,0:0:0:0:
448,192,83121,1,0,0:0:0:0:
192,192,83275,1,0,0:0:0:0:
320,192,83275,1,0,0:0:0:0:
64,192,83430,1,0,0:0:0:0:
320,192,83585,1,0,0:0:0:0:
448,192,83739,1,0,0:0:0:0:
192,192,83894,1,0,0:0:0:0:
320,192,83894,1,0,0:0:0:0:
64,192,84049,1,0,0:0:0:0:
320,192,84203,1,0,0:0:0:0:
448,192,84358,1,0,0:0:0:0:
320,192,84513,1,0,0:0:0:0:
192,192,84667,1,0,0:0:0:0:
320,192,84822,1,0,0:0:0:0:
448,192,84976,1,0,0:0:0:0:
192,192,85131,1,0,0:0:0:0:
64,192,85286,1,0,0:0:0:0:
320,192,85440,1,0,0:0:0:0:
192,192,85595,1,0,0:0:0:0:
448,192,85750,1,0,0:0:0:0:
320,192,85904,1,0,0:0:0:0:
192,192,86059,1,0,0:0:0:0:
448,192,86214,1,0,0:0:0:0:
320,192,86368,1,0,0:0:0:0:
192,192,86600,1,0,0:0:0:0:
448,192,86832,1,0,0:0:0:0:
320,192,86987,1,0,0:0:0:0:
64,192,87296,1,0,0:0:0:0:
448,192,87296,1,0,0:0:0:0:
192,192,87605,1,0,0:0:0:0:
320,192,87760,1,0,0:0:0:0:
192,192,87915,1,0,0:0:0:0:
320,192,88069,1,0,0:0:0:0:
448,192,88224,1,0,0:0:0:0:
320,192,88379,1,0,0:0:0:0:
448,192,88533,1,0,0:0:0:0:
320,192,88688,1,0,0:0:0:0:
192,192,88842,1,0,0:0:0:0:
64,192,88997,1,0,0:0:0:0:
192,192,89152,1,0,0:0:0:0:
64,192,89306,1,0,0:0:0:0:
192,192,89384,1,0,0:0:0:0:
320,192,89616,1,0,0:0:0:0:
448,192,89770,1,0,0:0:0:0:
192,192,89925,1,0,0:0:0:0:
192,192,90080,1,0,0:0:0:0:
320,192,90080,1,0,0:0:0:0:
64,192,90234,1,0,0:0:0:0:
192,192,90389,1,0,0:0:0:0:
320,192,90543,1,0,0:0:0:0:
320,192,90698,1,0,0:0:0:0:
448,192,90698,1,0,0:0:0:0:
64,192,90853,1,0,0:0:0:0:
192,192,91007,1,0,0:0:0:0:
320,192,91162,1,0,0:0:0:0:
320,192,91317,1,0,0:0:0:0:
448,192,91317,1,0,0:0:0:0:
320,192,91549,1,0,0:0:0:0:
192,192,91549,1,0,0:0:0:0:
64,192,91781,1,0,0:0:0:0:
192,192,91781,1,0,0:0:0:0:
192,192,92013,1,0,0:0:0:0:
320,192,92013,1,0,0:0:0:0:
320,192,92245,1,0,0:0:0:0:
448,192,92245,1,0,0:0:0:0:
64,192,92399,1,0,0:0:0:0:
192,192,92399,1,0,0:0:0:0:
64,192,94719,1,0,0:0:0:0:
192,192,94719,1,0,0:0:0:0:
320,192,94719,1,0,0:0:0:0:
448,192,94719,1,0,0:0:0:0:
64,192,95028,128,0,96420:0:0:0:0:
448,192,95028,128,0,96420:0:0:0:0:
320,192,96420,1,0,0:0:0:0:
192,192,96574,1,0,0:0:0:0:
320,192,96729,1,0,0:0:0:0:
448,192,96884,1,0,0:0:0:0:
320,192,97038,1,0,0:0:0:0:
192,192,97193,1,0,0:0:0:0:
64,192,97348,1,0,0:0:0:0:
192,192,97502,1,0,0:0:0:0:
320,192,97657,1,0,0:0:0:0:
192,192,97812,1,0,0:0:0:0:
448,192,97966,1,0,0:0:0:0:
320,192,98043,1,0,0:0:0:0:
320,192,98198,1,0,0:0:0:0:
448,192,98275,1,0,0:0:0:0:
192,192,98430,1,0,0:0:0:0:
320,192,98585,1,0,0:0:0:0:
64,192,98739,1,0,0:0:0:0:
192,192,98894,1,0,0:0:0:0:
320,192,99049,1,0,0:0:0:0:
448,192,99281,1,0,0:0:0:0:
64,192,99667,1,0,0:0:0:0:
448,192,99667,1,0,0:0:0:0:
320,192,99822,1,0,0:0:0:0:
448,192,99976,128,0,100208:0:0:0:0:
64,192,99976,128,0,100208:0:0:0:0:
192,192,100208,128,0,100440:0:0:0:0:
320,192,100208,128,0,100440:0:0:0:0:
448,192,100440,128,0,100672:0:0:0:0:
64,192,100440,128,0,100672:0:0:0:0:
320,192,100672,1,0,0:0:0:0:
192,192,100672,128,0,100904:0:0:0:0:
320,192,100904,128,0,101136:0:0:0:0:
64,192,100904,128,0,101136:0:0:0:0:
448,192,101136,1,0,0:0:0:0:
192,192,101136,128,0,101368:0:0:0:0:
320,192,101368,1,0,0:0:0:0:
448,192,101368,1,0,0:0:0:0:
192,192,101600,1,0,0:0:0:0:
64,192,101600,128,0,101832:0:0:0:0:
320,192,101832,1,0,0:0:0:0:
192,192,101832,128,0,102064:0:0:0:0:
320,192,102064,1,0,0:0:0:0:
448,192,102064,1,0,0:0:0:0:
64,192,102296,1,0,0:0:0:0:
192,192,102451,1,0,0:0:0:0:
320,192,102451,1,0,0:0:0:0:
320,192,102605,1,0,0:0:0:0:
320,192,102760,1,0,0:0:0:0:
64,192,102915,1,0,0:0:0:0:
192,192,103069,1,0,0:0:0:0:
320,192,103069,1,0,0:0:0:0:
320,192,103224,1,0,0:0:0:0:
320,192,103379,1,0,0:0:0:0:
448,192,103533,1,0,0:0:0:0:
64,192,103688,1,0,0:0:0:0:
192,192,103765,1,0,0:0:0:0:
320,192,103842,1,0,0:0:0:0:
448,192,103920,1,0,0:0:0:0:
320,192,103997,1,0,0:0:0:0:
192,192,104074,1,0,0:0:0:0:
64,192,104152,1,0,0:0:0:0:
192,192,104229,1,0,0:0:0:0:
320,192,104306,1,0,0:0:0:0:
448,192,104384,1,0,0:0:0:0:
320,192,104461,1,0,0:0:0:0:
192,192,104538,1,0,0:0:0:0:
64,192,104616,1,0,0:0:0:0:
192,192,104770,1,0,0:0:0:0:
320,192,104925,1,0,0:0:0:0:
448,192,105080,1,0,0:0:0:0:
320,192,105234,1,0,0:0:0:0:
192,192,105389,1,0,0:0:0:0:
320,192,105543,1,0,0:0:0:0:
448,192,105621,1,0,0:0:0:0:
320,192,105698,1,0,0:0:0:0:
192,192,105853,1,0,0:0:0:0:
64,192,106007,1,0,0:0:0:0:
192,192,106162,1,0,0:0:0:0:
64,192,106317,1,0,0:0:0:0:
320,192,106471,1,0,0:0:0:0:
448,192,106626,1,0,0:0:0:0:
192,192,106781,128,0,107090:0:0:0:0:
320,192,107090,128,0,109874:0:0:0:0:
448,192,107399,1,0,0:0:0:0:
192,192,107554,1,0,0:0:0:0:
64,192,107708,1,0,0:0:0:0:
192,192,108018,1,0,0:0:0:0:
448,192,108250,1,0,0:0:0:0:
64,192,108482,1,0,0:0:0:0:
192,192,108636,1,0,0:0:0:0:
192,192,108791,1,0,0:0:0:0:
448,192,108946,1,0,0:0:0:0:
448,192,109100,1,0,0:0:0:0:
192,192,109255,1,0,0:0:0:0:
64,192,109564,128,0,109873:0:0:0:0:
448,192,109873,1,0,0:0:0:0:
192,192,109873,1,0,0:0:0:0:
192,192,110028,1,0,0:0:0:0:
320,192,110028,128,0,110956:0:0:0:0:
192,192,110183,1,0,0:0:0:0:
192,192,110337,1,0,0:0:0:0:
192,192,110492,1,0,0:0:0:0:
192,192,110647,1,0,0:0:0:0:
192,192,110801,1,0,0:0:0:0:
192,192,110956,1,0,0:0:0:0:
64,192,111110,1,0,0:0:0:0:
448,192,111110,128,0,112347:0:0:0:0:
64,192,111265,1,0,0:0:0:0:
64,192,111420,1,0,0:0:0:0:
64,192,111574,1,0,0:0:0:0:
64,192,111729,1,0,0:0:0:0:
64,192,111884,1,0,0:0:0:0:
64,192,112038,1,0,0:0:0:0:
64,192,112193,1,0,0:0:0:0:
64,192,112348,1,0,0:0:0:0:
192,192,112425,1,0,0:0:0:0:
320,192,112502,1,0,0:0:0:0:
448,192,112580,1,0,0:0:0:0:
320,192,112657,1,0,0:0:0:0:
192,192,112734,1,0,0:0:0:0:
64,192,112812,1,0,0:0:0:0:
192,192,112889,1,0,0:0:0:0:
320,192,112966,1,0,0:0:0:0:
448,192,113043,1,0,0:0:0:0:
320,192,113121,1,0,0:0:0:0:
192,192,113198,1,0,0:0:0:0:
64,192,113275,1,0,0:0:0:0:
192,192,113353,1,0,0:0:0:0:
320,192,113430,1,0,0:0:0:0:
448,192,113507,1,0,0:0:0:0:
320,192,113585,1,0,0:0:0:0:
192,192,113662,1,0,0:0:0:0:
320,192,113739,1,0,0:0:0:0:
192,192,113817,1,0,0:0:0:0:
320,192,113894,1,0,0:0:0:0:
192,192,113971,1,0,0:0:0:0:
64,192,114049,1,0,0:0:0:0:
192,192,114126,1,0,0:0:0:0:
64,192,114203,1,0,0:0:0:0:
192,192,114281,1,0,0:0:0:0:
320,192,114358,1,0,0:0:0:0:
448,192,114435,1,0,0:0:0:0:
320,192,114513,1,0,0:0:0:0:
192,192,114590,1,0,0:0:0:0:
64,192,114667,1,0,0:0:0:0:
192,192,114745,1,0,0:0:0:0:
320,192,114822,1,0,0:0:0:0:
192,192,115054,128,0,116214:0:0:0:0:
320,192,115054,128,0,116214:0:0:0:0:
