osu file format v14

[General]
AudioFilename: BlackY vs. Yooh - Happy Voice.mp3
AudioLeadIn: 0
PreviewTime: 66548
Countdown: 0
SampleSet: Soft
StackLeniency: 0.7
Mode: 3
LetterboxInBreaks: 0
SpecialStyle: 0
WidescreenStoryboard: 0

[Editor]
DistanceSpacing: 0.5
BeatDivisor: 4
GridSize: 32
TimelineZoom: 2.1

[Metadata]
Title:Happy Voice
TitleUnicode:Happy Voice
Artist:BlackY vs. Yooh
ArtistUnicode:BlackY vs. Yooh
Creator:game rock
Version:NM
Source:
Tags:HAPPY HARDCORE TANO*C & SKETCH UP!Rec. Powerful DJ Genki REVOLUTION OF HAPPY? #01 ArcherLove
BeatmapID:1214567
BeatmapSetID:573298

[Difficulty]
HPDrainRate:7
CircleSize:4
OverallDifficulty:7
ApproachRate:5
SliderMultiplier:1.4
SliderTickRate:1

[Events]
//Background and Video events
0,0,"Background-1.jpg",0,0
//Break Periods
//Storyboard Layer 0 (Background)
//Storyboard Layer 1 (Fail)
//Storyboard Layer 2 (Pass)
//Storyboard Layer 3 (Foreground)
//Storyboard Sound Samples

[TimingPoints]
720,342.857142857143,4,2,1,50,1,0
66548,-100,4,2,1,50,0,1
87120,-100,4,2,1,50,0,0
88491,-100,4,2,1,50,0,1
110434,-100,4,2,1,50,0,0

[HitObjects]
64,192,719,5,0,0:0:0:0:
448,192,719,1,2,0:0:0:0:
320,192,891,1,0,0:0:0:0:
64,192,1062,1,2,0:0:0:0:
192,192,1234,1,0,0:0:0:0:
448,192,1405,1,2,0:0:0:0:
320,192,1577,1,0,0:0:0:0:
192,192,1748,1,2,0:0:0:0:
64,192,1920,1,0,0:0:0:0:
448,192,2091,1,0,0:0:0:0:
320,192,2091,1,2,0:0:0:0:
192,192,2262,1,0,0:0:0:0:
64,192,2434,1,2,0:0:0:0:
448,192,2605,1,0,0:0:0:0:
192,192,2777,1,2,0:0:0:0:
320,192,2948,1,0,0:0:0:0:
448,192,3120,1,2,0:0:0:0:
64,192,3291,1,0,0:0:0:0:
320,192,3462,1,2,0:0:0:0:
192,192,3462,1,0,0:0:0:0:
448,192,3634,1,0,0:0:0:0:
64,192,3805,1,2,0:0:0:0:
320,192,3977,1,0,0:0:0:0:
192,192,4148,1,2,0:0:0:0:
448,192,4320,1,0,0:0:0:0:
320,192,4491,1,2,0:0:0:0:
192,192,4662,1,0,0:0:0:0:
448,192,4834,1,2,0:0:0:0:
64,192,4834,1,0,0:0:0:0:
320,192,5005,1,0,0:0:0:0:
64,192,5177,1,2,0:0:0:0:
448,192,5348,1,0,0:0:0:0:
192,192,5520,1,2,0:0:0:0:
320,192,5691,1,0,0:0:0:0:
64,192,5862,1,2,0:0:0:0:
192,192,6034,1,0,0:0:0:0:
320,192,6205,1,2,0:0:0:0:
448,192,6205,1,0,0:0:0:0:
64,192,6377,1,0,0:0:0:0:
320,192,6548,1,2,0:0:0:0:
192,192,6720,1,0,0:0:0:0:
448,192,6891,1,2,0:0:0:0:
320,192,7062,1,0,0:0:0:0:
192,192,7234,1,2,0:0:0:0:
64,192,7405,1,0,0:0:0:0:
320,192,7577,1,2,0:0:0:0:
448,192,7577,1,0,0:0:0:0:
192,192,7748,1,0,0:0:0:0:
64,192,7920,1,2,0:0:0:0:
448,192,8091,1,0,0:0:0:0:
192,192,8262,1,2,0:0:0:0:
320,192,8434,1,0,0:0:0:0:
448,192,8605,1,2,0:0:0:0:
64,192,8777,1,0,0:0:0:0:
320,192,8948,1,2,0:0:0:0:
192,192,8948,1,0,0:0:0:0:
448,192,9120,1,0,0:0:0:0:
64,192,9291,1,2,0:0:0:0:
320,192,9462,1,0,0:0:0:0:
192,192,9634,1,2,0:0:0:0:
448,192,9805,1,0,0:0:0:0:
320,192,9977,1,2,0:0:0:0:
192,192,10148,1,0,0:0:0:0:
64,192,10320,1,0,0:0:0:0:
448,192,10320,1,2,0:0:0:0:
320,192,10491,1,0,0:0:0:0:
192,192,10662,1,2,0:0:0:0:
448,192,10834,1,0,0:0:0:0:
320,192,11005,128,0,11348:0:0:0:0:
64,192,11005,1,2,0:0:0:0:
192,192,11348,128,0,11691:0:0:0:0:
64,192,11691,5,4,0:0:0:0:
448,192,11691,1,8,0:0:0:0:
64,192,12034,1,0,0:0:0:0:
192,192,12034,1,8,0:0:0:0:
320,192,12377,1,8,0:0:0:0:
448,192,12377,1,0,0:0:0:0:
64,192,12720,1,0,0:0:0:0:
192,192,12720,1,8,0:0:0:0:
320,192,12891,1,8,0:0:0:0:
448,192,13062,1,8,0:0:0:0:
192,192,13062,1,0,0:0:0:0:
64,192,13234,1,8,0:0:0:0:
320,192,13405,1,8,0:0:0:0:
448,192,13491,1,8,0:0:0:0:
192,192,13491,1,0,0:0:0:0:
64,192,13748,1,0,0:0:0:0:
192,192,13748,1,8,0:0:0:0:
320,192,14005,1,8,0:0:0:0:
448,192,14091,1,8,0:0:0:0:
192,192,14091,1,0,0:0:0:0:
64,192,14262,1,8,0:0:0:0:
192,192,14434,1,8,0:0:0:0:
320,192,14434,1,0,0:0:0:0:
320,192,14777,1,8,0:0:0:0:
448,192,14777,1,0,0:0:0:0:
64,192,15120,1,0,0:0:0:0:
192,192,15120,1,8,0:0:0:0:
320,192,15462,1,8,0:0:0:0:
448,192,15462,1,0,0:0:0:0:
192,192,15634,1,8,0:0:0:0:
64,192,15805,1,8,0:0:0:0:
320,192,15805,1,0,0:0:0:0:
448,192,15977,1,8,0:0:0:0:
192,192,16148,1,8,0:0:0:0:
64,192,16234,1,0,0:0:0:0:
320,192,16234,1,8,0:0:0:0:
320,192,16491,128,0,16834:0:0:0:0:
448,192,16491,1,8,0:0:0:0:
192,192,16834,128,0,17177:0:0:0:0:
64,192,16834,1,8,0:0:0:0:
64,192,17177,1,0,0:0:0:0:
448,192,17177,1,8,0:0:0:0:
320,192,17348,1,2,0:0:0:0:
64,192,17520,1,8,0:0:0:0:
192,192,17691,1,2,0:0:0:0:
448,192,17862,1,8,0:0:0:0:
320,192,17862,1,0,0:0:0:0:
64,192,18034,1,2,0:0:0:0:
320,192,18205,1,8,0:0:0:0:
64,192,18377,1,2,0:0:0:0:
192,192,18548,1,0,0:0:0:0:
320,192,18548,1,8,0:0:0:0:
448,192,18720,1,2,0:0:0:0:
192,192,18891,1,8,0:0:0:0:
320,192,19062,1,2,0:0:0:0:
192,192,19234,1,0,0:0:0:0:
64,192,19234,1,8,0:0:0:0:
448,192,19405,1,2,0:0:0:0:
64,192,19577,1,8,0:0:0:0:
448,192,19748,1,2,0:0:0:0:
192,192,19920,1,8,0:0:0:0:
64,192,19920,128,0,21291:0:0:0:0:
320,192,20091,1,2,0:0:0:0:
448,192,20262,1,8,0:0:0:0:
320,192,20434,1,2,0:0:0:0:
192,192,20605,1,8,0:0:0:0:
448,192,20777,1,2,0:0:0:0:
320,192,20948,1,8,0:0:0:0:
192,192,21120,1,2,0:0:0:0:
448,192,21291,128,0,22320:0:0:0:0:
320,192,21291,1,8,0:0:0:0:
192,192,21462,1,2,0:0:0:0:
64,192,21634,1,2,0:0:0:0:
320,192,21805,1,2,0:0:0:0:
192,192,21977,1,2,0:0:0:0:
64,192,22148,1,2,0:0:0:0:
192,192,22320,1,8,0:0:0:0:
320,192,22320,128,0,22662:0:0:0:0:
448,192,22662,1,8,1:0:0:0:
64,192,22662,128,6,24034:0:0:0:0:
192,192,23005,1,0,0:0:0:0:
320,192,23348,1,0,0:0:0:0:
448,192,23691,1,0,0:0:0:0:
320,192,24034,128,8,25405:1:0:0:0:
64,192,24377,1,0,0:0:0:0:
192,192,24720,1,0,0:0:0:0:
64,192,25062,1,0,0:0:0:0:
192,192,25405,128,8,26777:1:0:0:0:
448,192,25748,1,0,0:0:0:0:
320,192,26091,1,0,0:0:0:0:
64,192,26434,1,0,0:0:0:0:
320,192,26777,128,8,27462:1:0:0:0:
64,192,27120,1,0,0:0:0:0:
448,192,27462,128,8,28148:1:0:0:0:
192,192,27805,1,0,0:0:0:0:
64,192,28148,128,8,29520:1:0:0:0:
192,192,28491,1,0,0:0:0:0:
320,192,28834,1,0,0:0:0:0:
448,192,29177,1,0,0:0:0:0:
320,192,29520,128,8,30891:1:0:0:0:
64,192,29862,1,0,0:0:0:0:
192,192,30205,1,0,0:0:0:0:
64,192,30548,1,0,0:0:0:0:
192,192,30891,128,8,32262:1:0:0:0:
448,192,31234,1,0,0:0:0:0:
320,192,31577,1,0,0:0:0:0:
64,192,31920,1,0,0:0:0:0:
320,192,32262,128,8,32948:1:0:0:0:
64,192,32605,1,0,0:0:0:0:
448,192,32948,128,8,33634:1:0:0:0:
192,192,33291,1,0,0:0:0:0:
64,192,33634,1,0,0:0:0:0:
192,192,33977,1,0,0:0:0:0:
320,192,34320,1,0,0:0:0:0:
448,192,34662,1,0,0:0:0:0:
192,192,35348,1,0,0:0:0:0:
64,192,36034,1,0,0:0:0:0:
448,192,36720,1,0,0:0:0:0:
320,192,36891,1,0,0:0:0:0:
192,192,37062,128,0,37748:0:0:0:0:
320,192,37748,128,0,38434:0:0:0:0:
448,192,38434,128,0,39120:0:0:0:0:
64,192,38434,1,0,0:0:0:0:
64,192,39120,1,0,0:0:0:0:
192,192,39462,1,0,0:0:0:0:
320,192,39805,1,0,0:0:0:0:
448,192,40148,1,0,0:0:0:0:
192,192,40834,1,0,0:0:0:0:
448,192,41520,1,0,0:0:0:0:
320,192,42205,1,0,0:0:0:0:
192,192,42377,1,0,0:0:0:0:
64,192,43234,128,0,44262:0:0:0:0:
192,192,43577,128,0,44262:0:0:0:0:
320,192,44262,1,8,0:0:0:0:
64,192,44605,1,4,0:0:0:0:
448,192,44605,1,2,0:0:0:0:
192,192,44948,1,0,0:0:0:0:
320,192,45291,1,0,0:0:0:0:
448,192,45634,1,0,0:0:0:0:
192,192,46320,1,0,0:0:0:0:
448,192,46662,1,0,0:0:0:0:
320,192,47005,1,0,0:0:0:0:
64,192,47348,1,0,0:0:0:0:
192,192,47691,1,0,0:0:0:0:
320,192,48034,1,0,0:0:0:0:
448,192,48377,1,0,0:0:0:0:
192,192,49062,1,0,0:0:0:0:
448,192,49405,1,0,0:0:0:0:
320,192,49748,1,0,0:0:0:0:
64,192,50091,1,0,0:0:0:0:
192,192,50434,1,0,0:0:0:0:
320,192,50777,1,0,0:0:0:0:
448,192,51120,1,0,0:0:0:0:
192,192,51805,1,0,0:0:0:0:
448,192,52148,1,0,0:0:0:0:
320,192,52491,1,0,0:0:0:0:
64,192,52834,1,0,0:0:0:0:
320,192,53177,1,0,0:0:0:0:
192,192,53520,1,0,0:0:0:0:
448,192,53862,1,0,0:0:0:0:
64,192,54548,1,0,0:0:0:0:
320,192,54891,128,0,55234:0:0:0:0:
192,192,55234,128,0,55577:0:0:0:0:
64,192,55577,1,4,0:0:0:0:
448,192,55577,1,8,0:0:0:0:
320,192,55920,1,8,0:0:0:0:
192,192,55920,1,0,0:0:0:0:
64,192,56262,1,0,0:0:0:0:
192,192,56262,1,8,0:0:0:0:
448,192,56605,1,8,0:0:0:0:
64,192,56605,1,0,0:0:0:0:
320,192,56777,1,8,0:0:0:0:
64,192,56948,1,0,0:0:0:0:
192,192,56948,1,8,0:0:0:0:
448,192,57120,1,8,0:0:0:0:
64,192,57291,1,8,0:0:0:0:
192,192,57377,1,8,0:0:0:0:
320,192,57377,1,0,0:0:0:0:
448,192,57634,1,0,0:0:0:0:
320,192,57634,1,8,0:0:0:0:
64,192,57891,1,8,0:0:0:0:
192,192,57977,1,8,0:0:0:0:
320,192,57977,1,0,0:0:0:0:
448,192,58148,1,8,0:0:0:0:
320,192,58320,1,8,0:0:0:0:
192,192,58320,1,0,0:0:0:0:
64,192,58662,1,0,0:0:0:0:
192,192,58662,1,8,0:0:0:0:
320,192,59005,1,8,0:0:0:0:
448,192,59005,1,0,0:0:0:0:
64,192,59348,1,8,0:0:0:0:
192,192,59520,1,8,0:0:0:0:
320,192,59691,1,8,0:0:0:0:
448,192,59691,1,0,0:0:0:0:
64,192,59862,1,8,0:0:0:0:
448,192,60034,1,8,0:0:0:0:
320,192,60120,1,0,0:0:0:0:
192,192,60120,1,8,0:0:0:0:
320,192,60377,128,0,60720:0:0:0:0:
64,192,60377,1,8,0:0:0:0:
448,192,60720,1,8,0:0:0:0:
192,192,60720,128,0,61062:0:0:0:0:
320,192,61062,1,0,0:0:0:0:
448,192,61062,1,8,0:0:0:0:
64,192,61234,1,2,0:0:0:0:
448,192,61405,1,8,0:0:0:0:
320,192,61577,1,2,0:0:0:0:
64,192,61748,1,0,0:0:0:0:
192,192,61748,1,8,0:0:0:0:
448,192,61920,1,2,0:0:0:0:
64,192,62091,1,8,0:0:0:0:
192,192,62262,1,2,0:0:0:0:
320,192,62434,1,8,0:0:0:0:
448,192,62434,1,0,0:0:0:0:
192,192,62605,1,2,0:0:0:0:
64,192,62777,1,8,0:0:0:0:
448,192,62948,1,2,0:0:0:0:
192,192,63120,1,8,0:0:0:0:
64,192,63120,1,0,0:0:0:0:
320,192,63291,1,2,0:0:0:0:
448,192,63462,1,8,0:0:0:0:
192,192,63634,1,2,0:0:0:0:
64,192,63805,128,0,65177:0:0:0:0:
320,192,63805,1,8,0:0:0:0:
448,192,63977,1,2,0:0:0:0:
192,192,64148,1,8,0:0:0:0:
320,192,64320,1,2,0:0:0:0:
192,192,64491,1,8,0:0:0:0:
448,192,64662,1,2,0:0:0:0:
320,192,64834,1,8,0:0:0:0:
192,192,65005,1,2,0:0:0:0:
448,192,65177,128,0,66205:0:0:0:0:
64,192,66205,1,8,0:0:0:0:
192,192,66205,1,0,0:0:0:0:
320,192,66548,5,2,0:0:0:0:
448,192,66548,1,4,0:0:0:0:
64,192,66891,1,0,0:0:0:0:
192,192,66891,1,8,0:0:0:0:
448,192,67234,1,2,0:0:0:0:
192,192,67577,1,8,0:0:0:0:
320,192,67577,1,0,0:0:0:0:
64,192,67920,1,2,0:0:0:0:
192,192,68262,1,8,0:0:0:0:
448,192,68262,1,0,0:0:0:0:
320,192,68605,1,2,0:0:0:0:
192,192,68948,1,8,0:0:0:0:
64,192,68948,1,0,0:0:0:0:
320,192,69291,1,2,0:0:0:0:
64,192,69634,1,0,0:0:0:0:
448,192,69634,1,8,0:0:0:0:
192,192,69977,1,2,0:0:0:0:
320,192,70320,1,0,0:0:0:0:
448,192,70320,1,8,0:0:0:0:
64,192,70662,1,2,0:0:0:0:
192,192,71005,1,0,0:0:0:0:
320,192,71005,1,8,0:0:0:0:
448,192,71348,1,2,0:0:0:0:
320,192,71691,1,8,0:0:0:0:
64,192,71691,1,0,0:0:0:0:
192,192,72034,1,2,0:0:0:0:
448,192,72377,1,0,0:0:0:0:
64,192,72377,1,8,0:0:0:0:
320,192,72720,1,2,0:0:0:0:
192,192,73062,1,8,0:0:0:0:
64,192,73062,128,0,73405:0:0:0:0:
448,192,73405,1,2,0:0:0:0:
320,192,73748,1,0,0:0:0:0:
64,192,73748,1,8,0:0:0:0:
192,192,74091,1,2,0:0:0:0:
448,192,74434,1,0,0:0:0:0:
64,192,74434,1,8,0:0:0:0:
320,192,74777,1,2,0:0:0:0:
64,192,75120,1,0,0:0:0:0:
192,192,75120,1,8,0:0:0:0:
320,192,75462,1,2,0:0:0:0:
448,192,75805,1,0,0:0:0:0:
192,192,75805,1,8,0:0:0:0:
64,192,76148,1,2,0:0:0:0:
192,192,76491,1,8,0:0:0:0:
320,192,76491,1,0,0:0:0:0:
448,192,76834,1,2,0:0:0:0:
320,192,77177,128,8,77520:0:0:0:0:
64,192,77520,1,4,0:0:0:0:
448,192,77520,1,2,0:0:0:0:
192,192,77862,1,8,0:0:0:0:
320,192,77862,1,0,0:0:0:0:
448,192,78205,1,2,0:0:0:0:
64,192,78548,1,0,0:0:0:0:
192,192,78548,1,8,0:0:0:0:
320,192,78891,1,2,0:0:0:0:
448,192,79234,1,0,0:0:0:0:
64,192,79234,1,8,0:0:0:0:
320,192,79577,1,2,0:0:0:0:
192,192,79920,1,8,0:0:0:0:
448,192,79920,1,0,0:0:0:0:
64,192,80262,1,2,0:0:0:0:
192,192,80605,1,8,0:0:0:0:
320,192,80605,1,0,0:0:0:0:
448,192,80948,1,2,0:0:0:0:
192,192,81291,1,8,0:0:0:0:
64,192,81291,1,0,0:0:0:0:
320,192,81634,1,2,0:0:0:0:
448,192,81977,1,8,0:0:0:0:
64,192,81977,1,0,0:0:0:0:
192,192,82320,1,2,0:0:0:0:
64,192,82662,1,0,0:0:0:0:
320,192,82662,1,8,0:0:0:0:
448,192,83005,1,2,0:0:0:0:
192,192,83348,1,0,0:0:0:0:
64,192,83348,1,8,0:0:0:0:
320,192,83691,1,2,0:0:0:0:
64,192,84034,1,8,0:0:0:0:
448,192,84034,128,0,84377:0:0:0:0:
192,192,84377,1,2,0:0:0:0:
320,192,84720,1,0,0:0:0:0:
448,192,84720,1,8,0:0:0:0:
64,192,85062,1,2,0:0:0:0:
320,192,85405,1,8,0:0:0:0:
192,192,85405,1,0,0:0:0:0:
448,192,85748,1,2,0:0:0:0:
64,192,86091,1,0,0:0:0:0:
320,192,86091,1,8,0:0:0:0:
192,192,86434,1,2,0:0:0:0:
448,192,86777,1,0,0:0:0:0:
320,192,86777,1,8,0:0:0:0:
64,192,87120,128,4,88148:0:0:0:0:
192,192,87120,1,2,0:0:0:0:
448,192,87462,1,0,0:0:0:0:
320,192,87805,1,0,0:0:0:0:
192,192,88148,5,8,0:0:0:0:
448,192,88148,1,0,0:0:0:0:
64,192,88491,5,2,0:0:0:0:
448,192,88491,1,4,0:0:0:0:
320,192,88662,1,0,0:0:0:0:
192,192,88834,1,8,0:0:0:0:
64,192,88834,1,0,0:0:0:0:
320,192,89005,1,0,0:0:0:0:
448,192,89177,1,2,0:0:0:0:
64,192,89348,1,0,0:0:0:0:
320,192,89520,1,0,0:0:0:0:
192,192,89520,1,8,0:0:0:0:
448,192,89691,1,0,0:0:0:0:
64,192,89862,1,2,0:0:0:0:
320,192,90034,1,0,0:0:0:0:
64,192,90205,1,8,0:0:0:0:
192,192,90205,1,0,0:0:0:0:
448,192,90377,1,0,0:0:0:0:
64,192,90548,1,0,0:0:0:0:
192,192,90720,1,0,0:0:0:0:
320,192,90891,1,0,0:0:0:0:
448,192,90891,1,8,0:0:0:0:
64,192,91062,1,0,0:0:0:0:
320,192,91234,1,2,0:0:0:0:
192,192,91405,1,0,0:0:0:0:
64,192,91577,1,0,0:0:0:0:
448,192,91577,1,8,0:0:0:0:
320,192,91748,1,0,0:0:0:0:
64,192,91920,1,2,0:0:0:0:
192,192,92091,1,0,0:0:0:0:
320,192,92262,1,0,0:0:0:0:
448,192,92262,1,8,0:0:0:0:
192,192,92434,1,0,0:0:0:0:
64,192,92605,1,2,0:0:0:0:
448,192,92777,1,0,0:0:0:0:
192,192,92948,1,0,0:0:0:0:
320,192,92948,1,8,0:0:0:0:
64,192,93120,1,0,0:0:0:0:
448,192,93291,1,2,0:0:0:0:
320,192,93462,1,0,0:0:0:0:
64,192,93634,1,8,0:0:0:0:
192,192,93634,1,0,0:0:0:0:
320,192,93805,1,0,0:0:0:0:
448,192,93977,1,2,0:0:0:0:
192,192,94148,1,0,0:0:0:0:
64,192,94320,1,8,0:0:0:0:
320,192,94320,1,0,0:0:0:0:
448,192,94491,1,0,0:0:0:0:
192,192,94662,1,2,0:0:0:0:
320,192,94834,1,0,0:0:0:0:
192,192,95005,1,8,0:0:0:0:
64,192,95005,128,0,95348:0:0:0:0:
448,192,95348,1,2,0:0:0:0:
320,192,95520,1,0,0:0:0:0:
192,192,95691,1,8,0:0:0:0:
64,192,95691,1,0,0:0:0:0:
448,192,95862,1,0,0:0:0:0:
192,192,96034,1,2,0:0:0:0:
320,192,96205,1,0,0:0:0:0:
64,192,96377,1,0,0:0:0:0:
448,192,96377,1,8,0:0:0:0:
192,192,96548,1,0,0:0:0:0:
320,192,96720,1,2,0:0:0:0:
64,192,96891,1,0,0:0:0:0:
320,192,97062,1,0,0:0:0:0:
448,192,97062,1,8,0:0:0:0:
192,192,97234,1,0,0:0:0:0:
448,192,97405,1,2,0:0:0:0:
64,192,97577,1,0,0:0:0:0:
192,192,97748,1,8,0:0:0:0:
320,192,97748,1,0,0:0:0:0:
448,192,97920,1,0,0:0:0:0:
192,192,98091,1,2,0:0:0:0:
320,192,98262,1,0,0:0:0:0:
64,192,98434,1,0,0:0:0:0:
448,192,98434,1,8,0:0:0:0:
192,192,98605,1,0,0:0:0:0:
448,192,98777,1,2,0:0:0:0:
320,192,98777,128,0,99120:0:0:0:0:
192,192,99120,128,8,99462:0:0:0:0:
448,192,99462,1,8,0:0:0:0:
64,192,99462,1,4,0:0:0:0:
320,192,99805,1,8,0:0:0:0:
448,192,99805,1,0,0:0:0:0:
192,192,100148,1,8,0:0:0:0:
64,192,100148,1,0,0:0:0:0:
448,192,100491,1,8,0:0:0:0:
64,192,100491,1,0,0:0:0:0:
320,192,100662,1,8,0:0:0:0:
192,192,100834,1,0,0:0:0:0:
448,192,100834,1,8,0:0:0:0:
64,192,101005,1,8,0:0:0:0:
192,192,101177,1,8,0:0:0:0:
320,192,101262,1,0,0:0:0:0:
448,192,101262,1,8,0:0:0:0:
64,192,101520,1,0,0:0:0:0:
192,192,101520,1,8,0:0:0:0:
320,192,101777,1,8,0:0:0:0:
448,192,101862,1,8,0:0:0:0:
64,192,101862,1,0,0:0:0:0:
192,192,102034,1,8,0:0:0:0:
448,192,102205,1,8,0:0:0:0:
64,192,102205,1,0,0:0:0:0:
320,192,102548,1,8,0:0:0:0:
448,192,102548,1,0,0:0:0:0:
192,192,102891,1,8,0:0:0:0:
64,192,102891,1,0,0:0:0:0:
64,192,103234,1,8,0:0:0:0:
448,192,103234,1,0,0:0:0:0:
192,192,103405,1,8,0:0:0:0:
320,192,103577,1,8,0:0:0:0:
448,192,103577,1,0,0:0:0:0:
64,192,103748,1,8,0:0:0:0:
320,192,103920,1,8,0:0:0:0:
192,192,104005,1,8,0:0:0:0:
64,192,104005,1,0,0:0:0:0:
320,192,104262,128,0,104605:0:0:0:0:
448,192,104262,1,8,0:0:0:0:
192,192,104605,128,8,104948:0:0:0:0:
448,192,104948,1,8,0:0:0:0:
64,192,104948,1,0,0:0:0:0:
320,192,105120,1,2,0:0:0:0:
64,192,105291,1,8,0:0:0:0:
192,192,105462,1,2,0:0:0:0:
448,192,105634,1,8,0:0:0:0:
320,192,105634,1,0,0:0:0:0:
64,192,105805,1,2,0:0:0:0:
320,192,105977,1,8,0:0:0:0:
192,192,106148,1,2,0:0:0:0:
448,192,106320,1,8,0:0:0:0:
64,192,106320,1,0,0:0:0:0:
320,192,106491,1,2,0:0:0:0:
192,192,106662,1,8,0:0:0:0:
448,192,106834,1,2,0:0:0:0:
192,192,107005,1,8,0:0:0:0:
64,192,107005,1,0,0:0:0:0:
320,192,107177,1,2,0:0:0:0:
448,192,107348,1,8,0:0:0:0:
64,192,107520,1,2,0:0:0:0:
192,192,107691,128,0,109062:0:0:0:0:
320,192,107691,1,2,0:0:0:0:
448,192,108034,1,2,0:0:0:0:
64,192,108377,1,2,0:0:0:0:
320,192,108720,1,2,0:0:0:0:
448,192,109062,128,4,110091:0:0:0:0:
64,192,109062,1,2,0:0:0:0:
192,192,109405,1,0,0:0:0:0:
320,192,109748,1,0,0:0:0:0:
64,192,110091,1,8,0:0:0:0:
192,192,110091,1,0,0:0:0:0:
320,192,110434,1,2,0:0:0:0:
448,192,110434,1,4,0:0:0:0:
