osu file format v14

[General]
AudioFilename: BlackY vs. Yooh - Happy Voice.mp3
AudioLeadIn: 0
PreviewTime: 66548
Countdown: 0
SampleSet: Soft
StackLeniency: 0.7
Mode: 3
LetterboxInBreaks: 0
SpecialStyle: 0
WidescreenStoryboard: 0

[Editor]
Bookmarks: 11691,77520
DistanceSpacing: 0.5
BeatDivisor: 4
GridSize: 32
TimelineZoom: 2.1

[Metadata]
Title:Happy Voice
TitleUnicode:Happy Voice
Artist:BlackY vs. Yooh
ArtistUnicode:BlackY vs. Yooh
Creator:game rock
Version:AL's MX
Source:
Tags:HAPPY HARDCORE TANO*C & SKETCH UP!Rec. Powerful DJ Genki REVOLUTION OF HAPPY? #01 ArcherLove
BeatmapID:1215360
BeatmapSetID:573298

[Difficulty]
HPDrainRate:9
CircleSize:4
OverallDifficulty:8
ApproachRate:5
SliderMultiplier:1.4
SliderTickRate:1

[Events]
//Background and Video events
0,0,"Background-1.jpg",0,0
//Break Periods
//Storyboard Layer 0 (Background)
//Storyboard Layer 1 (Fail)
//Storyboard Layer 2 (Pass)
//Storyboard Layer 3 (Foreground)
//Storyboard Sound Samples

[TimingPoints]
720,342.857142857143,4,2,1,50,1,0
66548,-100,4,2,1,50,0,1
87120,-100,4,2,1,50,0,0
88491,-100,4,2,1,50,0,1
110434,-100,4,2,1,50,0,0

[HitObjects]
448,192,719,5,2,0:0:0:0:
64,192,719,1,0,0:0:0:0:
320,192,805,1,0,0:0:0:0:
192,192,891,1,0,0:0:0:0:
448,192,977,1,0,0:0:0:0:
320,192,1062,1,2,0:0:0:0:
64,192,1062,1,0,0:0:0:0:
192,192,1148,1,0,0:0:0:0:
320,192,1234,1,0,0:0:0:0:
448,192,1320,1,0,0:0:0:0:
64,192,1405,1,2,0:0:0:0:
192,192,1405,1,0,0:0:0:0:
320,192,1491,1,0,0:0:0:0:
448,192,1577,1,0,0:0:0:0:
64,192,1662,1,0,0:0:0:0:
192,192,1748,1,2,0:0:0:0:
448,192,1748,1,0,0:0:0:0:
320,192,1834,1,0,0:0:0:0:
192,192,1920,1,0,0:0:0:0:
64,192,2005,1,0,0:0:0:0:
448,192,2091,1,2,0:0:0:0:
320,192,2091,1,0,0:0:0:0:
192,192,2177,1,0,0:0:0:0:
64,192,2262,1,0,0:0:0:0:
448,192,2348,1,0,0:0:0:0:
320,192,2434,1,0,0:0:0:0:
64,192,2434,1,2,0:0:0:0:
448,192,2520,1,0,0:0:0:0:
64,192,2605,1,0,0:0:0:0:
192,192,2691,1,0,0:0:0:0:
320,192,2777,1,2,0:0:0:0:
448,192,2777,1,0,0:0:0:0:
64,192,2862,1,0,0:0:0:0:
192,192,2948,1,0,0:0:0:0:
320,192,3034,1,0,0:0:0:0:
448,192,3120,1,2,0:0:0:0:
64,192,3120,1,0,0:0:0:0:
192,192,3205,1,0,0:0:0:0:
320,192,3291,1,0,0:0:0:0:
448,192,3377,1,0,0:0:0:0:
64,192,3462,1,2,0:0:0:0:
192,192,3462,1,0,0:0:0:0:
320,192,3548,1,0,0:0:0:0:
448,192,3634,1,0,0:0:0:0:
64,192,3720,1,0,0:0:0:0:
192,192,3805,1,2,0:0:0:0:
448,192,3805,1,0,0:0:0:0:
64,192,3891,1,0,0:0:0:0:
448,192,3977,1,0,0:0:0:0:
320,192,4062,1,0,0:0:0:0:
192,192,4148,1,2,0:0:0:0:
64,192,4148,1,0,0:0:0:0:
448,192,4234,1,0,0:0:0:0:
320,192,4320,1,0,0:0:0:0:
192,192,4405,1,0,0:0:0:0:
64,192,4491,1,2,0:0:0:0:
448,192,4491,1,0,0:0:0:0:
320,192,4577,1,0,0:0:0:0:
192,192,4662,1,0,0:0:0:0:
64,192,4748,1,0,0:0:0:0:
448,192,4834,1,0,0:0:0:0:
320,192,4834,1,2,0:0:0:0:
192,192,4920,1,0,0:0:0:0:
64,192,5005,1,0,0:0:0:0:
192,192,5091,1,0,0:0:0:0:
320,192,5177,1,0,0:0:0:0:
448,192,5177,1,2,0:0:0:0:
64,192,5262,1,0,0:0:0:0:
192,192,5348,1,0,0:0:0:0:
320,192,5434,1,0,0:0:0:0:
448,192,5520,1,2,0:0:0:0:
64,192,5520,1,0,0:0:0:0:
192,192,5605,1,0,0:0:0:0:
320,192,5691,1,0,0:0:0:0:
448,192,5777,1,0,0:0:0:0:
64,192,5862,1,2,0:0:0:0:
192,192,5862,1,0,0:0:0:0:
320,192,5948,1,0,0:0:0:0:
448,192,6034,1,0,0:0:0:0:
320,192,6120,1,0,0:0:0:0:
192,192,6205,1,2,0:0:0:0:
64,192,6205,1,0,0:0:0:0:
448,192,6291,1,0,0:0:0:0:
320,192,6377,1,0,0:0:0:0:
192,192,6462,1,0,0:0:0:0:
64,192,6548,1,2,0:0:0:0:
448,192,6548,1,0,0:0:0:0:
320,192,6634,1,0,0:0:0:0:
192,192,6720,1,0,0:0:0:0:
64,192,6805,1,0,0:0:0:0:
320,192,6891,1,2,0:0:0:0:
448,192,6891,1,0,0:0:0:0:
192,192,6977,1,0,0:0:0:0:
64,192,7062,1,0,0:0:0:0:
448,192,7148,1,0,0:0:0:0:
320,192,7234,1,2,0:0:0:0:
192,192,7234,1,0,0:0:0:0:
64,192,7320,1,0,0:0:0:0:
448,192,7405,1,0,0:0:0:0:
320,192,7491,1,0,0:0:0:0:
192,192,7577,1,2,0:0:0:0:
64,192,7577,1,0,0:0:0:0:
320,192,7662,1,0,0:0:0:0:
448,192,7748,1,0,0:0:0:0:
64,192,7834,1,0,0:0:0:0:
192,192,7920,1,2,0:0:0:0:
320,192,7920,1,0,0:0:0:0:
448,192,8005,1,0,0:0:0:0:
64,192,8091,1,0,0:0:0:0:
192,192,8177,1,0,0:0:0:0:
320,192,8262,1,0,0:0:0:0:
448,192,8262,1,2,0:0:0:0:
192,192,8348,1,0,0:0:0:0:
64,192,8434,1,0,0:0:0:0:
448,192,8520,1,0,0:0:0:0:
320,192,8605,1,2,0:0:0:0:
64,192,8605,1,0,0:0:0:0:
192,192,8691,1,0,0:0:0:0:
320,192,8777,1,0,0:0:0:0:
448,192,8862,1,0,0:0:0:0:
64,192,8948,1,2,0:0:0:0:
192,192,8948,1,0,0:0:0:0:
320,192,9034,1,0,0:0:0:0:
448,192,9120,1,0,0:0:0:0:
64,192,9205,1,0,0:0:0:0:
192,192,9291,1,2,0:0:0:0:
448,192,9291,1,0,0:0:0:0:
320,192,9377,1,0,0:0:0:0:
192,192,9462,1,0,0:0:0:0:
64,192,9548,1,0,0:0:0:0:
448,192,9634,1,2,0:0:0:0:
320,192,9634,1,0,0:0:0:0:
192,192,9720,1,0,0:0:0:0:
64,192,9805,1,0,0:0:0:0:
448,192,9891,1,0,0:0:0:0:
320,192,9977,1,2,0:0:0:0:
192,192,9977,1,0,0:0:0:0:
64,192,10062,1,0,0:0:0:0:
448,192,10148,1,0,0:0:0:0:
320,192,10234,1,0,0:0:0:0:
192,192,10320,1,2,0:0:0:0:
64,192,10320,1,0,0:0:0:0:
320,192,10405,1,0,0:0:0:0:
448,192,10491,1,0,0:0:0:0:
64,192,10577,1,0,0:0:0:0:
192,192,10662,1,0,0:0:0:0:
320,192,10662,1,2,0:0:0:0:
448,192,10748,1,0,0:0:0:0:
64,192,10834,1,2,0:0:0:0:
192,192,10920,1,0,0:0:0:0:
448,192,11005,128,2,11262:0:0:0:0:
320,192,11005,128,0,11091:0:0:0:0:
320,192,11177,128,0,11262:0:0:0:0:
64,192,11348,128,0,11605:0:0:0:0:
192,192,11348,128,0,11434:0:0:0:0:
192,192,11520,128,0,11605:0:0:0:0:
448,192,11691,128,4,12377:0:0:0:0:
320,192,11691,1,8,0:0:0:0:
192,192,11691,1,0,0:0:0:0:
64,192,11691,1,0,0:0:0:0:
192,192,11862,1,0,0:0:0:0:
64,192,12034,1,0,0:0:0:0:
320,192,12034,1,8,0:0:0:0:
192,192,12120,1,0,0:0:0:0:
320,192,12205,1,0,0:0:0:0:
64,192,12291,1,0,0:0:0:0:
192,192,12377,1,8,0:0:0:0:
320,192,12377,1,0,0:0:0:0:
64,192,12462,1,0,0:0:0:0:
320,192,12548,1,0,0:0:0:0:
64,192,12634,1,0,0:0:0:0:
192,192,12720,1,0,0:0:0:0:
448,192,12720,1,8,0:0:0:0:
320,192,12805,1,0,0:0:0:0:
64,192,12891,1,0,0:0:0:0:
448,192,12891,1,0,0:0:0:0:
192,192,12977,1,0,0:0:0:0:
320,192,13062,1,8,0:0:0:0:
448,192,13062,1,0,0:0:0:0:
192,192,13148,1,0,0:0:0:0:
64,192,13234,1,8,0:0:0:0:
448,192,13234,1,0,0:0:0:0:
320,192,13320,1,0,0:0:0:0:
192,192,13405,1,8,0:0:0:0:
64,192,13405,1,0,0:0:0:0:
320,192,13491,1,8,0:0:0:0:
448,192,13491,1,0,0:0:0:0:
64,192,13577,1,0,0:0:0:0:
192,192,13662,1,0,0:0:0:0:
320,192,13748,1,0,0:0:0:0:
448,192,13748,1,8,0:0:0:0:
192,192,13834,1,0,0:0:0:0:
64,192,13920,1,0,0:0:0:0:
448,192,14005,1,8,0:0:0:0:
320,192,14005,1,0,0:0:0:0:
192,192,14091,1,8,0:0:0:0:
64,192,14091,1,0,0:0:0:0:
448,192,14177,1,0,0:0:0:0:
320,192,14262,1,8,0:0:0:0:
192,192,14262,1,0,0:0:0:0:
64,192,14348,1,0,0:0:0:0:
448,192,14434,1,8,0:0:0:0:
320,192,14434,1,0,0:0:0:0:
192,192,14520,1,0,0:0:0:0:
64,192,14605,1,0,0:0:0:0:
320,192,14691,1,0,0:0:0:0:
448,192,14777,1,8,0:0:0:0:
192,192,14777,1,0,0:0:0:0:
64,192,14862,1,0,0:0:0:0:
448,192,14948,1,0,0:0:0:0:
320,192,14948,1,0,0:0:0:0:
192,192,15034,1,0,0:0:0:0:
64,192,15120,1,8,0:0:0:0:
448,192,15120,1,0,0:0:0:0:
320,192,15205,1,0,0:0:0:0:
192,192,15291,1,0,0:0:0:0:
64,192,15377,1,0,0:0:0:0:
320,192,15462,1,8,0:0:0:0:
448,192,15462,1,0,0:0:0:0:
192,192,15548,1,0,0:0:0:0:
64,192,15634,1,8,0:0:0:0:
448,192,15634,1,0,0:0:0:0:
320,192,15720,1,0,0:0:0:0:
192,192,15805,1,8,0:0:0:0:
64,192,15805,1,0,0:0:0:0:
320,192,15891,1,0,0:0:0:0:
448,192,15977,1,8,0:0:0:0:
64,192,15977,1,0,0:0:0:0:
192,192,16062,1,0,0:0:0:0:
320,192,16148,1,8,0:0:0:0:
448,192,16148,1,0,0:0:0:0:
192,192,16234,1,8,0:0:0:0:
64,192,16234,1,0,0:0:0:0:
448,192,16320,1,0,0:0:0:0:
320,192,16405,1,0,0:0:0:0:
192,192,16491,1,0,0:0:0:0:
64,192,16491,128,8,16577:0:0:0:0:
320,192,16577,1,0,0:0:0:0:
448,192,16662,1,0,0:0:0:0:
64,192,16748,1,8,0:0:0:0:
192,192,16748,1,0,0:0:0:0:
320,192,16834,1,0,0:0:0:0:
448,192,16834,128,8,16920:0:0:0:0:
64,192,16920,1,0,0:0:0:0:
192,192,17005,1,8,0:0:0:0:
448,192,17005,1,0,0:0:0:0:
320,192,17091,1,0,0:0:0:0:
192,192,17177,1,8,0:0:0:0:
448,192,17177,1,0,0:0:0:0:
64,192,17177,128,0,17520:0:0:0:0:
192,192,17348,1,2,0:0:0:0:
320,192,17348,1,0,0:0:0:0:
448,192,17520,1,8,0:0:0:0:
320,192,17520,1,0,0:0:0:0:
192,192,17605,1,8,0:0:0:0:
64,192,17691,1,2,0:0:0:0:
320,192,17691,1,0,0:0:0:0:
448,192,17777,1,0,0:0:0:0:
320,192,17862,1,8,0:0:0:0:
64,192,17862,1,0,0:0:0:0:
192,192,17948,1,0,0:0:0:0:
320,192,18034,1,2,0:0:0:0:
64,192,18034,1,0,0:0:0:0:
448,192,18120,1,0,0:0:0:0:
64,192,18205,1,8,0:0:0:0:
192,192,18205,1,0,0:0:0:0:
320,192,18291,1,8,0:0:0:0:
448,192,18377,1,2,0:0:0:0:
64,192,18462,1,0,0:0:0:0:
448,192,18548,1,0,0:0:0:0:
192,192,18548,1,8,0:0:0:0:
320,192,18634,1,0,0:0:0:0:
192,192,18720,1,2,0:0:0:0:
64,192,18805,1,0,0:0:0:0:
320,192,18891,1,8,0:0:0:0:
448,192,18891,1,0,0:0:0:0:
192,192,18977,1,8,0:0:0:0:
64,192,19062,1,2,0:0:0:0:
320,192,19062,1,0,0:0:0:0:
448,192,19148,1,0,0:0:0:0:
320,192,19234,1,8,0:0:0:0:
64,192,19234,1,0,0:0:0:0:
192,192,19320,1,0,0:0:0:0:
320,192,19405,1,2,0:0:0:0:
64,192,19405,1,0,0:0:0:0:
448,192,19491,1,0,0:0:0:0:
64,192,19577,1,8,0:0:0:0:
192,192,19577,1,0,0:0:0:0:
320,192,19662,1,8,0:0:0:0:
448,192,19748,1,2,0:0:0:0:
64,192,19834,1,0,0:0:0:0:
192,192,19920,1,8,0:0:0:0:
448,192,19920,1,0,0:0:0:0:
320,192,20005,1,0,0:0:0:0:
192,192,20091,1,0,0:0:0:0:
448,192,20091,1,0,0:0:0:0:
64,192,20177,1,0,0:0:0:0:
320,192,20262,1,0,0:0:0:0:
448,192,20262,1,8,0:0:0:0:
192,192,20348,1,0,0:0:0:0:
64,192,20434,1,0,0:0:0:0:
448,192,20434,1,0,0:0:0:0:
320,192,20520,1,0,0:0:0:0:
192,192,20605,1,8,0:0:0:0:
64,192,20605,1,0,0:0:0:0:
320,192,20691,1,0,0:0:0:0:
448,192,20777,1,0,0:0:0:0:
64,192,20777,1,0,0:0:0:0:
192,192,20862,1,0,0:0:0:0:
320,192,20948,1,0,0:0:0:0:
64,192,20948,1,8,0:0:0:0:
448,192,21034,1,0,0:0:0:0:
64,192,21120,1,0,0:0:0:0:
192,192,21120,1,0,0:0:0:0:
320,192,21205,1,0,0:0:0:0:
448,192,21291,1,8,0:0:0:0:
64,192,21291,1,0,0:0:0:0:
320,192,21377,1,0,0:0:0:0:
192,192,21462,1,0,0:0:0:0:
448,192,21462,1,0,0:0:0:0:
64,192,21548,1,0,0:0:0:0:
320,192,21634,1,0,0:0:0:0:
448,192,21634,1,2,0:0:0:0:
192,192,21720,1,0,0:0:0:0:
64,192,21805,1,2,0:0:0:0:
448,192,21805,1,0,0:0:0:0:
320,192,21891,1,0,0:0:0:0:
192,192,21977,1,0,0:0:0:0:
64,192,21977,1,2,0:0:0:0:
320,192,22062,1,0,0:0:0:0:
448,192,22148,1,2,0:0:0:0:
64,192,22148,1,0,0:0:0:0:
192,192,22234,1,0,0:0:0:0:
320,192,22320,1,0,0:0:0:0:
448,192,22320,1,8,0:0:0:0:
64,192,22320,1,0,0:0:0:0:
192,192,22405,1,0,0:0:0:0:
64,192,22491,1,0,0:0:0:0:
448,192,22491,1,0,0:0:0:0:
320,192,22577,1,0,0:0:0:0:
192,192,22662,1,2,0:0:0:0:
64,192,22662,128,8,23948:1:0:0:0:
448,192,22662,128,4,22748:0:0:0:0:
320,192,22834,128,0,22920:0:0:0:0:
192,192,23005,128,0,23091:0:0:0:0:
448,192,23177,128,0,23262:0:0:0:0:
192,192,23348,128,0,23434:0:0:0:0:
448,192,23520,128,0,23605:0:0:0:0:
192,192,23691,128,0,23777:0:0:0:0:
448,192,23862,128,0,23948:0:0:0:0:
192,192,24034,128,8,25320:1:0:0:0:
320,192,24034,128,0,24120:0:0:0:0:
64,192,24205,128,0,24291:0:0:0:0:
320,192,24377,128,0,24462:0:0:0:0:
64,192,24548,128,0,24634:0:0:0:0:
320,192,24720,128,0,24805:0:0:0:0:
64,192,24891,128,0,24977:0:0:0:0:
320,192,25062,128,0,25148:0:0:0:0:
64,192,25234,128,0,25320:0:0:0:0:
448,192,25405,128,8,26691:1:0:0:0:
192,192,25405,128,0,25491:0:0:0:0:
320,192,25577,128,0,25662:0:0:0:0:
64,192,25748,128,0,25834:0:0:0:0:
320,192,25920,128,0,26005:0:0:0:0:
64,192,26091,128,0,26177:0:0:0:0:
320,192,26262,128,0,26348:0:0:0:0:
64,192,26434,128,0,26520:0:0:0:0:
320,192,26605,128,0,26691:0:0:0:0:
320,192,26777,128,8,27377:1:0:0:0:
448,192,26777,128,0,26862:0:0:0:0:
192,192,26948,128,0,27034:0:0:0:0:
448,192,27120,128,0,27205:0:0:0:0:
192,192,27291,128,0,27377:0:0:0:0:
64,192,27462,128,0,27548:0:0:0:0:
192,192,27462,128,8,28062:1:0:0:0:
320,192,27634,128,0,27720:0:0:0:0:
64,192,27805,128,0,27891:0:0:0:0:
320,192,27977,128,0,28062:0:0:0:0:
64,192,28148,128,8,29434:1:0:0:0:
192,192,28148,128,0,28234:0:0:0:0:
448,192,28320,128,0,28405:0:0:0:0:
192,192,28491,128,0,28577:0:0:0:0:
448,192,28662,128,0,28748:0:0:0:0:
192,192,28834,128,0,28920:0:0:0:0:
448,192,29005,128,0,29091:0:0:0:0:
192,192,29177,128,0,29262:0:0:0:0:
448,192,29348,128,0,29434:0:0:0:0:
320,192,29520,128,8,30805:1:0:0:0:
64,192,29520,128,0,29605:0:0:0:0:
448,192,29691,128,0,29777:0:0:0:0:
64,192,29862,128,0,29948:0:0:0:0:
448,192,30034,128,0,30120:0:0:0:0:
64,192,30205,128,0,30291:0:0:0:0:
448,192,30377,128,0,30462:0:0:0:0:
64,192,30548,128,0,30634:0:0:0:0:
448,192,30720,128,0,30805:0:0:0:0:
192,192,30891,128,8,32177:1:0:0:0:
64,192,30891,128,0,30977:0:0:0:0:
320,192,31062,128,0,31148:0:0:0:0:
64,192,31234,128,0,31320:0:0:0:0:
320,192,31405,128,0,31491:0:0:0:0:
64,192,31577,128,0,31662:0:0:0:0:
320,192,31748,128,0,31834:0:0:0:0:
64,192,31920,128,0,32005:0:0:0:0:
320,192,32091,128,0,32177:0:0:0:0:
448,192,32262,128,8,32862:1:0:0:0:
64,192,32262,128,0,32348:0:0:0:0:
192,192,32434,128,0,32520:0:0:0:0:
320,192,32605,128,0,32691:0:0:0:0:
64,192,32777,128,0,32862:0:0:0:0:
320,192,32948,128,8,33548:1:0:0:0:
192,192,32948,128,0,33034:0:0:0:0:
64,192,33120,128,0,33205:0:0:0:0:
448,192,33291,128,0,33377:0:0:0:0:
192,192,33462,128,0,33548:0:0:0:0:
192,192,33634,128,0,34920:0:0:0:0:
64,192,33634,128,0,33720:0:0:0:0:
448,192,33634,128,0,33720:0:0:0:0:
320,192,33805,128,0,33891:0:0:0:0:
448,192,33977,128,0,34062:0:0:0:0:
64,192,33977,128,0,34062:0:0:0:0:
320,192,34148,128,0,34234:0:0:0:0:
448,192,34320,128,0,34405:0:0:0:0:
64,192,34320,128,0,34405:0:0:0:0:
320,192,34491,128,0,34577:0:0:0:0:
448,192,34662,128,0,34748:0:0:0:0:
64,192,34662,128,0,34748:0:0:0:0:
320,192,34834,128,0,34920:0:0:0:0:
64,192,35005,128,0,36291:0:0:0:0:
448,192,35005,128,0,35091:0:0:0:0:
192,192,35005,128,0,35091:0:0:0:0:
320,192,35177,128,0,35262:0:0:0:0:
448,192,35348,128,0,35434:0:0:0:0:
192,192,35348,128,0,35434:0:0:0:0:
320,192,35520,128,0,35605:0:0:0:0:
448,192,35691,128,0,35777:0:0:0:0:
192,192,35862,128,0,35948:0:0:0:0:
320,192,36034,128,0,36120:0:0:0:0:
448,192,36034,128,0,36120:0:0:0:0:
192,192,36205,128,0,36291:0:0:0:0:
320,192,36377,128,0,37662:0:0:0:0:
64,192,36377,128,0,36462:0:0:0:0:
448,192,36377,128,0,36462:0:0:0:0:
192,192,36548,128,0,36634:0:0:0:0:
64,192,36720,128,0,36805:0:0:0:0:
448,192,36720,128,0,36805:0:0:0:0:
64,192,36891,128,0,36977:0:0:0:0:
448,192,36891,128,0,36977:0:0:0:0:
192,192,37062,128,0,37148:0:0:0:0:
64,192,37234,128,0,37320:0:0:0:0:
448,192,37405,128,0,37491:0:0:0:0:
192,192,37577,128,0,37662:0:0:0:0:
448,192,37748,128,0,38348:0:0:0:0:
320,192,37748,128,0,37834:0:0:0:0:
64,192,37748,128,0,37834:0:0:0:0:
192,192,37920,128,0,38005:0:0:0:0:
320,192,38091,128,0,38177:0:0:0:0:
64,192,38262,128,0,38348:0:0:0:0:
64,192,38434,128,0,39034:0:0:0:0:
448,192,38434,128,0,38520:0:0:0:0:
320,192,38434,128,0,38520:0:0:0:0:
192,192,38605,128,0,38691:0:0:0:0:
448,192,38777,128,0,38862:0:0:0:0:
320,192,38948,128,0,39034:0:0:0:0:
192,192,39120,128,0,40405:0:0:0:0:
448,192,39120,128,0,39205:0:0:0:0:
320,192,39120,128,0,39205:0:0:0:0:
64,192,39291,128,0,39377:0:0:0:0:
448,192,39462,128,0,39548:0:0:0:0:
320,192,39462,128,0,39548:0:0:0:0:
64,192,39634,128,0,39720:0:0:0:0:
320,192,39805,128,0,39891:0:0:0:0:
448,192,39805,128,0,39891:0:0:0:0:
64,192,39977,128,0,40062:0:0:0:0:
320,192,40148,128,0,40234:0:0:0:0:
448,192,40148,128,0,40234:0:0:0:0:
64,192,40320,128,0,40405:0:0:0:0:
448,192,40491,128,0,41777:0:0:0:0:
320,192,40491,128,0,40577:0:0:0:0:
64,192,40491,128,0,40577:0:0:0:0:
192,192,40662,128,0,40748:0:0:0:0:
320,192,40834,128,0,40920:0:0:0:0:
64,192,40834,128,0,40920:0:0:0:0:
192,192,41005,128,0,41091:0:0:0:0:
320,192,41177,128,0,41262:0:0:0:0:
64,192,41348,128,0,41434:0:0:0:0:
192,192,41520,128,0,41605:0:0:0:0:
320,192,41520,128,0,41605:0:0:0:0:
64,192,41691,128,0,41777:0:0:0:0:
320,192,41862,128,0,43148:0:0:0:0:
448,192,41862,128,0,41948:0:0:0:0:
192,192,41862,128,0,41948:0:0:0:0:
64,192,42034,128,0,42120:0:0:0:0:
192,192,42205,128,0,42291:0:0:0:0:
448,192,42205,128,0,42291:0:0:0:0:
448,192,42377,128,0,42462:0:0:0:0:
192,192,42377,128,0,42462:0:0:0:0:
64,192,42548,128,0,42634:0:0:0:0:
448,192,42720,128,0,42805:0:0:0:0:
192,192,42891,128,0,42977:0:0:0:0:
448,192,43062,128,0,43148:0:0:0:0:
64,192,43234,128,0,44520:0:0:0:0:
192,192,43234,128,0,44177:0:0:0:0:
320,192,44262,128,8,44520:0:0:0:0:
448,192,44262,128,0,44520:0:0:0:0:
192,192,44262,128,0,44520:0:0:0:0:
64,192,44605,1,4,0:0:0:0:
192,192,44605,1,2,0:0:0:0:
448,192,44605,1,0,0:0:0:0:
320,192,44605,128,0,44862:0:0:0:0:
64,192,44777,128,0,44862:0:0:0:0:
448,192,44948,128,0,45205:0:0:0:0:
192,192,45120,128,0,45205:0:0:0:0:
64,192,45291,128,0,45548:0:0:0:0:
320,192,45462,128,0,45548:0:0:0:0:
192,192,45634,128,0,45720:0:0:0:0:
448,192,45805,128,0,45891:0:0:0:0:
192,192,45805,128,0,45891:0:0:0:0:
192,192,45977,128,0,46234:0:0:0:0:
448,192,46148,128,0,46234:0:0:0:0:
320,192,46320,128,0,46577:0:0:0:0:
64,192,46491,128,0,46577:0:0:0:0:
192,192,46662,128,0,46920:0:0:0:0:
448,192,46834,128,0,46920:0:0:0:0:
64,192,47005,128,0,47262:0:0:0:0:
320,192,47177,128,0,47262:0:0:0:0:
192,192,47348,128,0,47605:0:0:0:0:
64,192,47520,128,0,47605:0:0:0:0:
320,192,47691,128,0,47948:0:0:0:0:
448,192,47862,128,0,47948:0:0:0:0:
192,192,48034,128,0,48291:0:0:0:0:
320,192,48205,128,0,48291:0:0:0:0:
64,192,48377,128,0,48462:0:0:0:0:
448,192,48548,128,0,48634:0:0:0:0:
64,192,48548,128,0,48634:0:0:0:0:
64,192,48720,128,0,48977:0:0:0:0:
320,192,48891,128,0,48977:0:0:0:0:
192,192,49062,128,0,49320:0:0:0:0:
448,192,49234,128,0,49320:0:0:0:0:
320,192,49405,128,0,49662:0:0:0:0:
64,192,49577,128,0,49662:0:0:0:0:
448,192,49748,128,0,50005:0:0:0:0:
192,192,49920,128,0,50005:0:0:0:0:
64,192,50091,128,0,50348:0:0:0:0:
192,192,50262,128,0,50348:0:0:0:0:
320,192,50434,128,0,50691:0:0:0:0:
192,192,50605,128,0,50691:0:0:0:0:
64,192,50777,128,0,51034:0:0:0:0:
448,192,50948,128,0,51034:0:0:0:0:
192,192,51120,128,0,51205:0:0:0:0:
192,192,51291,128,0,51377:0:0:0:0:
448,192,51291,128,0,51377:0:0:0:0:
192,192,51462,128,0,51720:0:0:0:0:
448,192,51634,128,0,51720:0:0:0:0:
64,192,51805,128,0,52062:0:0:0:0:
320,192,51805,128,0,51891:0:0:0:0:
320,192,51977,128,0,52062:0:0:0:0:
192,192,52148,128,0,52405:0:0:0:0:
448,192,52148,128,0,52234:0:0:0:0:
448,192,52320,128,0,52405:0:0:0:0:
64,192,52491,128,0,52577:0:0:0:0:
320,192,52491,128,0,52748:0:0:0:0:
64,192,52662,128,0,52748:0:0:0:0:
192,192,52834,128,0,52920:0:0:0:0:
448,192,52834,128,0,53091:0:0:0:0:
192,192,53005,128,0,53091:0:0:0:0:
64,192,53177,128,0,53434:0:0:0:0:
448,192,53177,128,0,53262:0:0:0:0:
448,192,53348,128,0,53434:0:0:0:0:
320,192,53520,128,0,53777:0:0:0:0:
64,192,53520,128,0,53605:0:0:0:0:
64,192,53691,128,0,53777:0:0:0:0:
192,192,53862,128,0,54120:0:0:0:0:
448,192,53862,128,0,53948:0:0:0:0:
448,192,54034,128,0,54120:0:0:0:0:
320,192,54205,128,0,54462:0:0:0:0:
192,192,54205,128,0,54291:0:0:0:0:
192,192,54377,128,0,54462:0:0:0:0:
64,192,54548,128,0,54805:0:0:0:0:
320,192,54548,128,0,54634:0:0:0:0:
320,192,54720,128,0,54805:0:0:0:0:
448,192,54891,128,0,55148:0:0:0:0:
192,192,54891,128,0,54977:0:0:0:0:
192,192,55062,128,0,55320:0:0:0:0:
64,192,55062,128,0,55148:0:0:0:0:
448,192,55234,128,0,55320:0:0:0:0:
64,192,55234,128,0,55491:0:0:0:0:
448,192,55405,128,0,55491:0:0:0:0:
320,192,55405,128,0,55491:0:0:0:0:
64,192,55577,1,4,0:0:0:0:
192,192,55577,1,8,0:0:0:0:
320,192,55577,1,0,0:0:0:0:
448,192,55577,1,0,0:0:0:0:
192,192,55748,1,0,0:0:0:0:
320,192,55920,1,8,0:0:0:0:
448,192,55920,1,0,0:0:0:0:
64,192,55920,1,0,0:0:0:0:
320,192,56091,1,0,0:0:0:0:
192,192,56262,1,0,0:0:0:0:
64,192,56262,1,8,0:0:0:0:
448,192,56262,1,0,0:0:0:0:
64,192,56434,1,0,0:0:0:0:
192,192,56605,1,8,0:0:0:0:
320,192,56605,1,0,0:0:0:0:
448,192,56605,1,0,0:0:0:0:
64,192,56777,1,8,0:0:0:0:
192,192,56777,1,0,0:0:0:0:
448,192,56948,1,0,0:0:0:0:
320,192,56948,1,8,0:0:0:0:
64,192,56948,1,0,0:0:0:0:
192,192,57120,1,8,0:0:0:0:
320,192,57120,1,0,0:0:0:0:
448,192,57377,1,8,0:0:0:0:
320,192,57377,1,0,0:0:0:0:
192,192,57462,1,8,0:0:0:0:
64,192,57462,1,0,0:0:0:0:
320,192,57634,1,8,0:0:0:0:
448,192,57634,1,0,0:0:0:0:
64,192,57634,1,0,0:0:0:0:
320,192,57805,1,8,0:0:0:0:
64,192,57891,1,8,0:0:0:0:
192,192,57891,1,0,0:0:0:0:
192,192,58148,1,8,0:0:0:0:
64,192,58148,1,0,0:0:0:0:
64,192,58320,1,8,0:0:0:0:
448,192,58320,1,0,0:0:0:0:
320,192,58320,1,0,0:0:0:0:
320,192,58491,1,0,0:0:0:0:
64,192,58662,1,8,0:0:0:0:
192,192,58662,1,0,0:0:0:0:
448,192,58662,1,0,0:0:0:0:
192,192,58834,1,0,0:0:0:0:
64,192,59005,1,8,0:0:0:0:
320,192,59005,1,0,0:0:0:0:
448,192,59005,1,0,0:0:0:0:
448,192,59177,1,0,0:0:0:0:
64,192,59348,1,8,0:0:0:0:
192,192,59348,1,0,0:0:0:0:
448,192,59348,1,0,0:0:0:0:
64,192,59520,1,8,0:0:0:0:
320,192,59520,1,0,0:0:0:0:
64,192,59691,1,8,0:0:0:0:
320,192,59691,1,0,0:0:0:0:
448,192,59691,1,0,0:0:0:0:
320,192,59862,1,8,0:0:0:0:
192,192,59862,1,0,0:0:0:0:
64,192,60120,1,8,0:0:0:0:
192,192,60120,1,0,0:0:0:0:
320,192,60205,1,8,0:0:0:0:
448,192,60205,1,0,0:0:0:0:
192,192,60377,1,8,0:0:0:0:
64,192,60377,1,0,0:0:0:0:
448,192,60377,1,0,0:0:0:0:
64,192,60548,1,8,0:0:0:0:
320,192,60634,1,8,0:0:0:0:
192,192,60634,1,0,0:0:0:0:
64,192,60720,1,8,0:0:0:0:
320,192,60891,1,8,0:0:0:0:
448,192,60891,1,0,0:0:0:0:
64,192,61062,1,0,0:0:0:0:
192,192,61062,1,8,0:0:0:0:
448,192,61062,1,0,0:0:0:0:
192,192,61234,1,2,0:0:0:0:
64,192,61234,1,0,0:0:0:0:
192,192,61405,1,8,0:0:0:0:
320,192,61405,1,0,0:0:0:0:
448,192,61405,1,0,0:0:0:0:
448,192,61577,1,2,0:0:0:0:
320,192,61577,1,0,0:0:0:0:
64,192,61748,1,0,0:0:0:0:
192,192,61748,1,0,0:0:0:0:
320,192,61748,1,0,0:0:0:0:
64,192,61920,1,2,0:0:0:0:
192,192,61920,1,0,0:0:0:0:
192,192,62091,1,8,0:0:0:0:
320,192,62091,1,0,0:0:0:0:
448,192,62091,1,0,0:0:0:0:
64,192,62177,1,0,0:0:0:0:
448,192,62262,1,2,0:0:0:0:
320,192,62262,1,0,0:0:0:0:
64,192,62434,1,8,0:0:0:0:
192,192,62434,1,0,0:0:0:0:
320,192,62434,1,0,0:0:0:0:
192,192,62605,1,2,0:0:0:0:
64,192,62605,1,0,0:0:0:0:
64,192,62777,1,8,0:0:0:0:
320,192,62777,1,0,0:0:0:0:
448,192,62777,1,0,0:0:0:0:
448,192,62948,1,2,0:0:0:0:
320,192,62948,1,0,0:0:0:0:
448,192,63120,1,8,0:0:0:0:
64,192,63120,1,0,0:0:0:0:
192,192,63120,1,0,0:0:0:0:
64,192,63291,1,2,0:0:0:0:
192,192,63291,1,0,0:0:0:0:
320,192,63462,1,8,0:0:0:0:
448,192,63462,1,0,0:0:0:0:
64,192,63548,1,8,0:0:0:0:
192,192,63548,1,0,0:0:0:0:
448,192,63634,1,0,0:0:0:0:
320,192,63634,1,2,0:0:0:0:
64,192,63805,1,0,0:0:0:0:
192,192,63805,1,0,0:0:0:0:
320,192,63805,1,0,0:0:0:0:
448,192,63891,1,0,0:0:0:0:
64,192,63977,1,2,0:0:0:0:
192,192,64062,1,0,0:0:0:0:
320,192,64148,1,0,0:0:0:0:
448,192,64148,1,0,0:0:0:0:
64,192,64148,1,0,0:0:0:0:
448,192,64234,1,0,0:0:0:0:
320,192,64320,1,2,0:0:0:0:
192,192,64405,1,0,0:0:0:0:
64,192,64491,1,8,0:0:0:0:
448,192,64491,1,0,0:0:0:0:
320,192,64491,1,0,0:0:0:0:
64,192,64577,1,0,0:0:0:0:
448,192,64662,1,2,0:0:0:0:
192,192,64662,1,0,0:0:0:0:
320,192,64748,1,0,0:0:0:0:
448,192,64834,1,8,0:0:0:0:
192,192,64834,1,0,0:0:0:0:
64,192,64834,1,0,0:0:0:0:
448,192,64920,1,0,0:0:0:0:
320,192,65005,1,2,0:0:0:0:
64,192,65005,1,0,0:0:0:0:
192,192,65091,1,0,0:0:0:0:
448,192,65177,1,0,0:0:0:0:
64,192,65177,128,0,66120:0:0:0:0:
192,192,65348,1,0,0:0:0:0:
320,192,65520,128,0,65777:0:0:0:0:
448,192,65520,128,0,65862:0:0:0:0:
192,192,65862,1,0,0:0:0:0:
320,192,65948,1,0,0:0:0:0:
448,192,66034,1,0,0:0:0:0:
192,192,66120,1,0,0:0:0:0:
320,192,66205,128,8,66462:0:0:0:0:
448,192,66205,128,0,66462:0:0:0:0:
64,192,66205,128,0,66462:0:0:0:0:
64,192,66548,1,2,0:0:0:0:
320,192,66548,1,4,0:0:0:0:
448,192,66548,1,0,0:0:0:0:
192,192,66548,128,0,66720:0:0:0:0:
448,192,66720,1,0,0:0:0:0:
64,192,66891,128,8,67062:0:0:0:0:
320,192,66891,1,0,0:0:0:0:
448,192,66891,1,0,0:0:0:0:
320,192,67062,1,0,0:0:0:0:
448,192,67234,128,2,67405:0:0:0:0:
192,192,67234,1,0,0:0:0:0:
320,192,67234,1,0,0:0:0:0:
192,192,67405,1,0,0:0:0:0:
320,192,67577,128,8,67662:0:0:0:0:
64,192,67577,1,0,0:0:0:0:
192,192,67577,1,0,0:0:0:0:
320,192,67748,128,0,67834:0:0:0:0:
64,192,67748,1,0,0:0:0:0:
320,192,67920,128,2,68091:0:0:0:0:
64,192,67920,1,0,0:0:0:0:
192,192,67920,1,0,0:0:0:0:
448,192,68091,1,0,0:0:0:0:
448,192,68262,1,8,0:0:0:0:
320,192,68262,1,0,0:0:0:0:
192,192,68262,128,0,68434:0:0:0:0:
320,192,68434,1,0,0:0:0:0:
64,192,68605,128,2,68777:0:0:0:0:
320,192,68605,1,0,0:0:0:0:
192,192,68605,1,0,0:0:0:0:
192,192,68777,1,0,0:0:0:0:
448,192,68948,128,8,69120:0:0:0:0:
64,192,68948,1,0,0:0:0:0:
192,192,68948,1,0,0:0:0:0:
64,192,69120,1,0,0:0:0:0:
320,192,69291,128,2,69462:0:0:0:0:
64,192,69291,1,0,0:0:0:0:
448,192,69291,1,0,0:0:0:0:
448,192,69462,1,0,0:0:0:0:
192,192,69634,128,8,69805:0:0:0:0:
320,192,69634,1,0,0:0:0:0:
448,192,69634,1,0,0:0:0:0:
320,192,69805,1,0,0:0:0:0:
64,192,69977,128,2,70148:0:0:0:0:
192,192,69977,1,0,0:0:0:0:
320,192,69977,1,0,0:0:0:0:
192,192,70148,1,0,0:0:0:0:
448,192,70320,128,8,70405:0:0:0:0:
64,192,70320,1,0,0:0:0:0:
320,192,70320,1,0,0:0:0:0:
448,192,70491,128,0,70577:0:0:0:0:
64,192,70491,1,0,0:0:0:0:
448,192,70662,128,2,70834:0:0:0:0:
64,192,70662,1,0,0:0:0:0:
320,192,70662,1,0,0:0:0:0:
192,192,70834,1,0,0:0:0:0:
64,192,71005,128,8,71177:0:0:0:0:
192,192,71005,1,0,0:0:0:0:
448,192,71005,1,0,0:0:0:0:
320,192,71177,1,0,0:0:0:0:
192,192,71348,128,2,71520:0:0:0:0:
320,192,71348,1,0,0:0:0:0:
64,192,71348,1,0,0:0:0:0:
64,192,71520,1,0,0:0:0:0:
320,192,71691,128,8,71862:0:0:0:0:
192,192,71691,1,0,0:0:0:0:
448,192,71691,1,0,0:0:0:0:
192,192,71862,1,0,0:0:0:0:
448,192,72034,128,2,72205:0:0:0:0:
320,192,72034,1,0,0:0:0:0:
64,192,72034,1,0,0:0:0:0:
320,192,72205,1,0,0:0:0:0:
192,192,72377,128,8,72548:0:0:0:0:
64,192,72377,1,0,0:0:0:0:
448,192,72377,1,0,0:0:0:0:
448,192,72548,1,0,0:0:0:0:
320,192,72720,128,2,72891:0:0:0:0:
64,192,72720,1,0,0:0:0:0:
192,192,72720,1,0,0:0:0:0:
64,192,72891,1,0,0:0:0:0:
448,192,73062,128,8,73148:0:0:0:0:
192,192,73062,1,0,0:0:0:0:
320,192,73062,1,0,0:0:0:0:
448,192,73234,128,0,73320:0:0:0:0:
192,192,73234,1,0,0:0:0:0:
448,192,73405,128,2,73577:0:0:0:0:
192,192,73405,1,0,0:0:0:0:
64,192,73405,1,0,0:0:0:0:
64,192,73577,1,0,0:0:0:0:
320,192,73748,128,8,73920:0:0:0:0:
64,192,73748,1,0,0:0:0:0:
448,192,73748,1,0,0:0:0:0:
192,192,73920,1,0,0:0:0:0:
192,192,74091,128,2,74262:0:0:0:0:
448,192,74091,1,0,0:0:0:0:
320,192,74091,1,0,0:0:0:0:
64,192,74262,1,0,0:0:0:0:
64,192,74434,128,8,74605:0:0:0:0:
192,192,74434,1,0,0:0:0:0:
320,192,74434,1,0,0:0:0:0:
448,192,74605,1,0,0:0:0:0:
448,192,74777,128,2,74948:0:0:0:0:
192,192,74777,1,0,0:0:0:0:
64,192,74777,1,0,0:0:0:0:
320,192,74948,1,0,0:0:0:0:
320,192,75120,128,8,75291:0:0:0:0:
64,192,75120,1,0,0:0:0:0:
448,192,75120,1,0,0:0:0:0:
192,192,75291,1,0,0:0:0:0:
192,192,75462,128,2,75634:0:0:0:0:
448,192,75462,1,0,0:0:0:0:
320,192,75462,1,0,0:0:0:0:
64,192,75634,1,0,0:0:0:0:
64,192,75805,128,8,75977:0:0:0:0:
320,192,75805,1,0,0:0:0:0:
448,192,75805,1,0,0:0:0:0:
192,192,75977,1,0,0:0:0:0:
192,192,76148,128,2,76320:0:0:0:0:
64,192,76148,1,0,0:0:0:0:
448,192,76148,1,0,0:0:0:0:
320,192,76320,1,0,0:0:0:0:
320,192,76491,128,8,76662:0:0:0:0:
64,192,76491,1,0,0:0:0:0:
192,192,76491,1,0,0:0:0:0:
448,192,76662,1,0,0:0:0:0:
448,192,76834,128,2,77005:0:0:0:0:
192,192,76834,1,0,0:0:0:0:
320,192,76834,1,0,0:0:0:0:
64,192,77005,1,0,0:0:0:0:
64,192,77177,128,8,77262:0:0:0:0:
448,192,77177,1,0,0:0:0:0:
320,192,77177,1,0,0:0:0:0:
64,192,77348,128,0,77434:0:0:0:0:
320,192,77348,1,0,0:0:0:0:
64,192,77520,128,4,77691:0:0:0:0:
192,192,77520,1,2,0:0:0:0:
320,192,77520,1,0,0:0:0:0:
448,192,77520,1,0,0:0:0:0:
448,192,77691,1,0,0:0:0:0:
192,192,77862,128,8,78034:0:0:0:0:
448,192,77862,1,0,0:0:0:0:
64,192,77862,1,0,0:0:0:0:
320,192,77862,1,0,0:0:0:0:
64,192,78034,1,0,0:0:0:0:
320,192,78205,128,2,78377:0:0:0:0:
448,192,78205,1,0,0:0:0:0:
192,192,78205,1,0,0:0:0:0:
192,192,78377,1,0,0:0:0:0:
448,192,78548,128,8,78634:0:0:0:0:
64,192,78548,1,0,0:0:0:0:
320,192,78548,1,0,0:0:0:0:
192,192,78548,1,0,0:0:0:0:
448,192,78720,128,0,78805:0:0:0:0:
64,192,78720,1,0,0:0:0:0:
448,192,78891,128,2,79062:0:0:0:0:
64,192,78891,1,0,0:0:0:0:
320,192,78891,1,0,0:0:0:0:
320,192,79062,1,0,0:0:0:0:
320,192,79234,128,8,79405:0:0:0:0:
192,192,79234,1,0,0:0:0:0:
448,192,79234,1,0,0:0:0:0:
64,192,79234,1,0,0:0:0:0:
192,192,79405,1,0,0:0:0:0:
192,192,79577,128,2,79748:0:0:0:0:
448,192,79577,1,0,0:0:0:0:
64,192,79577,1,0,0:0:0:0:
64,192,79748,1,0,0:0:0:0:
64,192,79920,128,8,80091:0:0:0:0:
192,192,79920,1,0,0:0:0:0:
320,192,79920,1,0,0:0:0:0:
448,192,79920,1,0,0:0:0:0:
320,192,80091,1,0,0:0:0:0:
448,192,80262,128,2,80434:0:0:0:0:
192,192,80262,1,0,0:0:0:0:
64,192,80262,1,0,0:0:0:0:
192,192,80434,1,0,0:0:0:0:
320,192,80605,128,8,80777:0:0:0:0:
64,192,80605,1,0,0:0:0:0:
192,192,80605,1,0,0:0:0:0:
448,192,80605,1,0,0:0:0:0:
64,192,80777,1,0,0:0:0:0:
192,192,80948,128,2,81120:0:0:0:0:
448,192,80948,1,0,0:0:0:0:
64,192,80948,1,0,0:0:0:0:
448,192,81120,1,0,0:0:0:0:
64,192,81291,128,8,81377:0:0:0:0:
192,192,81291,1,0,0:0:0:0:
320,192,81291,1,0,0:0:0:0:
448,192,81291,1,0,0:0:0:0:
64,192,81462,128,0,81548:0:0:0:0:
320,192,81462,1,0,0:0:0:0:
64,192,81634,128,2,81805:0:0:0:0:
448,192,81634,1,0,0:0:0:0:
192,192,81634,1,0,0:0:0:0:
192,192,81805,1,0,0:0:0:0:
192,192,81977,128,8,82148:0:0:0:0:
64,192,81977,1,0,0:0:0:0:
320,192,81977,1,0,0:0:0:0:
448,192,81977,1,0,0:0:0:0:
320,192,82148,1,0,0:0:0:0:
320,192,82320,128,2,82491:0:0:0:0:
64,192,82320,1,0,0:0:0:0:
448,192,82320,1,0,0:0:0:0:
64,192,82491,1,0,0:0:0:0:
448,192,82662,128,8,82834:0:0:0:0:
64,192,82662,1,0,0:0:0:0:
192,192,82662,1,0,0:0:0:0:
320,192,82662,1,0,0:0:0:0:
320,192,82834,1,0,0:0:0:0:
64,192,83005,128,2,83177:0:0:0:0:
192,192,83005,1,0,0:0:0:0:
448,192,83005,1,0,0:0:0:0:
448,192,83177,1,0,0:0:0:0:
320,192,83348,128,8,83520:0:0:0:0:
448,192,83348,1,0,0:0:0:0:
192,192,83348,1,0,0:0:0:0:
64,192,83348,1,0,0:0:0:0:
64,192,83520,1,0,0:0:0:0:
192,192,83691,128,2,83862:0:0:0:0:
64,192,83691,1,0,0:0:0:0:
320,192,83691,1,0,0:0:0:0:
320,192,83862,1,0,0:0:0:0:
448,192,84034,128,8,84120:0:0:0:0:
64,192,84034,1,0,0:0:0:0:
192,192,84034,1,0,0:0:0:0:
320,192,84034,1,0,0:0:0:0:
448,192,84205,128,0,84291:0:0:0:0:
192,192,84205,1,0,0:0:0:0:
448,192,84377,128,2,84548:0:0:0:0:
320,192,84377,1,0,0:0:0:0:
64,192,84377,1,0,0:0:0:0:
64,192,84548,1,0,0:0:0:0:
320,192,84720,128,8,84891:0:0:0:0:
64,192,84720,1,0,0:0:0:0:
192,192,84720,1,0,0:0:0:0:
448,192,84720,1,0,0:0:0:0:
448,192,84891,1,0,0:0:0:0:
192,192,85062,128,2,85234:0:0:0:0:
448,192,85062,1,0,0:0:0:0:
64,192,85062,1,0,0:0:0:0:
64,192,85234,1,0,0:0:0:0:
64,192,85405,128,8,85577:0:0:0:0:
192,192,85405,1,0,0:0:0:0:
320,192,85405,1,0,0:0:0:0:
448,192,85405,1,0,0:0:0:0:
320,192,85577,1,0,0:0:0:0:
448,192,85748,128,2,85920:0:0:0:0:
192,192,85748,1,0,0:0:0:0:
64,192,85748,1,0,0:0:0:0:
192,192,85920,1,0,0:0:0:0:
192,192,86091,128,8,86262:0:0:0:0:
320,192,86091,1,0,0:0:0:0:
448,192,86091,1,0,0:0:0:0:
64,192,86091,1,0,0:0:0:0:
320,192,86262,1,0,0:0:0:0:
320,192,86434,128,2,86605:0:0:0:0:
64,192,86434,1,0,0:0:0:0:
448,192,86434,1,0,0:0:0:0:
64,192,86605,1,0,0:0:0:0:
64,192,86777,128,8,87034:0:0:0:0:
192,192,86777,1,0,0:0:0:0:
320,192,86777,1,0,0:0:0:0:
448,192,86777,1,0,0:0:0:0:
320,192,86948,128,0,87034:0:0:0:0:
192,192,87120,128,4,87377:0:0:0:0:
64,192,87120,1,2,0:0:0:0:
320,192,87120,1,0,0:0:0:0:
448,192,87120,1,0,0:0:0:0:
448,192,87291,128,0,87377:0:0:0:0:
448,192,87462,128,0,87720:0:0:0:0:
192,192,87634,128,0,87720:0:0:0:0:
64,192,87805,128,0,88062:0:0:0:0:
320,192,87977,128,0,88062:0:0:0:0:
448,192,88148,128,8,88234:0:0:0:0:
64,192,88148,1,0,0:0:0:0:
192,192,88148,1,0,0:0:0:0:
320,192,88148,1,0,0:0:0:0:
448,192,88320,128,0,88405:0:0:0:0:
192,192,88320,1,0,0:0:0:0:
192,192,88491,1,2,0:0:0:0:
320,192,88491,1,0,0:0:0:0:
64,192,88491,128,0,88577:0:0:0:0:
448,192,88491,128,4,88748:0:0:0:0:
192,192,88662,128,0,88748:0:0:0:0:
64,192,88834,128,8,89005:0:0:0:0:
448,192,88834,1,0,0:0:0:0:
192,192,88834,1,0,0:0:0:0:
320,192,89005,128,0,89091:0:0:0:0:
64,192,89177,128,2,89262:0:0:0:0:
192,192,89177,128,0,89434:0:0:0:0:
448,192,89177,1,0,0:0:0:0:
320,192,89348,128,0,89434:0:0:0:0:
448,192,89520,128,8,89605:0:0:0:0:
192,192,89520,128,0,89605:0:0:0:0:
64,192,89520,1,0,0:0:0:0:
320,192,89520,1,0,0:0:0:0:
448,192,89691,128,0,89777:0:0:0:0:
192,192,89691,128,0,89777:0:0:0:0:
192,192,89862,128,0,89948:0:0:0:0:
448,192,89862,128,0,90120:0:0:0:0:
320,192,89862,1,2,0:0:0:0:
64,192,90034,128,0,90120:0:0:0:0:
448,192,90205,128,0,90291:0:0:0:0:
320,192,90205,128,8,90462:0:0:0:0:
64,192,90205,1,0,0:0:0:0:
192,192,90205,1,0,0:0:0:0:
192,192,90377,128,0,90462:0:0:0:0:
192,192,90548,128,0,90805:0:0:0:0:
64,192,90548,128,0,90634:0:0:0:0:
448,192,90548,1,2,0:0:0:0:
320,192,90720,128,0,90805:0:0:0:0:
448,192,90891,128,8,91148:0:0:0:0:
64,192,90891,128,0,90977:0:0:0:0:
192,192,90891,1,0,0:0:0:0:
320,192,90891,1,0,0:0:0:0:
320,192,91062,128,0,91148:0:0:0:0:
64,192,91234,128,0,91491:0:0:0:0:
448,192,91234,128,0,91320:0:0:0:0:
320,192,91234,1,2,0:0:0:0:
192,192,91405,128,0,91491:0:0:0:0:
320,192,91577,128,0,91662:0:0:0:0:
448,192,91577,128,8,91834:0:0:0:0:
64,192,91577,1,0,0:0:0:0:
192,192,91577,1,0,0:0:0:0:
64,192,91748,128,0,91834:0:0:0:0:
192,192,91920,128,0,92005:0:0:0:0:
320,192,91920,128,0,92177:0:0:0:0:
448,192,91920,1,2,0:0:0:0:
448,192,92091,128,0,92177:0:0:0:0:
192,192,92262,128,0,92348:0:0:0:0:
64,192,92262,128,8,92348:0:0:0:0:
320,192,92262,1,0,0:0:0:0:
448,192,92262,1,0,0:0:0:0:
192,192,92434,128,0,92520:0:0:0:0:
64,192,92434,128,0,92520:0:0:0:0:
64,192,92605,128,0,92691:0:0:0:0:
192,192,92605,128,0,92862:0:0:0:0:
448,192,92605,1,2,0:0:0:0:
320,192,92777,128,0,92862:0:0:0:0:
64,192,92948,128,8,93205:0:0:0:0:
448,192,92948,128,0,93034:0:0:0:0:
192,192,92948,1,0,0:0:0:0:
320,192,92948,1,0,0:0:0:0:
192,192,93120,128,0,93205:0:0:0:0:
320,192,93291,128,0,93548:0:0:0:0:
64,192,93291,128,0,93377:0:0:0:0:
192,192,93291,1,2,0:0:0:0:
448,192,93462,128,0,93548:0:0:0:0:
448,192,93634,128,8,93891:0:0:0:0:
192,192,93634,128,0,93720:0:0:0:0:
64,192,93634,1,0,0:0:0:0:
320,192,93634,1,0,0:0:0:0:
320,192,93805,128,0,93891:0:0:0:0:
64,192,93977,128,0,94062:0:0:0:0:
192,192,93977,128,0,94234:0:0:0:0:
448,192,93977,1,2,0:0:0:0:
320,192,94148,128,0,94234:0:0:0:0:
448,192,94320,128,8,94577:0:0:0:0:
192,192,94320,128,0,94405:0:0:0:0:
64,192,94320,1,0,0:0:0:0:
320,192,94320,1,0,0:0:0:0:
64,192,94491,128,0,94577:0:0:0:0:
320,192,94662,128,2,94920:0:0:0:0:
448,192,94662,128,0,94748:0:0:0:0:
64,192,94662,1,0,0:0:0:0:
192,192,94834,128,0,94920:0:0:0:0:
64,192,95005,128,8,95091:0:0:0:0:
448,192,95005,128,0,95091:0:0:0:0:
192,192,95005,1,0,0:0:0:0:
320,192,95005,1,0,0:0:0:0:
64,192,95177,128,0,95262:0:0:0:0:
448,192,95177,128,0,95262:0:0:0:0:
64,192,95348,128,0,95605:0:0:0:0:
448,192,95348,128,0,95434:0:0:0:0:
192,192,95348,1,2,0:0:0:0:
320,192,95520,128,0,95605:0:0:0:0:
448,192,95691,128,8,95777:0:0:0:0:
320,192,95691,1,0,0:0:0:0:
192,192,95691,128,0,95948:0:0:0:0:
64,192,95691,1,0,0:0:0:0:
64,192,95862,128,0,95948:0:0:0:0:
192,192,96034,128,0,96120:0:0:0:0:
448,192,96034,128,0,96291:0:0:0:0:
64,192,96034,1,2,0:0:0:0:
320,192,96205,128,0,96291:0:0:0:0:
192,192,96377,128,8,96634:0:0:0:0:
64,192,96377,128,0,96462:0:0:0:0:
320,192,96377,1,0,0:0:0:0:
448,192,96377,1,0,0:0:0:0:
320,192,96548,128,0,96634:0:0:0:0:
448,192,96720,128,0,96977:0:0:0:0:
192,192,96720,128,0,96805:0:0:0:0:
320,192,96720,1,2,0:0:0:0:
64,192,96891,128,0,96977:0:0:0:0:
448,192,97062,128,0,97148:0:0:0:0:
320,192,97062,128,8,97320:0:0:0:0:
192,192,97062,1,0,0:0:0:0:
64,192,97062,1,0,0:0:0:0:
192,192,97234,128,0,97320:0:0:0:0:
448,192,97405,128,0,97662:0:0:0:0:
320,192,97405,128,0,97491:0:0:0:0:
192,192,97405,1,2,0:0:0:0:
64,192,97577,128,0,97662:0:0:0:0:
192,192,97748,128,0,97834:0:0:0:0:
320,192,97748,128,8,98005:0:0:0:0:
448,192,97748,1,0,0:0:0:0:
64,192,97748,1,0,0:0:0:0:
448,192,97920,128,0,98005:0:0:0:0:
64,192,98091,128,0,98348:0:0:0:0:
192,192,98091,128,0,98177:0:0:0:0:
320,192,98091,1,2,0:0:0:0:
448,192,98262,128,0,98348:0:0:0:0:
320,192,98434,128,8,98691:0:0:0:0:
192,192,98434,128,0,98520:0:0:0:0:
64,192,98434,1,0,0:0:0:0:
448,192,98434,1,0,0:0:0:0:
448,192,98605,128,0,98691:0:0:0:0:
64,192,98777,128,0,99034:0:0:0:0:
192,192,98777,128,0,98862:0:0:0:0:
448,192,98777,1,2,0:0:0:0:
320,192,98948,128,0,99034:0:0:0:0:
64,192,99120,128,8,99205:0:0:0:0:
448,192,99120,128,8,99205:0:0:0:0:
320,192,99120,128,0,99205:0:0:0:0:
192,192,99205,128,0,99291:0:0:0:0:
64,192,99291,128,0,99377:0:0:0:0:
448,192,99291,128,0,99377:0:0:0:0:
320,192,99377,128,0,99462:0:0:0:0:
448,192,99462,1,8,0:0:0:0:
64,192,99462,1,0,0:0:0:0:
192,192,99462,128,4,99720:0:0:0:0:
64,192,99634,128,0,99720:0:0:0:0:
448,192,99634,1,0,0:0:0:0:
320,192,99805,128,8,100062:0:0:0:0:
448,192,99805,1,0,0:0:0:0:
192,192,99805,1,0,0:0:0:0:
64,192,99805,1,0,0:0:0:0:
192,192,99977,128,0,100062:0:0:0:0:
64,192,99977,1,0,0:0:0:0:
448,192,100148,128,8,100405:0:0:0:0:
64,192,100148,1,0,0:0:0:0:
320,192,100148,1,0,0:0:0:0:
192,192,100148,1,0,0:0:0:0:
320,192,100320,128,0,100405:0:0:0:0:
192,192,100320,1,0,0:0:0:0:
64,192,100491,128,8,100577:0:0:0:0:
448,192,100491,128,0,100577:0:0:0:0:
192,192,100491,1,0,0:0:0:0:
320,192,100491,1,0,0:0:0:0:
64,192,100662,128,8,100748:0:0:0:0:
448,192,100662,128,0,100748:0:0:0:0:
320,192,100662,1,8,0:0:0:0:
64,192,100834,128,8,101091:0:0:0:0:
448,192,100834,128,0,100920:0:0:0:0:
192,192,100834,1,0,0:0:0:0:
320,192,100834,1,0,0:0:0:0:
320,192,101005,128,8,101091:0:0:0:0:
448,192,101005,1,0,0:0:0:0:
192,192,101177,128,8,101434:0:0:0:0:
448,192,101177,1,0,0:0:0:0:
320,192,101177,1,0,0:0:0:0:
64,192,101177,1,0,0:0:0:0:
448,192,101262,1,8,0:0:0:0:
64,192,101348,128,0,101434:0:0:0:0:
320,192,101348,1,0,0:0:0:0:
320,192,101520,128,8,101777:0:0:0:0:
448,192,101520,1,0,0:0:0:0:
192,192,101520,1,0,0:0:0:0:
64,192,101520,1,0,0:0:0:0:
192,192,101691,128,0,101777:0:0:0:0:
64,192,101691,1,8,0:0:0:0:
448,192,101862,128,8,102120:0:0:0:0:
64,192,101862,1,0,0:0:0:0:
192,192,101862,1,0,0:0:0:0:
320,192,101862,1,0,0:0:0:0:
320,192,102034,128,8,102120:0:0:0:0:
192,192,102034,1,0,0:0:0:0:
64,192,102205,128,8,102462:0:0:0:0:
192,192,102205,1,0,0:0:0:0:
320,192,102205,1,0,0:0:0:0:
448,192,102205,1,0,0:0:0:0:
192,192,102377,128,0,102462:0:0:0:0:
320,192,102377,1,0,0:0:0:0:
192,192,102548,128,8,102805:0:0:0:0:
320,192,102548,1,0,0:0:0:0:
448,192,102548,1,0,0:0:0:0:
64,192,102548,1,0,0:0:0:0:
320,192,102720,128,0,102805:0:0:0:0:
448,192,102720,1,0,0:0:0:0:
320,192,102891,128,8,103148:0:0:0:0:
64,192,102891,1,0,0:0:0:0:
192,192,102891,1,0,0:0:0:0:
448,192,103062,128,0,103148:0:0:0:0:
64,192,103062,1,0,0:0:0:0:
448,192,103234,128,8,103320:0:0:0:0:
64,192,103234,128,0,103320:0:0:0:0:
192,192,103234,1,0,0:0:0:0:
320,192,103234,1,0,0:0:0:0:
448,192,103405,128,0,103491:0:0:0:0:
64,192,103405,128,0,103491:0:0:0:0:
320,192,103405,1,8,0:0:0:0:
448,192,103577,128,8,103834:0:0:0:0:
64,192,103577,128,0,103662:0:0:0:0:
192,192,103577,1,0,0:0:0:0:
320,192,103577,1,0,0:0:0:0:
192,192,103748,128,8,103834:0:0:0:0:
320,192,103748,1,0,0:0:0:0:
320,192,103920,128,8,104177:0:0:0:0:
64,192,103920,1,0,0:0:0:0:
192,192,103920,1,0,0:0:0:0:
448,192,103920,1,0,0:0:0:0:
64,192,104005,1,8,0:0:0:0:
448,192,104091,128,0,104177:0:0:0:0:
192,192,104091,1,0,0:0:0:0:
192,192,104262,128,8,104520:0:0:0:0:
64,192,104262,1,0,0:0:0:0:
320,192,104262,1,0,0:0:0:0:
448,192,104262,1,0,0:0:0:0:
320,192,104434,128,0,104520:0:0:0:0:
448,192,104434,1,0,0:0:0:0:
64,192,104605,128,8,104862:0:0:0:0:
192,192,104605,1,0,0:0:0:0:
320,192,104605,1,0,0:0:0:0:
448,192,104605,1,0,0:0:0:0:
192,192,104777,128,0,104862:0:0:0:0:
320,192,104777,1,8,0:0:0:0:
448,192,104948,128,8,105205:0:0:0:0:
320,192,104948,1,0,0:0:0:0:
192,192,104948,1,0,0:0:0:0:
64,192,104948,1,0,0:0:0:0:
320,192,105120,128,2,105205:0:0:0:0:
64,192,105120,1,0,0:0:0:0:
320,192,105291,128,8,105548:0:0:0:0:
64,192,105291,1,0,0:0:0:0:
192,192,105291,1,0,0:0:0:0:
448,192,105291,1,0,0:0:0:0:
192,192,105462,128,0,105548:0:0:0:0:
448,192,105462,1,2,0:0:0:0:
192,192,105634,128,8,105891:0:0:0:0:
320,192,105634,1,0,0:0:0:0:
448,192,105634,1,0,0:0:0:0:
64,192,105634,1,0,0:0:0:0:
64,192,105805,128,0,105891:0:0:0:0:
320,192,105805,1,2,0:0:0:0:
64,192,105977,128,0,106062:0:0:0:0:
448,192,105977,128,8,106062:0:0:0:0:
192,192,105977,1,0,0:0:0:0:
320,192,105977,1,0,0:0:0:0:
64,192,106148,128,0,106234:0:0:0:0:
448,192,106148,128,0,106234:0:0:0:0:
192,192,106148,1,2,0:0:0:0:
64,192,106320,128,8,106577:0:0:0:0:
448,192,106320,128,0,106405:0:0:0:0:
192,192,106320,1,0,0:0:0:0:
320,192,106320,1,0,0:0:0:0:
320,192,106491,128,0,106577:0:0:0:0:
448,192,106491,1,2,0:0:0:0:
448,192,106662,128,8,106920:0:0:0:0:
192,192,106662,1,0,0:0:0:0:
320,192,106662,1,0,0:0:0:0:
64,192,106662,1,0,0:0:0:0:
192,192,106748,1,0,0:0:0:0:
320,192,106834,128,0,106920:0:0:0:0:
64,192,106834,1,2,0:0:0:0:
320,192,107005,128,8,107262:0:0:0:0:
64,192,107005,1,0,0:0:0:0:
192,192,107005,1,0,0:0:0:0:
448,192,107005,1,0,0:0:0:0:
192,192,107177,128,0,107262:0:0:0:0:
448,192,107177,1,2,0:0:0:0:
192,192,107348,128,8,107605:0:0:0:0:
64,192,107348,1,0,0:0:0:0:
448,192,107348,1,0,0:0:0:0:
448,192,107434,1,0,0:0:0:0:
64,192,107520,128,0,107605:0:0:0:0:
320,192,107520,1,2,0:0:0:0:
192,192,107691,1,0,0:0:0:0:
320,192,107691,1,0,0:0:0:0:
448,192,107691,1,0,0:0:0:0:
64,192,107691,128,2,107948:0:0:0:0:
320,192,107777,1,0,0:0:0:0:
192,192,107862,1,0,0:0:0:0:
448,192,107948,1,0,0:0:0:0:
192,192,108034,128,2,108291:0:0:0:0:
320,192,108034,1,0,0:0:0:0:
64,192,108034,1,0,0:0:0:0:
448,192,108120,1,0,0:0:0:0:
64,192,108205,1,0,0:0:0:0:
448,192,108291,1,0,0:0:0:0:
320,192,108377,128,2,108634:0:0:0:0:
64,192,108377,1,0,0:0:0:0:
192,192,108377,1,0,0:0:0:0:
448,192,108462,1,0,0:0:0:0:
64,192,108548,1,0,0:0:0:0:
192,192,108634,1,0,0:0:0:0:
448,192,108720,128,2,108977:0:0:0:0:
320,192,108720,1,0,0:0:0:0:
64,192,108720,1,0,0:0:0:0:
192,192,108805,1,0,0:0:0:0:
64,192,108891,1,0,0:0:0:0:
320,192,108977,1,0,0:0:0:0:
64,192,109062,1,4,0:0:0:0:
192,192,109062,1,2,0:0:0:0:
448,192,109062,1,0,0:0:0:0:
320,192,109148,1,0,0:0:0:0:
192,192,109234,1,0,0:0:0:0:
64,192,109320,1,0,0:0:0:0:
448,192,109405,1,0,0:0:0:0:
320,192,109405,1,0,0:0:0:0:
192,192,109491,1,0,0:0:0:0:
64,192,109577,1,0,0:0:0:0:
448,192,109662,1,0,0:0:0:0:
320,192,109748,1,0,0:0:0:0:
64,192,109748,1,0,0:0:0:0:
192,192,109834,1,0,0:0:0:0:
320,192,109920,1,0,0:0:0:0:
64,192,109920,1,0,0:0:0:0:
448,192,110005,1,0,0:0:0:0:
64,192,110091,1,8,0:0:0:0:
192,192,110091,1,0,0:0:0:0:
320,192,110091,1,0,0:0:0:0:
448,192,110177,1,0,0:0:0:0:
64,192,110262,1,0,0:0:0:0:
320,192,110262,1,0,0:0:0:0:
192,192,110348,1,0,0:0:0:0:
64,192,110434,128,2,110520:0:0:0:0:
320,192,110434,128,0,110520:0:0:0:0:
448,192,110434,128,4,110520:0:0:0:0:
