osu file format v12

[General]
AudioFilename: [SDVX] Max Burning!! - EXH [__].mp3
AudioLeadIn: 0
PreviewTime: 21709
Countdown: 0
SampleSet: None
StackLeniency: 0.7
Mode: 3
LetterboxInBreaks: 0
SpecialStyle: 0
WidescreenStoryboard: 1

[Editor]
DistanceSpacing: 1
BeatDivisor: 12
GridSize: 16

[Metadata]
Title:Max Burning!!
TitleUnicode:Max Burning!!
Artist:BlackY
ArtistUnicode:BlackY
Creator:Skalim
Version:7K Rage!!
Source:SOUND VOLTEX BOOTH
Tags:sdvx distortion asd123iii
BeatmapID:315246
BeatmapSetID:123431

[Difficulty]
HPDrainRate:8
CircleSize:7
OverallDifficulty:7
ApproachRate:5
SliderMultiplier:1.4
SliderTickRate:1

[Events]
//Background and Video events
0,0,"fuego1.jpg",0,0
//Break Periods
//Storyboard Layer 0 (Background)
//Storyboard Layer 1 (Fail)
//Storyboard Layer 2 (Pass)
//Storyboard Layer 3 (Foreground)
//Storyboard Sound Samples
//Background Colour Transformations
3,100,163,162,255

[TimingPoints]
1598,315.789473684211,4,3,1,60,1,0
1676,-100,4,3,1,40,0,0
4755,-100,4,3,1,40,0,0
5150,-100,4,3,1,60,0,0
6020,-66.6666666666667,4,3,1,60,0,0
6177,-133.333333333333,4,3,1,60,0,0
6256,-222.222222222221,4,3,1,60,0,0
6335,-66.6666666666667,4,3,1,60,0,0
6493,-133.333333333333,4,3,1,60,0,0
6572,-222.222222222221,4,3,1,60,0,0
6651,-100,4,3,1,60,0,0
9808,-100,4,3,1,60,0,0
10203,-100,4,3,1,60,0,0
11072,-66.6666666666667,4,3,1,60,0,0
11230,-133.333333333333,4,3,1,60,0,0
11309,-222.222222222221,4,3,1,60,0,0
11388,-66.6666666666667,4,3,1,60,0,0
11546,-133.333333333333,4,3,1,60,0,0
11625,-222.222222222222,4,3,1,60,0,0
11704,-100,4,3,1,60,0,0
14861,-100,4,3,1,60,0,0
15255,-100,4,3,1,60,0,0
16125,-181.818181818181,4,3,1,60,0,0
16204,-66.6666666666667,4,3,1,60,0,0
16283,-166.666666666667,4,3,1,60,0,0
16362,-66.6666666666667,4,3,1,60,0,0
16441,-166.666666666667,4,3,1,60,0,0
16520,-66.6666666666667,4,3,1,60,0,0
16598,-166.666666666667,4,3,1,60,0,0
16677,-66.6666666666667,4,3,1,60,0,0
16756,-100,4,3,1,60,0,0
19282,-100,4,3,1,60,0,0
20546,-66.6666666666667,4,3,1,60,0,0
20677,-133.333333333333,4,3,1,60,0,0
20730,-222.222222222221,4,3,1,60,0,0
20783,-66.6666666666667,4,3,1,60,0,0
20914,-133.333333333333,4,3,1,60,0,0
20967,-222.222222222221,4,3,1,60,0,0
21020,-66.6666666666667,4,3,1,60,0,0
21151,-133.333333333333,4,3,1,60,0,0
21204,-222.222222222221,4,3,1,60,0,0
21256,-66.6666666666667,4,3,1,60,0,0
21388,-133.333333333333,4,3,1,60,0,0
21441,-222.222222222221,4,3,1,60,0,0
21493,-100,4,3,1,60,0,0
21808,-100,4,3,1,60,0,1
25756,-76.9230769230769,4,3,1,60,0,1
25835,-133.333333333333,4,3,1,60,0,1
25888,-222.222222222221,4,3,1,60,0,1
25914,-100,4,3,1,60,0,1
28756,-76.9230769230769,4,3,1,60,0,1
28862,-153.846153846153,4,3,1,60,0,1
28914,-76.9230769230769,4,3,1,60,0,1
29020,-153.846153846153,4,3,1,60,0,1
29072,-100,4,3,1,60,0,1
31283,-66.6666666666667,4,3,1,60,0,1
31441,-100,4,3,1,60,0,1
31493,-133.333333333333,4,3,1,60,0,1
31546,-222.222222222221,4,3,1,60,0,1
31598,-66.6666666666667,4,3,1,60,0,1
31756,-100,4,3,1,60,0,1
31809,-133.333333333333,4,3,1,60,0,1
31862,-222.222222222221,4,3,1,60,0,1
31913,-100,4,3,1,60,0,0
36335,-76.9230769230769,4,3,1,60,0,0
36441,-222.222222222221,4,3,1,60,0,0
36493,-100,4,3,1,60,0,0
52124,-100,4,3,1,60,0,1
61756,-50,4,3,1,60,0,1
62046,-66.6666666666667,4,3,1,60,0,1
62098,-100,4,3,1,60,0,1
62151,-133.333333333333,4,3,1,60,0,1
62204,-222.222222222221,4,3,1,60,0,1
62229,-100,4,3,1,60,0,0
71703,-50,4,3,1,60,0,0
72177,-95.2380952380951,4,3,1,60,0,0
72256,-222.222222222221,4,3,1,60,0,0
72335,-100,4,3,1,60,0,0
79282,-100,4,3,1,60,0,0
79913,-100,4,3,1,60,0,0
90019,-100,4,3,1,60,0,0
92230,-50,4,3,1,60,0,0
92388,-66.6666666666667,4,3,1,60,0,0
92467,-133.333333333333,4,3,1,60,0,0
92546,-222.222222222221,4,3,1,60,0,0
92604,315.789473684211,4,3,1,60,1,1
100120,315.789473684211,4,3,1,60,1,1
102646,-100,4,3,1,60,0,0
102725,-100,4,3,1,60,0,0
105568,-66.6666666666667,4,3,1,60,0,0
105700,-133.333333333333,4,3,1,60,0,0
105752,-222.222222222221,4,3,1,60,0,0
105805,-66.6666666666667,4,3,1,60,0,0
105937,-133.333333333333,4,3,1,60,0,0
105989,-222.222222222221,4,3,1,60,0,0
106042,-66.6666666666667,4,3,1,60,0,0
106173,-133.333333333333,4,3,1,60,0,0
106226,-222.222222222221,4,3,1,60,0,0
106279,-66.6666666666667,4,3,1,60,0,0
106410,-133.333333333333,4,3,1,60,0,0
106463,-222.222222222221,4,3,1,60,0,0
106516,-66.6666666666667,4,3,1,60,0,0
106647,-133.333333333333,4,3,1,60,0,0
106700,-222.222222222221,4,3,1,60,0,0
106752,-66.6666666666667,4,3,1,60,0,0
106884,-133.333333333333,4,3,1,60,0,0
106937,-222.222222222221,4,3,1,60,0,0
106989,-66.6666666666667,4,3,1,60,0,0
107121,-133.333333333333,4,3,1,60,0,0
107173,-222.222222222221,4,3,1,60,0,0
107226,-66.6666666666667,4,3,1,60,0,0
107358,-133.333333333333,4,3,1,60,0,0
107410,-222.222222222221,4,3,1,60,0,0
107463,-100,4,3,1,60,0,0

[HitObjects]
109,192,1598,1,0,0:0:0:0:
329,192,1598,1,0,0:0:0:0:
402,192,1598,1,0,0:0:0:0:
36,192,1755,1,0,0:0:0:0:
256,192,1755,1,0,0:0:0:0:
182,192,1913,1,0,0:0:0:0:
329,192,1913,1,0,0:0:0:0:
329,192,2071,1,0,0:0:0:0:
475,192,2071,1,0,0:0:0:0:
109,192,2229,1,0,0:0:0:0:
182,192,2229,1,0,0:0:0:0:
256,192,2387,1,0,0:0:0:0:
329,192,2387,1,0,0:0:0:0:
109,192,2545,1,0,0:0:0:0:
475,192,2545,1,0,0:0:0:0:
182,192,2703,1,0,0:0:0:0:
402,192,2703,1,0,0:0:0:0:
36,192,2861,1,0,0:0:0:0:
329,192,2861,1,0,0:0:0:0:
182,192,3019,1,0,0:0:0:0:
256,192,3019,1,0,0:0:0:0:
109,192,3176,128,0,3492:0:0:0:0:
256,192,3176,1,0,0:0:0:0:
475,192,3176,1,0,0:0:0:0:
182,192,3334,1,0,0:0:0:0:
329,192,3334,1,0,0:0:0:0:
256,192,3492,1,0,0:0:0:0:
475,192,3492,1,0,0:0:0:0:
402,192,3650,128,0,3808:0:0:0:0:
36,192,3650,1,0,0:0:0:0:
182,192,3650,1,0,0:0:0:0:
109,192,3808,1,0,0:0:0:0:
256,192,3808,1,0,0:0:0:0:
109,192,3966,128,0,4124:0:0:0:0:
402,192,3966,1,0,0:0:0:0:
475,192,3966,1,0,0:0:0:0:
36,192,4124,128,0,4440:0:0:0:0:
182,192,4124,1,0,0:0:0:0:
256,192,4124,1,0,0:0:0:0:
182,192,4440,1,0,0:0:0:0:
329,192,4440,1,0,0:0:0:0:
109,192,4598,1,0,0:0:0:0:
475,192,4598,1,0,0:0:0:0:
402,192,4755,1,2,0:0:0:0:
109,192,4834,1,2,0:0:0:0:
402,192,4913,1,2,0:0:0:0:
109,192,4992,1,2,0:0:0:0:
402,192,5071,1,2,0:0:0:0:
329,192,5071,1,2,0:0:0:0:
109,192,5229,1,0,0:0:0:0:
256,192,5229,1,0,0:0:0:0:
329,192,5387,1,0,0:0:0:0:
475,192,5387,1,0,0:0:0:0:
109,192,5545,1,0,0:0:0:0:
256,192,5545,1,0,0:0:0:0:
182,192,5703,1,0,0:0:0:0:
36,192,5703,128,0,6019:0:0:0:0:
256,192,5861,1,0,0:0:0:0:
329,192,6019,1,0,0:0:0:0:
402,192,6019,1,8,0:0:0:0:
475,192,6019,128,0,6334:0:0:0:0:
109,192,6019,1,0,0:0:0:0:
109,192,6334,1,8,0:0:0:0:
402,192,6334,1,0,0:0:0:0:
182,192,6334,1,0,0:0:0:0:
36,192,6334,128,0,6650:0:0:0:0:
109,192,6650,1,0,0:0:0:0:
329,192,6650,1,0,0:0:0:0:
402,192,6650,1,0,0:0:0:0:
256,192,6808,1,0,0:0:0:0:
475,192,6808,1,0,0:0:0:0:
36,192,6966,1,0,0:0:0:0:
182,192,6966,1,2,0:0:0:0:
329,192,6966,1,0,0:0:0:0:
256,192,7124,1,0,0:0:0:0:
402,192,7124,1,0,0:0:0:0:
36,192,7282,1,0,0:0:0:0:
182,192,7282,1,0,0:0:0:0:
109,192,7440,1,0,0:0:0:0:
402,192,7440,1,0,0:0:0:0:
256,192,7598,1,0,0:0:0:0:
329,192,7598,1,2,0:0:0:0:
475,192,7598,1,0,0:0:0:0:
182,192,7755,1,0,0:0:0:0:
36,192,7755,1,0,0:0:0:0:
256,192,7913,1,0,0:0:0:0:
475,192,7913,1,0,0:0:0:0:
109,192,8071,1,0,0:0:0:0:
182,192,8071,1,0,0:0:0:0:
475,192,8229,1,0,0:0:0:0:
402,192,8229,128,0,8545:0:0:0:0:
256,192,8229,1,2,0:0:0:0:
182,192,8387,1,0,0:0:0:0:
329,192,8387,1,0,0:0:0:0:
256,192,8545,1,0,0:0:0:0:
36,192,8545,1,0,0:0:0:0:
109,192,8703,128,0,8861:0:0:0:0:
182,192,8703,1,0,0:0:0:0:
329,192,8703,1,0,0:0:0:0:
256,192,8861,1,2,0:0:0:0:
475,192,8861,1,0,0:0:0:0:
402,192,9019,128,0,9176:0:0:0:0:
182,192,9019,1,0,0:0:0:0:
329,192,9019,1,0,0:0:0:0:
475,192,9176,128,0,9492:0:0:0:0:
36,192,9176,1,0,0:0:0:0:
256,192,9176,1,0,0:0:0:0:
36,192,9492,1,0,0:0:0:0:
256,192,9492,1,2,0:0:0:0:
402,192,9492,1,0,0:0:0:0:
329,192,9650,1,0,0:0:0:0:
109,192,9650,1,0,0:0:0:0:
36,192,9808,1,2,0:0:0:0:
329,192,9887,1,2,0:0:0:0:
109,192,9966,1,2,0:0:0:0:
402,192,10045,1,2,0:0:0:0:
36,192,10124,1,0,0:0:0:0:
256,192,10124,1,2,0:0:0:0:
329,192,10124,1,2,0:0:0:0:
109,192,10282,1,0,0:0:0:0:
182,192,10282,1,0,0:0:0:0:
256,192,10440,1,0,0:0:0:0:
402,192,10440,1,0,0:0:0:0:
109,192,10598,1,0,0:0:0:0:
329,192,10598,1,0,0:0:0:0:
475,192,10598,128,0,11071:0:0:0:0:
36,192,10755,1,2,0:0:0:0:
256,192,10755,1,0,0:0:0:0:
109,192,10913,1,0,0:0:0:0:
182,192,10913,1,0,0:0:0:0:
256,192,11071,1,0,0:0:0:0:
36,192,11071,128,0,11387:0:0:0:0:
329,192,11071,1,8,0:0:0:0:
402,192,11071,1,0,0:0:0:0:
109,192,11387,1,0,0:0:0:0:
182,192,11387,1,8,0:0:0:0:
256,192,11387,1,0,0:0:0:0:
475,192,11387,128,0,11703:0:0:0:0:
36,192,11703,1,0,0:0:0:0:
329,192,11703,1,8,0:0:0:0:
402,192,11703,1,0,0:0:0:0:
109,192,11861,1,0,0:0:0:0:
182,192,12019,1,0,0:0:0:0:
329,192,12019,1,8,0:0:0:0:
402,192,12019,1,0,0:0:0:0:
256,192,12176,1,0,0:0:0:0:
329,192,12334,1,8,0:0:0:0:
182,192,12334,1,0,0:0:0:0:
36,192,12334,1,0,0:0:0:0:
475,192,12492,1,0,0:0:0:0:
256,192,12571,1,0,0:0:0:0:
109,192,12650,1,0,0:0:0:0:
329,192,12650,1,8,0:0:0:0:
402,192,12650,1,0,0:0:0:0:
256,192,12729,1,0,0:0:0:0:
475,192,12808,1,0,0:0:0:0:
109,192,12966,1,8,0:0:0:0:
36,192,12966,1,0,0:0:0:0:
182,192,12966,1,0,0:0:0:0:
256,192,13124,1,0,0:0:0:0:
475,192,13282,1,0,0:0:0:0:
109,192,13282,1,8,0:0:0:0:
329,192,13282,128,0,13598:0:0:0:0:
182,192,13440,1,0,0:0:0:0:
36,192,13598,1,0,0:0:0:0:
256,192,13598,1,8,0:0:0:0:
402,192,13755,1,0,0:0:0:0:
182,192,13755,128,0,13913:0:0:0:0:
256,192,13913,1,0,0:0:0:0:
475,192,13913,1,8,0:0:0:0:
329,192,14071,128,0,14229:0:0:0:0:
109,192,14071,1,0,0:0:0:0:
402,192,14229,1,0,0:0:0:0:
36,192,14229,128,0,14545:0:0:0:0:
182,192,14229,1,0,0:0:0:0:
256,192,14229,1,0,0:0:0:0:
475,192,14545,1,0,0:0:0:0:
329,192,14545,1,0,0:0:0:0:
402,192,14545,1,8,0:0:0:0:
109,192,14703,1,0,0:0:0:0:
329,192,14861,1,2,0:0:0:0:
402,192,14861,1,10,0:0:0:0:
36,192,14940,1,2,0:0:0:0:
109,192,14940,1,2,0:0:0:0:
475,192,15019,1,2,0:0:0:0:
402,192,15019,1,10,0:0:0:0:
182,192,15098,1,2,0:0:0:0:
109,192,15098,1,2,0:0:0:0:
256,192,15176,1,10,0:0:0:0:
329,192,15176,1,2,0:0:0:0:
402,192,15334,1,0,0:0:0:0:
36,192,15492,1,0,0:0:0:0:
256,192,15492,1,8,0:0:0:0:
329,192,15492,1,0,0:0:0:0:
182,192,15650,1,0,0:0:0:0:
256,192,15808,1,8,0:0:0:0:
475,192,15808,1,0,0:0:0:0:
109,192,15808,1,0,0:0:0:0:
329,192,15966,1,0,0:0:0:0:
36,192,16124,128,0,16440:0:0:0:0:
109,192,16124,1,8,0:0:0:0:
182,192,16124,1,8,0:0:0:0:
256,192,16282,1,0,0:0:0:0:
475,192,16440,128,0,16755:0:0:0:0:
329,192,16440,1,8,0:0:0:0:
402,192,16440,1,8,0:0:0:0:
256,192,16598,1,0,0:0:0:0:
256,192,16755,1,4,0:0:0:0:
109,192,16755,1,0,0:0:0:0:
256,192,16913,1,4,0:0:0:0:
256,192,17071,1,4,0:0:0:0:
402,192,17229,128,0,20071:0:0:0:0:
256,192,17229,1,4,0:0:0:0:
182,192,17387,1,4,0:0:0:0:
182,192,17545,1,4,0:0:0:0:
182,192,17703,1,4,0:0:0:0:
182,192,17861,1,4,0:0:0:0:
109,192,18019,1,4,0:0:0:0:
109,192,18176,1,4,0:0:0:0:
109,192,18334,1,4,0:0:0:0:
109,192,18492,1,4,0:0:0:0:
329,192,18650,1,4,0:0:0:0:
329,192,18808,1,4,0:0:0:0:
256,192,18966,1,4,0:0:0:0:
256,192,19124,1,4,0:0:0:0:
109,192,19282,1,8,0:0:0:0:
475,192,19361,1,8,0:0:0:0:
182,192,19440,1,8,0:0:0:0:
329,192,19519,1,8,0:0:0:0:
36,192,19598,1,8,0:0:0:0:
475,192,19676,1,8,0:0:0:0:
256,192,19755,1,8,0:0:0:0:
109,192,19834,1,8,0:0:0:0:
475,192,19913,1,8,0:0:0:0:
182,192,19992,1,8,0:0:0:0:
329,192,20071,1,8,0:0:0:0:
36,192,20150,1,8,0:0:0:0:
109,192,20229,128,0,20545:0:0:0:0:
475,192,20229,1,8,0:0:0:0:
402,192,20308,1,8,0:0:0:0:
329,192,20387,1,8,0:0:0:0:
256,192,20466,1,8,0:0:0:0:
182,192,20545,1,10,0:0:0:0:
329,192,20545,1,10,0:0:0:0:
402,192,20545,1,4,0:0:0:0:
109,192,20782,1,10,0:0:0:0:
36,192,20782,1,4,0:0:0:0:
256,192,20782,1,10,0:0:0:0:
256,192,21019,1,10,0:0:0:0:
402,192,21019,1,10,0:0:0:0:
475,192,21019,1,4,0:0:0:0:
36,192,21255,1,4,0:0:0:0:
109,192,21255,1,10,0:0:0:0:
182,192,21255,1,10,0:0:0:0:
329,192,21492,1,10,0:0:0:0:
402,192,21492,1,10,0:0:0:0:
475,192,21492,1,4,0:0:0:0:
109,192,21650,1,10,0:0:0:0:
36,192,21650,1,4,0:0:0:0:
182,192,21650,1,10,0:0:0:0:
329,192,21808,1,2,0:0:0:0:
256,192,21808,1,10,0:0:0:0:
475,192,21808,1,4,0:0:0:0:
36,192,21966,1,0,0:0:0:0:
182,192,21966,1,0,0:0:0:0:
256,192,22124,1,4,0:0:0:0:
475,192,22124,1,4,0:0:0:0:
109,192,22124,1,8,0:0:0:0:
109,192,22282,1,0,0:0:0:0:
182,192,22282,1,0,0:0:0:0:
256,192,22440,1,4,0:0:0:0:
36,192,22440,1,4,0:0:0:0:
182,192,22519,1,0,0:0:0:0:
402,192,22598,1,0,0:0:0:0:
109,192,22676,1,0,0:0:0:0:
256,192,22755,1,12,0:0:0:0:
475,192,22755,1,4,0:0:0:0:
109,192,22834,1,0,0:0:0:0:
36,192,22913,1,0,0:0:0:0:
256,192,22992,1,0,0:0:0:0:
109,192,23071,1,4,0:0:0:0:
402,192,23071,1,4,0:0:0:0:
329,192,23071,1,0,0:0:0:0:
36,192,23229,1,0,0:0:0:0:
256,192,23229,1,0,0:0:0:0:
402,192,23387,1,4,0:0:0:0:
182,192,23387,1,8,0:0:0:0:
475,192,23387,1,4,0:0:0:0:
256,192,23545,1,0,0:0:0:0:
329,192,23545,1,0,0:0:0:0:
182,192,23703,1,4,0:0:0:0:
402,192,23703,1,4,0:0:0:0:
109,192,23703,128,0,24019:0:0:0:0:
256,192,23861,1,0,0:0:0:0:
36,192,24019,1,4,0:0:0:0:
475,192,24019,1,4,0:0:0:0:
402,192,24098,1,0,0:0:0:0:
329,192,24176,1,0,0:0:0:0:
256,192,24255,1,0,0:0:0:0:
182,192,24334,1,4,0:0:0:0:
36,192,24334,1,4,0:0:0:0:
109,192,24492,1,0,0:0:0:0:
402,192,24492,1,0,0:0:0:0:
36,192,24650,1,0,0:0:0:0:
256,192,24650,1,12,0:0:0:0:
329,192,24650,1,4,0:0:0:0:
182,192,24808,1,0,0:0:0:0:
475,192,24808,1,0,0:0:0:0:
329,192,24966,1,4,0:0:0:0:
109,192,24966,1,4,0:0:0:0:
182,192,25045,1,0,0:0:0:0:
36,192,25045,1,0,0:0:0:0:
256,192,25203,1,0,0:0:0:0:
475,192,25203,1,0,0:0:0:0:
36,192,25361,1,0,0:0:0:0:
182,192,25361,1,0,0:0:0:0:
329,192,25440,1,0,0:0:0:0:
109,192,25440,1,0,0:0:0:0:
182,192,25598,1,4,0:0:0:0:
475,192,25598,1,0,0:0:0:0:
36,192,25598,1,4,0:0:0:0:
109,192,25755,1,2,0:0:0:0:
256,192,25755,1,2,0:0:0:0:
402,192,25755,128,0,25913:0:0:0:0:
36,192,25913,1,12,0:0:0:0:
182,192,25913,1,12,0:0:0:0:
475,192,25992,1,0,0:0:0:0:
329,192,25992,1,8,0:0:0:0:
36,192,26071,1,8,0:0:0:0:
182,192,26071,1,8,0:0:0:0:
109,192,26229,1,0,0:0:0:0:
256,192,26229,1,0,0:0:0:0:
182,192,26229,128,0,26387:0:0:0:0:
402,192,26387,1,0,0:0:0:0:
329,192,26387,1,0,0:0:0:0:
182,192,26545,1,0,0:0:0:0:
109,192,26545,1,8,0:0:0:0:
329,192,26624,1,0,0:0:0:0:
475,192,26624,1,8,0:0:0:0:
36,192,26703,1,8,0:0:0:0:
182,192,26703,1,0,0:0:0:0:
256,192,26782,1,8,0:0:0:0:
329,192,26782,1,0,0:0:0:0:
182,192,26861,1,4,0:0:0:0:
402,192,26861,1,12,0:0:0:0:
109,192,27019,1,0,0:0:0:0:
256,192,27019,1,0,0:0:0:0:
329,192,27176,1,4,0:0:0:0:
402,192,27176,1,12,0:0:0:0:
475,192,27176,1,0,0:0:0:0:
256,192,27334,1,0,0:0:0:0:
36,192,27334,1,0,0:0:0:0:
182,192,27492,1,4,0:0:0:0:
109,192,27492,1,4,0:0:0:0:
475,192,27571,1,0,0:0:0:0:
36,192,27650,1,0,0:0:0:0:
329,192,27729,1,0,0:0:0:0:
402,192,27808,1,12,0:0:0:0:
475,192,27808,1,4,0:0:0:0:
256,192,27887,1,0,0:0:0:0:
109,192,27966,1,0,0:0:0:0:
256,192,28045,1,0,0:0:0:0:
329,192,28124,1,4,0:0:0:0:
36,192,28124,1,0,0:0:0:0:
402,192,28124,1,4,0:0:0:0:
182,192,28282,1,0,0:0:0:0:
256,192,28282,1,0,0:0:0:0:
329,192,28440,1,4,0:0:0:0:
475,192,28440,1,0,0:0:0:0:
402,192,28440,1,12,0:0:0:0:
36,192,28598,1,0,0:0:0:0:
182,192,28598,1,0,0:0:0:0:
402,192,28755,1,2,0:0:0:0:
109,192,28755,1,8,0:0:0:0:
402,192,28913,1,2,0:0:0:0:
109,192,28913,1,8,0:0:0:0:
402,192,29071,1,8,0:0:0:0:
109,192,29071,1,8,0:0:0:0:
475,192,29071,1,0,0:0:0:0:
182,192,29150,1,0,0:0:0:0:
256,192,29229,1,0,0:0:0:0:
329,192,29308,1,0,0:0:0:0:
402,192,29387,1,4,0:0:0:0:
109,192,29387,1,4,0:0:0:0:
182,192,29545,1,0,0:0:0:0:
256,192,29545,1,0,0:0:0:0:
329,192,29703,1,12,0:0:0:0:
475,192,29703,1,4,0:0:0:0:
182,192,29861,1,0,0:0:0:0:
402,192,29861,1,0,0:0:0:0:
109,192,30019,1,4,0:0:0:0:
329,192,30019,1,4,0:0:0:0:
402,192,30098,1,0,0:0:0:0:
475,192,30098,1,0,0:0:0:0:
182,192,30255,1,0,0:0:0:0:
256,192,30255,1,4,0:0:0:0:
402,192,30413,1,0,0:0:0:0:
475,192,30413,1,0,0:0:0:0:
329,192,30492,1,0,0:0:0:0:
109,192,30492,1,0,0:0:0:0:
182,192,30650,1,0,0:0:0:0:
256,192,30650,1,0,0:0:0:0:
109,192,30808,1,8,0:0:0:0:
329,192,30808,1,0,0:0:0:0:
402,192,30808,128,0,30966:0:0:0:0:
182,192,30887,1,8,0:0:0:0:
36,192,30966,1,8,0:0:0:0:
256,192,30966,1,0,0:0:0:0:
182,192,31124,1,0,0:0:0:0:
402,192,31124,1,8,0:0:0:0:
329,192,31203,1,8,0:0:0:0:
256,192,31282,1,8,0:0:0:0:
475,192,31282,1,8,0:0:0:0:
36,192,31282,128,0,31598:0:0:0:0:
475,192,31598,128,0,31913:0:0:0:0:
109,192,31598,1,0,0:0:0:0:
256,192,31598,1,8,0:0:0:0:
329,192,31598,1,8,0:0:0:0:
182,192,31913,1,4,0:0:0:0:
329,192,31913,1,8,0:0:0:0:
402,192,31913,1,4,0:0:0:0:
109,192,32071,1,0,0:0:0:0:
256,192,32071,1,0,0:0:0:0:
36,192,32229,1,12,0:0:0:0:
329,192,32229,1,4,0:0:0:0:
182,192,32387,1,0,0:0:0:0:
402,192,32387,1,0,0:0:0:0:
256,192,32545,1,4,0:0:0:0:
329,192,32545,1,4,0:0:0:0:
475,192,32545,1,0,0:0:0:0:
36,192,32624,1,0,0:0:0:0:
402,192,32703,1,0,0:0:0:0:
256,192,32782,1,0,0:0:0:0:
109,192,32861,1,4,0:0:0:0:
475,192,32861,1,12,0:0:0:0:
256,192,32940,1,0,0:0:0:0:
329,192,33019,1,0,0:0:0:0:
182,192,33098,1,0,0:0:0:0:
36,192,33176,1,0,0:0:0:0:
475,192,33176,1,4,0:0:0:0:
402,192,33176,1,4,0:0:0:0:
109,192,33334,1,0,0:0:0:0:
256,192,33334,1,0,0:0:0:0:
182,192,33492,1,0,0:0:0:0:
329,192,33492,1,12,0:0:0:0:
402,192,33492,1,4,0:0:0:0:
256,192,33650,1,0,0:0:0:0:
36,192,33650,1,0,0:0:0:0:
475,192,33808,128,0,34124:0:0:0:0:
109,192,33808,1,4,0:0:0:0:
182,192,33808,1,4,0:0:0:0:
256,192,33966,1,0,0:0:0:0:
329,192,33966,1,0,0:0:0:0:
182,192,34124,1,4,0:0:0:0:
402,192,34203,1,4,0:0:0:0:
109,192,34282,1,4,0:0:0:0:
329,192,34361,1,4,0:0:0:0:
182,192,34440,1,4,0:0:0:0:
256,192,34440,1,4,0:0:0:0:
109,192,34598,1,0,0:0:0:0:
329,192,34598,1,0,0:0:0:0:
182,192,34755,1,4,0:0:0:0:
256,192,34755,1,12,0:0:0:0:
475,192,34755,1,0,0:0:0:0:
329,192,34913,1,0,0:0:0:0:
402,192,34913,1,0,0:0:0:0:
36,192,35071,1,4,0:0:0:0:
256,192,35071,1,4,0:0:0:0:
329,192,35150,1,0,0:0:0:0:
475,192,35150,1,0,0:0:0:0:
109,192,35308,1,0,0:0:0:0:
256,192,35308,1,0,0:0:0:0:
329,192,35466,1,0,0:0:0:0:
475,192,35466,1,0,0:0:0:0:
36,192,35545,1,0,0:0:0:0:
256,192,35545,1,0,0:0:0:0:
182,192,35703,1,4,0:0:0:0:
109,192,35703,1,4,0:0:0:0:
402,192,35703,1,0,0:0:0:0:
256,192,35861,1,0,0:0:0:0:
329,192,35861,1,0,0:0:0:0:
402,192,36019,1,4,0:0:0:0:
475,192,36019,1,4,0:0:0:0:
182,192,36019,1,8,0:0:0:0:
109,192,36176,1,0,0:0:0:0:
256,192,36176,1,0,0:0:0:0:
329,192,36334,1,8,0:0:0:0:
182,192,36334,1,8,0:0:0:0:
329,192,36492,1,8,0:0:0:0:
182,192,36492,1,8,0:0:0:0:
36,192,36650,1,8,0:0:0:0:
109,192,36650,1,8,0:0:0:0:
402,192,36729,1,8,0:0:0:0:
475,192,36729,1,8,0:0:0:0:
109,192,36808,1,8,0:0:0:0:
182,192,36808,1,8,0:0:0:0:
329,192,36887,1,8,0:0:0:0:
402,192,36887,1,8,0:0:0:0:
256,192,36966,1,4,0:0:0:0:
36,192,36966,1,4,0:0:0:0:
182,192,37124,1,0,0:0:0:0:
109,192,37124,1,0,0:0:0:0:
256,192,37282,1,4,0:0:0:0:
475,192,37282,1,8,0:0:0:0:
36,192,37282,1,4,0:0:0:0:
109,192,37440,1,0,0:0:0:0:
329,192,37440,1,0,0:0:0:0:
182,192,37598,1,4,0:0:0:0:
256,192,37598,1,4,0:0:0:0:
402,192,37598,1,0,0:0:0:0:
109,192,37676,1,0,0:0:0:0:
329,192,37755,1,0,0:0:0:0:
182,192,37834,1,0,0:0:0:0:
256,192,37913,1,4,0:0:0:0:
475,192,37913,1,12,0:0:0:0:
182,192,37992,1,0,0:0:0:0:
109,192,38071,1,0,0:0:0:0:
36,192,38150,1,0,0:0:0:0:
109,192,38229,1,4,0:0:0:0:
402,192,38229,1,4,0:0:0:0:
182,192,38387,1,0,0:0:0:0:
256,192,38387,1,0,0:0:0:0:
329,192,38545,1,4,0:0:0:0:
475,192,38545,1,4,0:0:0:0:
36,192,38545,1,8,0:0:0:0:
109,192,38703,1,0,0:0:0:0:
256,192,38703,1,0,0:0:0:0:
402,192,38861,1,0,0:0:0:0:
329,192,38861,1,4,0:0:0:0:
109,192,38940,1,4,0:0:0:0:
256,192,39019,1,4,0:0:0:0:
402,192,39098,1,4,0:0:0:0:
109,192,39176,1,4,0:0:0:0:
182,192,39176,1,0,0:0:0:0:
36,192,39255,1,4,0:0:0:0:
402,192,39334,1,4,0:0:0:0:
182,192,39413,1,4,0:0:0:0:
256,192,39492,1,4,0:0:0:0:
475,192,39492,1,4,0:0:0:0:
182,192,39650,1,0,0:0:0:0:
402,192,39650,1,4,0:0:0:0:
329,192,39650,1,4,0:0:0:0:
109,192,39808,1,0,0:0:0:0:
256,192,39808,1,8,0:0:0:0:
475,192,39808,1,8,0:0:0:0:
182,192,39966,1,0,0:0:0:0:
329,192,39966,1,0,0:0:0:0:
36,192,39966,1,0,0:0:0:0:
109,192,40124,1,0,0:0:0:0:
402,192,40124,1,4,0:0:0:0:
475,192,40124,1,4,0:0:0:0:
36,192,40282,1,0,0:0:0:0:
329,192,40282,1,4,0:0:0:0:
402,192,40282,1,4,0:0:0:0:
182,192,40440,1,0,0:0:0:0:
475,192,40440,1,8,0:0:0:0:
256,192,40440,1,8,0:0:0:0:
182,192,40598,1,0,0:0:0:0:
402,192,40598,1,0,0:0:0:0:
109,192,40598,1,0,0:0:0:0:
475,192,40755,1,8,0:0:0:0:
329,192,40755,1,4,0:0:0:0:
256,192,40834,1,4,0:0:0:0:
109,192,40913,1,4,0:0:0:0:
256,192,40992,1,4,0:0:0:0:
329,192,41071,1,12,0:0:0:0:
475,192,41071,1,8,0:0:0:0:
36,192,41071,128,0,41387:0:0:0:0:
475,192,41387,128,2,41624:0:0:0:0:
256,192,41387,1,2,0:0:0:0:
402,192,41624,128,2,41782:0:0:0:0:
256,192,41624,1,2,0:0:0:0:
109,192,41782,128,0,42019:0:0:0:0:
256,192,41861,1,2,0:0:0:0:
256,192,42019,1,2,0:0:0:0:
402,192,42019,128,8,42966:0:0:0:0:
329,192,42255,1,8,0:0:0:0:
36,192,42255,1,0,0:0:0:0:
329,192,42492,1,8,0:0:0:0:
36,192,42492,1,0,0:0:0:0:
36,192,42966,128,0,43913:0:0:0:0:
109,192,42966,1,8,0:0:0:0:
475,192,42966,1,0,0:0:0:0:
109,192,43203,1,8,0:0:0:0:
402,192,43203,1,0,0:0:0:0:
109,192,43440,1,8,0:0:0:0:
329,192,43440,1,0,0:0:0:0:
109,192,43676,1,8,0:0:0:0:
256,192,43676,1,0,0:0:0:0:
256,192,43913,1,0,0:0:0:0:
475,192,43913,1,8,0:0:0:0:
329,192,43913,128,0,44861:0:0:0:0:
475,192,44150,1,8,0:0:0:0:
182,192,44150,1,0,0:0:0:0:
109,192,44387,1,0,0:0:0:0:
475,192,44387,1,8,0:0:0:0:
36,192,44703,1,2,0:0:0:0:
475,192,44703,1,2,0:0:0:0:
182,192,44861,1,2,0:0:0:0:
256,192,44861,1,10,0:0:0:0:
475,192,45334,1,8,0:0:0:0:
36,192,45334,128,0,46045:0:0:0:0:
256,192,45334,1,0,0:0:0:0:
475,192,45571,1,8,0:0:0:0:
182,192,45571,1,0,0:0:0:0:
475,192,45808,1,8,0:0:0:0:
109,192,45808,1,0,0:0:0:0:
256,192,46045,1,8,0:0:0:0:
402,192,46045,1,0,0:0:0:0:
475,192,46045,128,0,46755:0:0:0:0:
109,192,46282,1,0,0:0:0:0:
256,192,46282,1,8,0:0:0:0:
402,192,46755,1,10,0:0:0:0:
329,192,46755,1,2,0:0:0:0:
36,192,46913,1,10,0:0:0:0:
109,192,46913,1,10,0:0:0:0:
329,192,46992,1,10,0:0:0:0:
402,192,46992,1,10,0:0:0:0:
109,192,47229,128,0,47466:0:0:0:0:
36,192,47229,1,8,0:0:0:0:
256,192,47229,1,2,0:0:0:0:
402,192,47466,128,0,47703:0:0:0:0:
256,192,47466,1,8,0:0:0:0:
475,192,47466,1,2,0:0:0:0:
36,192,47703,128,0,47861:0:0:0:0:
109,192,47703,1,2,0:0:0:0:
182,192,47703,1,8,0:0:0:0:
402,192,47861,1,2,0:0:0:0:
475,192,47861,128,0,48098:0:0:0:0:
329,192,47861,1,8,0:0:0:0:
109,192,48098,128,0,48334:0:0:0:0:
182,192,48098,1,2,0:0:0:0:
329,192,48098,1,8,0:0:0:0:
402,192,48334,128,0,48571:0:0:0:0:
182,192,48334,1,8,0:0:0:0:
329,192,48334,1,2,0:0:0:0:
182,192,48571,128,0,48808:0:0:0:0:
36,192,48571,1,8,0:0:0:0:
109,192,48571,1,2,0:0:0:0:
402,192,48808,1,2,0:0:0:0:
329,192,48808,128,2,48966:0:0:0:0:
475,192,48808,1,10,0:0:0:0:
182,192,48966,128,2,49203:0:0:0:0:
109,192,48966,1,2,0:0:0:0:
36,192,48966,1,8,0:0:0:0:
109,192,49203,1,8,0:0:0:0:
402,192,49203,128,0,49440:0:0:0:0:
256,192,49203,1,2,0:0:0:0:
109,192,49440,128,0,49676:0:0:0:0:
475,192,49440,128,0,50387:0:0:0:0:
182,192,49440,1,8,0:0:0:0:
36,192,49440,1,2,0:0:0:0:
256,192,49676,128,0,49913:0:0:0:0:
329,192,49676,1,8,0:0:0:0:
402,192,49676,1,2,0:0:0:0:
36,192,49913,128,0,50229:0:0:0:0:
109,192,49913,1,2,0:0:0:0:
182,192,49913,1,8,0:0:0:0:
109,192,50229,1,2,0:0:0:0:
256,192,50229,1,2,0:0:0:0:
402,192,50387,1,10,0:0:0:0:
182,192,50387,1,2,0:0:0:0:
109,192,50624,1,8,0:0:0:0:
36,192,50624,1,0,0:0:0:0:
182,192,50861,1,8,0:0:0:0:
36,192,50861,1,0,0:0:0:0:
256,192,51098,1,8,0:0:0:0:
36,192,51098,1,0,0:0:0:0:
475,192,51098,128,0,51808:0:0:0:0:
36,192,51334,1,0,0:0:0:0:
329,192,51334,1,8,0:0:0:0:
402,192,51650,1,2,0:0:0:0:
256,192,51650,1,2,0:0:0:0:
329,192,51808,1,10,0:0:0:0:
182,192,51808,1,2,0:0:0:0:
109,192,51887,1,2,0:0:0:0:
402,192,51966,1,2,0:0:0:0:
109,192,52045,1,2,0:0:0:0:
402,192,52124,1,2,0:0:0:0:
256,192,52124,128,0,52440:0:0:0:0:
182,192,52440,128,8,52676:0:0:0:0:
329,192,52440,1,2,0:0:0:0:
402,192,52440,1,2,0:0:0:0:
329,192,52676,128,8,52913:0:0:0:0:
36,192,52676,1,2,0:0:0:0:
109,192,52676,1,2,0:0:0:0:
109,192,52913,128,8,53071:0:0:0:0:
256,192,52913,1,2,0:0:0:0:
475,192,52913,1,2,0:0:0:0:
402,192,53071,128,8,53387:0:0:0:0:
182,192,53071,1,2,0:0:0:0:
475,192,53071,1,2,0:0:0:0:
256,192,53387,1,2,0:0:0:0:
36,192,53387,1,2,0:0:0:0:
475,192,53387,128,8,53624:0:0:0:0:
329,192,53624,1,8,0:0:0:0:
36,192,53624,128,2,53861:0:0:0:0:
256,192,53624,128,2,53861:0:0:0:0:
109,192,53861,128,8,54098:0:0:0:0:
475,192,53861,128,2,54098:0:0:0:0:
182,192,53861,1,2,0:0:0:0:
329,192,54098,128,8,54334:0:0:0:0:
402,192,54098,128,2,54334:0:0:0:0:
256,192,54098,1,2,0:0:0:0:
109,192,54334,128,2,54571:0:0:0:0:
182,192,54334,128,2,54571:0:0:0:0:
36,192,54334,1,8,0:0:0:0:
402,192,54571,128,2,54808:0:0:0:0:
475,192,54571,128,2,54808:0:0:0:0:
329,192,54571,1,8,0:0:0:0:
36,192,54808,128,2,55045:0:0:0:0:
109,192,54808,128,2,55045:0:0:0:0:
182,192,54808,1,8,0:0:0:0:
256,192,55045,1,8,0:0:0:0:
329,192,55045,128,2,55282:0:0:0:0:
475,192,55045,128,2,55282:0:0:0:0:
36,192,55282,128,2,55519:0:0:0:0:
182,192,55282,128,2,55519:0:0:0:0:
402,192,55282,1,8,0:0:0:0:
256,192,55519,128,2,55755:0:0:0:0:
475,192,55519,128,2,55755:0:0:0:0:
109,192,55519,1,8,0:0:0:0:
329,192,55755,128,2,55992:0:0:0:0:
402,192,55755,128,2,55992:0:0:0:0:
109,192,55755,1,8,0:0:0:0:
36,192,55992,128,2,56229:0:0:0:0:
256,192,55992,128,2,56229:0:0:0:0:
182,192,55992,1,8,0:0:0:0:
109,192,56229,128,2,56466:0:0:0:0:
182,192,56229,128,2,56466:0:0:0:0:
402,192,56229,1,8,0:0:0:0:
402,192,56466,128,8,56703:0:0:0:0:
329,192,56466,1,2,0:0:0:0:
36,192,56466,1,2,0:0:0:0:
36,192,56703,1,8,0:0:0:0:
329,192,56703,1,0,0:0:0:0:
109,192,56861,1,2,0:0:0:0:
256,192,56861,1,10,0:0:0:0:
36,192,57019,1,8,0:0:0:0:
329,192,57019,1,0,0:0:0:0:
182,192,57019,128,0,57176:0:0:0:0:
329,192,57176,128,2,57413:0:0:0:0:
256,192,57176,1,8,0:0:0:0:
475,192,57176,1,2,0:0:0:0:
182,192,57413,128,8,57650:0:0:0:0:
36,192,57413,1,2,0:0:0:0:
256,192,57413,1,2,0:0:0:0:
402,192,57650,128,8,57966:0:0:0:0:
36,192,57650,1,2,0:0:0:0:
329,192,57650,1,2,0:0:0:0:
109,192,57966,128,8,58124:0:0:0:0:
182,192,57966,1,2,0:0:0:0:
329,192,57966,1,2,0:0:0:0:
475,192,58124,128,8,58755:0:0:0:0:
402,192,58124,1,2,0:0:0:0:
36,192,58124,1,2,0:0:0:0:
329,192,58361,1,2,0:0:0:0:
109,192,58361,1,8,0:0:0:0:
256,192,58361,1,2,0:0:0:0:
109,192,58598,1,8,0:0:0:0:
402,192,58598,1,2,0:0:0:0:
256,192,58598,1,2,0:0:0:0:
36,192,58755,128,8,59308:0:0:0:0:
182,192,58755,1,2,0:0:0:0:
329,192,58755,1,2,0:0:0:0:
182,192,59071,1,2,0:0:0:0:
475,192,59071,1,8,0:0:0:0:
329,192,59071,1,2,0:0:0:0:
109,192,59308,1,8,0:0:0:0:
402,192,59308,1,2,0:0:0:0:
329,192,59308,1,2,0:0:0:0:
475,192,59308,128,0,60019:0:0:0:0:
182,192,59545,1,2,0:0:0:0:
36,192,59545,1,2,0:0:0:0:
402,192,59545,1,8,0:0:0:0:
109,192,59782,1,8,0:0:0:0:
402,192,59782,1,2,0:0:0:0:
329,192,59782,1,2,0:0:0:0:
182,192,60019,1,2,0:0:0:0:
256,192,60019,1,2,0:0:0:0:
402,192,60019,1,8,0:0:0:0:
36,192,60019,128,0,60650:0:0:0:0:
109,192,60255,1,8,0:0:0:0:
475,192,60255,1,2,0:0:0:0:
329,192,60255,1,2,0:0:0:0:
109,192,60492,1,8,0:0:0:0:
402,192,60492,1,2,0:0:0:0:
256,192,60492,1,2,0:0:0:0:
36,192,60808,1,8,0:0:0:0:
256,192,60808,1,2,0:0:0:0:
402,192,60808,1,2,0:0:0:0:
36,192,61124,1,2,0:0:0:0:
109,192,61124,1,2,0:0:0:0:
256,192,61124,1,8,0:0:0:0:
182,192,61282,1,2,0:0:0:0:
329,192,61282,1,2,0:0:0:0:
475,192,61282,1,8,0:0:0:0:
36,192,61440,1,2,0:0:0:0:
402,192,61440,1,8,0:0:0:0:
256,192,61440,1,2,0:0:0:0:
109,192,61519,1,2,0:0:0:0:
329,192,61519,1,8,0:0:0:0:
182,192,61519,1,2,0:0:0:0:
402,192,61676,1,2,0:0:0:0:
36,192,61676,1,8,0:0:0:0:
475,192,61676,1,2,0:0:0:0:
256,192,61755,128,8,62229:0:0:0:0:
109,192,62229,1,0,0:0:0:0:
402,192,62387,1,0,0:0:0:0:
182,192,62545,1,0,0:0:0:0:
256,192,62703,1,0,0:0:0:0:
36,192,62861,128,0,63492:0:0:0:0:
475,192,62861,1,0,0:0:0:0:
109,192,63019,1,0,0:0:0:0:
402,192,63176,1,0,0:0:0:0:
256,192,63334,1,0,0:0:0:0:
182,192,63492,1,0,0:0:0:0:
329,192,63650,1,0,0:0:0:0:
109,192,63808,1,0,0:0:0:0:
402,192,63966,1,0,0:0:0:0:
475,192,64124,1,0,0:0:0:0:
402,192,64282,1,0,0:0:0:0:
329,192,64440,1,0,0:0:0:0:
256,192,64598,1,0,0:0:0:0:
475,192,64755,1,0,0:0:0:0:
36,192,64755,128,0,65387:0:0:0:0:
475,192,64913,1,0,0:0:0:0:
475,192,65071,1,0,0:0:0:0:
475,192,65229,1,0,0:0:0:0:
402,192,65387,1,0,0:0:0:0:
109,192,65387,128,0,66019:0:0:0:0:
402,192,65545,1,0,0:0:0:0:
402,192,65703,1,0,0:0:0:0:
402,192,65861,1,0,0:0:0:0:
182,192,66019,1,0,0:0:0:0:
36,192,66019,128,0,66650:0:0:0:0:
475,192,66019,128,0,66650:0:0:0:0:
182,192,66176,1,0,0:0:0:0:
329,192,66334,1,0,0:0:0:0:
329,192,66492,1,0,0:0:0:0:
256,192,66650,128,0,67282:0:0:0:0:
182,192,66650,1,0,0:0:0:0:
182,192,66808,1,0,0:0:0:0:
329,192,66966,1,0,0:0:0:0:
329,192,67124,1,0,0:0:0:0:
36,192,67282,128,0,67913:0:0:0:0:
475,192,67282,128,0,67913:0:0:0:0:
109,192,67282,1,0,0:0:0:0:
182,192,67440,1,0,0:0:0:0:
402,192,67598,1,0,0:0:0:0:
329,192,67755,1,0,0:0:0:0:
256,192,67913,128,0,68229:0:0:0:0:
109,192,67913,1,4,0:0:0:0:
402,192,67913,1,4,0:0:0:0:
182,192,68071,1,4,0:0:0:0:
329,192,68071,1,4,0:0:0:0:
36,192,68229,128,0,68545:0:0:0:0:
475,192,68229,128,0,68545:0:0:0:0:
109,192,68229,1,4,0:0:0:0:
402,192,68229,1,8,0:0:0:0:
329,192,68308,1,8,0:0:0:0:
256,192,68387,1,8,0:0:0:0:
182,192,68466,1,8,0:0:0:0:
256,192,68545,128,0,69334:0:0:0:0:
109,192,68545,1,8,0:0:0:0:
402,192,68545,1,4,0:0:0:0:
182,192,68703,1,4,0:0:0:0:
182,192,68861,1,4,0:0:0:0:
109,192,69019,1,4,0:0:0:0:
109,192,69176,1,4,0:0:0:0:
402,192,69334,1,4,0:0:0:0:
36,192,69334,128,0,69650:0:0:0:0:
475,192,69334,128,0,69650:0:0:0:0:
402,192,69492,1,4,0:0:0:0:
329,192,69650,1,4,0:0:0:0:
256,192,69650,128,0,69966:0:0:0:0:
329,192,69808,1,4,0:0:0:0:
36,192,69966,128,0,71071:0:0:0:0:
475,192,69966,128,0,71071:0:0:0:0:
109,192,69966,1,8,0:0:0:0:
402,192,70045,1,8,0:0:0:0:
182,192,70124,1,8,0:0:0:0:
329,192,70203,1,8,0:0:0:0:
256,192,70282,1,8,0:0:0:0:
109,192,70361,1,8,0:0:0:0:
402,192,70440,1,8,0:0:0:0:
329,192,70519,1,8,0:0:0:0:
109,192,70598,1,8,0:0:0:0:
182,192,70676,1,8,0:0:0:0:
329,192,70755,1,8,0:0:0:0:
402,192,70834,1,8,0:0:0:0:
182,192,70913,1,8,0:0:0:0:
109,192,70992,1,8,0:0:0:0:
256,192,71071,1,4,0:0:0:0:
402,192,71071,1,4,0:0:0:0:
36,192,72334,1,4,0:0:0:0:
329,192,72334,1,8,0:0:0:0:
256,192,72334,1,4,0:0:0:0:
182,192,72492,1,0,0:0:0:0:
402,192,72492,1,0,0:0:0:0:
109,192,72650,1,4,0:0:0:0:
256,192,72650,1,12,0:0:0:0:
182,192,72808,1,0,0:0:0:0:
402,192,72808,1,0,0:0:0:0:
36,192,72966,1,0,0:0:0:0:
256,192,72966,1,4,0:0:0:0:
329,192,72966,1,4,0:0:0:0:
475,192,72966,128,0,73282:0:0:0:0:
182,192,73124,1,0,0:0:0:0:
402,192,73124,1,0,0:0:0:0:
109,192,73282,1,4,0:0:0:0:
256,192,73282,1,12,0:0:0:0:
36,192,73361,1,0,0:0:0:0:
109,192,73440,1,0,0:0:0:0:
182,192,73519,1,0,0:0:0:0:
329,192,73598,128,0,73755:0:0:0:0:
475,192,73598,128,0,73755:0:0:0:0:
256,192,73755,1,0,0:0:0:0:
402,192,73755,1,0,0:0:0:0:
36,192,73913,1,4,0:0:0:0:
109,192,73913,1,4,0:0:0:0:
475,192,74071,1,0,0:0:0:0:
402,192,74071,1,0,0:0:0:0:
36,192,74229,128,0,74387:0:0:0:0:
182,192,74229,128,0,74387:0:0:0:0:
109,192,74387,1,0,0:0:0:0:
256,192,74387,1,0,0:0:0:0:
402,192,74545,1,4,0:0:0:0:
182,192,74545,1,4,0:0:0:0:
329,192,74703,128,0,74861:0:0:0:0:
475,192,74703,128,0,74861:0:0:0:0:
256,192,74861,1,4,0:0:0:0:
402,192,74861,1,4,0:0:0:0:
36,192,75019,1,0,0:0:0:0:
402,192,75019,1,0,0:0:0:0:
256,192,75176,1,4,0:0:0:0:
329,192,75176,1,4,0:0:0:0:
109,192,75176,1,8,0:0:0:0:
182,192,75334,1,0,0:0:0:0:
475,192,75334,1,0,0:0:0:0:
256,192,75492,1,4,0:0:0:0:
36,192,75492,128,0,75729:0:0:0:0:
402,192,75492,1,4,0:0:0:0:
475,192,75650,1,0,0:0:0:0:
329,192,75650,1,0,0:0:0:0:
109,192,75729,128,0,75966:0:0:0:0:
256,192,75808,1,8,0:0:0:0:
402,192,75808,1,12,0:0:0:0:
329,192,75966,1,0,0:0:0:0:
475,192,75966,1,0,0:0:0:0:
36,192,76124,1,4,0:0:0:0:
256,192,76124,1,4,0:0:0:0:
109,192,76203,1,0,0:0:0:0:
402,192,76203,1,0,0:0:0:0:
256,192,76282,1,0,0:0:0:0:
475,192,76282,1,0,0:0:0:0:
36,192,76440,1,8,0:0:0:0:
329,192,76440,1,4,0:0:0:0:
36,192,76598,1,8,0:0:0:0:
329,192,76598,1,4,0:0:0:0:
475,192,76755,1,4,0:0:0:0:
329,192,76834,1,4,0:0:0:0:
475,192,76913,1,4,0:0:0:0:
36,192,76992,1,4,0:0:0:0:
182,192,77071,1,4,0:0:0:0:
36,192,77150,1,4,0:0:0:0:
256,192,77229,1,10,0:0:0:0:
36,192,77387,1,4,0:0:0:0:
182,192,77387,1,4,0:0:0:0:
36,192,77545,1,0,0:0:0:0:
182,192,77545,1,0,0:0:0:0:
256,192,77703,1,12,0:0:0:0:
475,192,77703,1,4,0:0:0:0:
329,192,77861,1,0,0:0:0:0:
402,192,77861,1,0,0:0:0:0:
36,192,78019,128,0,78334:0:0:0:0:
182,192,78019,1,4,0:0:0:0:
475,192,78019,1,4,0:0:0:0:
109,192,78176,1,0,0:0:0:0:
256,192,78176,1,0,0:0:0:0:
329,192,78334,1,4,0:0:0:0:
402,192,78334,1,12,0:0:0:0:
256,192,78413,1,0,0:0:0:0:
109,192,78492,1,0,0:0:0:0:
475,192,78492,1,0,0:0:0:0:
36,192,78650,1,4,0:0:0:0:
256,192,78650,1,4,0:0:0:0:
182,192,78808,1,0,0:0:0:0:
329,192,78808,1,0,0:0:0:0:
256,192,78966,1,12,0:0:0:0:
36,192,78966,1,4,0:0:0:0:
329,192,79124,1,0,0:0:0:0:
475,192,79124,1,0,0:0:0:0:
36,192,79282,128,0,79440:0:0:0:0:
182,192,79282,128,0,79440:0:0:0:0:
402,192,79440,128,0,79598:0:0:0:0:
109,192,79440,128,0,79598:0:0:0:0:
329,192,79598,128,0,79755:0:0:0:0:
475,192,79598,128,0,79755:0:0:0:0:
109,192,79755,128,0,79913:0:0:0:0:
402,192,79755,128,0,79913:0:0:0:0:
182,192,79913,1,4,0:0:0:0:
475,192,79913,1,4,0:0:0:0:
256,192,80071,1,0,0:0:0:0:
36,192,80071,1,0,0:0:0:0:
109,192,80229,1,4,0:0:0:0:
329,192,80308,1,4,0:0:0:0:
182,192,80387,1,4,0:0:0:0:
402,192,80466,1,4,0:0:0:0:
109,192,80545,1,12,0:0:0:0:
329,192,80703,1,0,0:0:0:0:
36,192,80703,1,0,0:0:0:0:
402,192,80861,1,4,0:0:0:0:
182,192,80940,1,4,0:0:0:0:
329,192,81019,1,4,0:0:0:0:
109,192,81098,1,4,0:0:0:0:
402,192,81176,1,12,0:0:0:0:
182,192,81334,1,0,0:0:0:0:
475,192,81334,1,8,0:0:0:0:
329,192,81492,1,8,0:0:0:0:
256,192,81492,1,0,0:0:0:0:
182,192,81729,1,8,0:0:0:0:
256,192,81729,1,0,0:0:0:0:
109,192,81808,128,8,81966:0:0:0:0:
475,192,81966,1,8,0:0:0:0:
256,192,82045,1,8,0:0:0:0:
402,192,82124,1,8,0:0:0:0:
182,192,82203,1,8,0:0:0:0:
329,192,82282,1,8,0:0:0:0:
109,192,82361,1,8,0:0:0:0:
256,192,82440,1,8,0:0:0:0:
109,192,82598,1,0,0:0:0:0:
36,192,82598,1,0,0:0:0:0:
329,192,82755,1,4,0:0:0:0:
402,192,82755,1,4,0:0:0:0:
475,192,82755,1,8,0:0:0:0:
182,192,82913,1,0,0:0:0:0:
256,192,82913,1,0,0:0:0:0:
36,192,83071,1,0,0:0:0:0:
256,192,83150,1,0,0:0:0:0:
109,192,83229,1,0,0:0:0:0:
329,192,83308,1,0,0:0:0:0:
475,192,83387,1,4,0:0:0:0:
182,192,83387,1,0,0:0:0:0:
256,192,83466,1,4,0:0:0:0:
402,192,83545,1,4,0:0:0:0:
182,192,83624,1,4,0:0:0:0:
329,192,83703,1,12,0:0:0:0:
36,192,83861,128,0,84019:0:0:0:0:
402,192,83861,1,0,0:0:0:0:
109,192,84019,128,0,84176:0:0:0:0:
329,192,84019,1,12,0:0:0:0:
475,192,84019,1,4,0:0:0:0:
402,192,84176,1,0,0:0:0:0:
36,192,84176,128,0,84334:0:0:0:0:
475,192,84334,128,10,84492:0:0:0:0:
329,192,84334,1,2,0:0:0:0:
36,192,84492,128,2,84650:0:0:0:0:
182,192,84492,1,10,0:0:0:0:
256,192,84492,1,0,0:0:0:0:
475,192,84650,128,2,84808:0:0:0:0:
329,192,84650,1,0,0:0:0:0:
402,192,84650,1,10,0:0:0:0:
36,192,84808,128,2,84966:0:0:0:0:
109,192,84808,1,2,0:0:0:0:
182,192,84808,1,8,0:0:0:0:
256,192,84966,1,0,0:0:0:0:
402,192,84966,1,4,0:0:0:0:
475,192,84966,1,4,0:0:0:0:
109,192,85124,1,0,0:0:0:0:
329,192,85124,1,0,0:0:0:0:
182,192,85282,1,0,0:0:0:0:
402,192,85282,1,12,0:0:0:0:
329,192,85282,1,4,0:0:0:0:
256,192,85440,1,0,0:0:0:0:
36,192,85440,1,0,0:0:0:0:
475,192,85598,1,0,0:0:0:0:
256,192,85676,1,0,0:0:0:0:
402,192,85755,1,0,0:0:0:0:
182,192,85834,1,0,0:0:0:0:
329,192,85913,1,0,0:0:0:0:
36,192,85913,1,4,0:0:0:0:
256,192,85992,1,4,0:0:0:0:
109,192,86071,1,4,0:0:0:0:
329,192,86150,1,4,0:0:0:0:
182,192,86229,1,12,0:0:0:0:
256,192,86387,1,0,0:0:0:0:
475,192,86387,1,0,0:0:0:0:
329,192,86545,1,4,0:0:0:0:
402,192,86545,1,4,0:0:0:0:
36,192,86545,1,8,0:0:0:0:
109,192,86703,1,0,0:0:0:0:
182,192,86703,1,0,0:0:0:0:
402,192,86861,128,2,87019:0:0:0:0:
329,192,86861,1,8,0:0:0:0:
36,192,86861,1,0,0:0:0:0:
109,192,87019,128,2,87176:0:0:0:0:
182,192,87019,1,8,0:0:0:0:
475,192,87019,1,2,0:0:0:0:
402,192,87176,128,2,87334:0:0:0:0:
36,192,87176,1,2,0:0:0:0:
329,192,87176,1,8,0:0:0:0:
182,192,87334,1,8,0:0:0:0:
475,192,87334,1,2,0:0:0:0:
256,192,87492,1,4,0:0:0:0:
329,192,87492,1,4,0:0:0:0:
36,192,87492,1,0,0:0:0:0:
182,192,87650,1,0,0:0:0:0:
402,192,87650,1,0,0:0:0:0:
109,192,87808,1,8,0:0:0:0:
475,192,87808,1,4,0:0:0:0:
329,192,87808,1,4,0:0:0:0:
36,192,87966,1,0,0:0:0:0:
256,192,87966,1,0,0:0:0:0:
182,192,88124,1,0,0:0:0:0:
109,192,88203,1,0,0:0:0:0:
36,192,88282,1,0,0:0:0:0:
109,192,88361,1,0,0:0:0:0:
182,192,88440,1,0,0:0:0:0:
329,192,88440,1,4,0:0:0:0:
402,192,88519,1,4,0:0:0:0:
475,192,88598,1,4,0:0:0:0:
402,192,88676,1,4,0:0:0:0:
329,192,88755,1,4,0:0:0:0:
182,192,88755,1,8,0:0:0:0:
36,192,88913,1,0,0:0:0:0:
256,192,88913,1,0,0:0:0:0:
475,192,89071,1,8,0:0:0:0:
182,192,89071,1,4,0:0:0:0:
329,192,89071,1,4,0:0:0:0:
256,192,89229,1,0,0:0:0:0:
402,192,89229,1,0,0:0:0:0:
329,192,89387,1,8,0:0:0:0:
402,192,89387,1,2,0:0:0:0:
475,192,89387,128,2,89545:0:0:0:0:
182,192,89545,1,8,0:0:0:0:
36,192,89545,128,2,89703:0:0:0:0:
109,192,89545,1,2,0:0:0:0:
329,192,89703,1,8,0:0:0:0:
402,192,89703,1,2,0:0:0:0:
475,192,89703,128,2,89861:0:0:0:0:
36,192,89861,128,2,90019:0:0:0:0:
109,192,89861,1,2,0:0:0:0:
182,192,89861,1,8,0:0:0:0:
329,192,90019,1,10,0:0:0:0:
402,192,90019,128,0,90650:0:0:0:0:
475,192,90019,1,2,0:0:0:0:
256,192,90019,1,10,0:0:0:0:
109,192,90176,1,8,0:0:0:0:
256,192,90334,1,8,0:0:0:0:
329,192,90492,1,8,0:0:0:0:
36,192,90650,1,2,0:0:0:0:
256,192,90650,1,10,0:0:0:0:
475,192,90650,1,10,0:0:0:0:
109,192,90650,128,4,91282:0:0:0:0:
182,192,90808,1,8,0:0:0:0:
329,192,90966,1,8,0:0:0:0:
182,192,91124,1,8,0:0:0:0:
475,192,91282,1,10,0:0:0:0:
36,192,91282,1,2,0:0:0:0:
256,192,91282,1,10,0:0:0:0:
329,192,91440,1,0,0:0:0:0:
182,192,91598,1,10,0:0:0:0:
402,192,91598,1,2,0:0:0:0:
36,192,91598,1,10,0:0:0:0:
182,192,91755,1,4,0:0:0:0:
329,192,91834,1,4,0:0:0:0:
182,192,91913,1,10,0:0:0:0:
475,192,91913,1,2,0:0:0:0:
109,192,91913,1,10,0:0:0:0:
329,192,91992,1,4,0:0:0:0:
182,192,92071,1,4,0:0:0:0:
36,192,92150,1,4,0:0:0:0:
182,192,92229,128,0,92604:0:0:0:0:
329,192,92229,128,0,92604:0:0:0:0:
256,192,92604,1,4,0:0:0:0:
36,192,92604,128,0,92919:0:0:0:0:
402,192,92604,1,4,0:0:0:0:
109,192,92761,1,0,0:0:0:0:
402,192,92919,1,12,0:0:0:0:
475,192,92919,128,0,93235:0:0:0:0:
256,192,92919,1,4,0:0:0:0:
329,192,93077,1,0,0:0:0:0:
402,192,93235,1,4,0:0:0:0:
36,192,93235,128,0,93709:0:0:0:0:
256,192,93235,1,4,0:0:0:0:
109,192,93393,1,0,0:0:0:0:
402,192,93551,1,4,0:0:0:0:
475,192,93551,1,12,0:0:0:0:
256,192,93709,1,0,0:0:0:0:
36,192,93867,1,4,0:0:0:0:
329,192,93867,1,4,0:0:0:0:
182,192,94025,1,0,0:0:0:0:
36,192,94182,1,4,0:0:0:0:
256,192,94182,1,12,0:0:0:0:
182,192,94340,1,0,0:0:0:0:
109,192,94498,1,4,0:0:0:0:
402,192,94498,1,12,0:0:0:0:
256,192,94577,1,4,0:0:0:0:
182,192,94656,1,12,0:0:0:0:
109,192,94814,1,4,0:0:0:0:
402,192,94814,1,12,0:0:0:0:
256,192,94893,1,4,0:0:0:0:
329,192,94972,1,12,0:0:0:0:
475,192,95130,128,0,95446:0:0:0:0:
182,192,95130,1,4,0:0:0:0:
402,192,95130,1,4,0:0:0:0:
256,192,95288,1,0,0:0:0:0:
36,192,95446,128,0,95761:0:0:0:0:
329,192,95446,1,4,0:0:0:0:
402,192,95446,1,12,0:0:0:0:
109,192,95604,1,0,0:0:0:0:
475,192,95761,128,0,96393:0:0:0:0:
402,192,95761,1,4,0:0:0:0:
182,192,95761,1,4,0:0:0:0:
256,192,95919,1,0,0:0:0:0:
182,192,96077,1,12,0:0:0:0:
109,192,96077,1,4,0:0:0:0:
256,192,96235,1,0,0:0:0:0:
182,192,96393,1,4,0:0:0:0:
329,192,96393,1,4,0:0:0:0:
36,192,96551,1,0,0:0:0:0:
182,192,96709,1,4,0:0:0:0:
329,192,96709,1,12,0:0:0:0:
475,192,96867,1,0,0:0:0:0:
109,192,97025,128,4,97182:0:0:0:0:
182,192,97025,1,12,0:0:0:0:
402,192,97182,128,4,97340:0:0:0:0:
36,192,97182,1,0,0:0:0:0:
329,192,97182,1,4,0:0:0:0:
109,192,97340,128,8,97498:0:0:0:0:
182,192,97340,1,4,0:0:0:0:
475,192,97340,1,4,0:0:0:0:
256,192,97498,1,4,0:0:0:0:
329,192,97498,1,4,0:0:0:0:
36,192,97498,128,0,97814:0:0:0:0:
182,192,97656,1,4,0:0:0:0:
402,192,97656,1,4,0:0:0:0:
475,192,97814,128,0,98130:0:0:0:0:
109,192,97814,1,0,0:0:0:0:
182,192,97972,1,4,0:0:0:0:
329,192,97972,1,12,0:0:0:0:
36,192,98130,128,0,98761:0:0:0:0:
402,192,98130,1,0,0:0:0:0:
182,192,98288,1,4,0:0:0:0:
329,192,98288,1,4,0:0:0:0:
475,192,98446,128,0,98761:0:0:0:0:
256,192,98446,1,0,0:0:0:0:
109,192,98604,1,4,0:0:0:0:
402,192,98604,1,12,0:0:0:0:
256,192,98761,128,0,98919:0:0:0:0:
182,192,98919,128,4,99077:0:0:0:0:
329,192,98919,128,4,99077:0:0:0:0:
36,192,98919,1,0,0:0:0:0:
256,192,99077,128,0,99235:0:0:0:0:
475,192,99077,1,0,0:0:0:0:
182,192,99235,128,4,99393:0:0:0:0:
329,192,99235,128,12,99393:0:0:0:0:
36,192,99235,1,0,0:0:0:0:
109,192,99393,128,0,99788:0:0:0:0:
402,192,99393,128,0,99788:0:0:0:0:
475,192,99393,1,0,0:0:0:0:
256,192,99551,1,0,0:0:0:0:
329,192,99788,1,8,0:0:0:0:
182,192,99788,1,8,0:0:0:0:
256,192,100120,1,0,0:0:0:0:
329,192,100120,1,4,0:0:0:0:
475,192,100120,1,4,0:0:0:0:
36,192,100277,1,4,0:0:0:0:
182,192,100277,1,4,0:0:0:0:
402,192,100435,128,8,100751:0:0:0:0:
256,192,100435,1,4,0:0:0:0:
256,192,100593,1,4,0:0:0:0:
109,192,100751,128,8,101067:0:0:0:0:
329,192,100751,1,4,0:0:0:0:
329,192,100909,1,4,0:0:0:0:
402,192,101067,128,8,101383:0:0:0:0:
182,192,101067,1,4,0:0:0:0:
182,192,101225,1,4,0:0:0:0:
475,192,101383,1,4,0:0:0:0:
256,192,101383,128,8,101856:0:0:0:0:
475,192,101541,1,4,0:0:0:0:
182,192,101698,1,4,0:0:0:0:
182,192,101856,1,4,0:0:0:0:
109,192,102014,1,8,0:0:0:0:
402,192,102014,1,8,0:0:0:0:
109,192,102172,1,8,0:0:0:0:
402,192,102172,1,8,0:0:0:0:
475,192,102330,1,4,0:0:0:0:
402,192,102383,1,4,0:0:0:0:
329,192,102435,1,4,0:0:0:0:
256,192,102488,1,4,0:0:0:0:
182,192,102541,1,4,0:0:0:0:
109,192,102593,1,4,0:0:0:0:
36,192,102646,1,4,0:0:0:0:
109,192,102804,1,0,0:0:0:0:
329,192,102804,1,0,0:0:0:0:
256,192,102962,1,0,0:0:0:0:
475,192,102962,1,0,0:0:0:0:
329,192,103120,1,0,0:0:0:0:
36,192,103120,1,0,0:0:0:0:
182,192,103277,1,0,0:0:0:0:
256,192,103277,1,0,0:0:0:0:
329,192,103435,1,0,0:0:0:0:
475,192,103435,1,0,0:0:0:0:
402,192,103593,1,0,0:0:0:0:
256,192,103593,1,0,0:0:0:0:
109,192,103751,1,0,0:0:0:0:
182,192,103751,128,0,104067:0:0:0:0:
109,192,103909,1,0,0:0:0:0:
329,192,104067,128,0,104225:0:0:0:0:
109,192,104067,1,0,0:0:0:0:
475,192,104067,1,0,0:0:0:0:
182,192,104225,128,0,104383:0:0:0:0:
475,192,104225,1,0,0:0:0:0:
329,192,104383,128,0,104541:0:0:0:0:
475,192,104383,1,0,0:0:0:0:
256,192,104541,128,0,105330:0:0:0:0:
182,192,104541,1,0,0:0:0:0:
182,192,104698,1,0,0:0:0:0:
109,192,104856,1,4,0:0:0:0:
402,192,104935,1,4,0:0:0:0:
109,192,105014,1,4,0:0:0:0:
109,192,105172,1,8,0:0:0:0:
402,192,105172,1,8,0:0:0:0:
109,192,105330,1,8,0:0:0:0:
402,192,105330,1,8,0:0:0:0:
182,192,105567,1,4,0:0:0:0:
329,192,105567,1,2,0:0:0:0:
475,192,105567,1,2,0:0:0:0:
109,192,105804,1,2,0:0:0:0:
256,192,105804,1,0,0:0:0:0:
36,192,105804,1,6,0:0:0:0:
182,192,106041,1,0,0:0:0:0:
329,192,106041,1,2,0:0:0:0:
475,192,106041,1,6,0:0:0:0:
182,192,106277,1,0,0:0:0:0:
109,192,106277,1,0,0:0:0:0:
402,192,106277,1,6,0:0:0:0:
36,192,106514,1,0,0:0:0:0:
256,192,106514,1,6,0:0:0:0:
475,192,106514,1,2,0:0:0:0:
109,192,106751,1,0,0:0:0:0:
256,192,106751,1,6,0:0:0:0:
402,192,106751,1,2,0:0:0:0:
182,192,106988,1,2,0:0:0:0:
256,192,106988,1,4,0:0:0:0:
329,192,106988,1,2,0:0:0:0:
109,192,107225,1,6,0:0:0:0:
402,192,107225,1,0,0:0:0:0:
475,192,107225,1,2,0:0:0:0:
109,192,107462,1,4,0:0:0:0:
256,192,107462,1,2,0:0:0:0:
329,192,107462,1,2,0:0:0:0:
109,192,107698,128,0,108962:0:0:0:0:
475,192,107698,1,4,0:0:0:0:
475,192,107856,1,4,0:0:0:0:
36,192,108014,1,4,0:0:0:0:
36,192,108172,1,4,0:0:0:0:
182,192,108330,1,4,0:0:0:0:
182,192,108488,1,4,0:0:0:0:
329,192,108646,1,4,0:0:0:0:
329,192,108804,1,4,0:0:0:0:
256,192,108962,128,0,109120:0:0:0:0:
36,192,108962,1,4,0:0:0:0:
475,192,109120,128,0,109277:0:0:0:0:
36,192,109120,1,4,0:0:0:0:
256,192,109277,128,0,109435:0:0:0:0:
109,192,109277,1,4,0:0:0:0:
475,192,109435,128,0,109593:0:0:0:0:
109,192,109435,1,4,0:0:0:0:
182,192,109593,1,4,0:0:0:0:
402,192,109593,128,0,109909:0:0:0:0:
182,192,109751,1,4,0:0:0:0:
256,192,109909,1,8,0:0:0:0:
329,192,109909,128,0,110225:0:0:0:0:
109,192,109988,1,8,0:0:0:0:
256,192,110067,1,8,0:0:0:0:
109,192,110146,1,8,0:0:0:0:
256,192,110225,1,14,0:0:0:0:
109,192,110541,128,0,110777:0:0:0:0:
182,192,110541,1,2,0:0:0:0:
36,192,110541,1,2,0:0:0:0:
475,192,110541,1,4,0:0:0:0:
402,192,110777,128,0,111014:0:0:0:0:
182,192,110777,1,6,0:0:0:0:
475,192,110777,1,0,0:0:0:0:
329,192,110777,1,2,0:0:0:0:
109,192,111014,128,0,111251:0:0:0:0:
182,192,111014,1,6,0:0:0:0:
329,192,111014,1,0,0:0:0:0:
36,192,111014,1,2,0:0:0:0:
402,192,111251,128,0,111488:0:0:0:0:
256,192,111251,1,2,0:0:0:0:
475,192,111251,1,4,0:0:0:0:
329,192,111251,1,2,0:0:0:0:
36,192,111488,128,0,111725:0:0:0:0:
109,192,111488,1,2,0:0:0:0:
329,192,111488,1,2,0:0:0:0:
475,192,111488,1,4,0:0:0:0:
475,192,111725,128,0,111962:0:0:0:0:
182,192,111725,1,2,0:0:0:0:
329,192,111725,1,6,0:0:0:0:
402,192,111725,1,0,0:0:0:0:
36,192,111962,128,0,112277:0:0:0:0:
109,192,111962,1,2,0:0:0:0:
256,192,111962,1,0,0:0:0:0:
329,192,111962,1,6,0:0:0:0:
475,192,112277,128,0,112514:0:0:0:0:
109,192,112277,1,4,0:0:0:0:
329,192,112277,1,2,0:0:0:0:
402,192,112277,1,2,0:0:0:0:
256,192,112514,128,0,112751:0:0:0:0:
109,192,112514,1,2,0:0:0:0:
329,192,112514,1,4,0:0:0:0:
36,192,112514,1,2,0:0:0:0:
36,192,112751,128,0,112988:0:0:0:0:
182,192,112751,1,4,0:0:0:0:
402,192,112751,1,2,0:0:0:0:
475,192,112751,1,2,0:0:0:0:
475,192,112988,1,6,0:0:0:0:
256,192,112988,1,6,0:0:0:0:
402,192,113067,1,0,0:0:0:0:
329,192,113146,1,0,0:0:0:0:
402,192,113225,1,6,0:0:0:0:
256,192,113225,1,6,0:0:0:0:
475,192,113304,1,0,0:0:0:0:
36,192,113383,1,0,0:0:0:0:
109,192,113462,1,6,0:0:0:0:
256,192,113462,1,6,0:0:0:0:
182,192,113541,1,0,0:0:0:0:
109,192,113620,1,0,0:0:0:0:
36,192,113698,1,6,0:0:0:0:
256,192,113698,1,6,0:0:0:0:
182,192,113856,1,4,0:0:0:0:
475,192,113856,1,4,0:0:0:0:
36,192,114014,1,4,0:0:0:0:
329,192,114014,1,4,0:0:0:0:
36,192,114172,1,0,0:0:0:0:
329,192,114172,1,0,0:0:0:0:
182,192,114172,1,0,0:0:0:0:
475,192,114172,1,0,0:0:0:0:
