osu file format v12

[General]
AudioFilename: [SDVX] Max Burning!! - EXH [__].mp3
AudioLeadIn: 0
PreviewTime: 21709
Countdown: 0
SampleSet: None
StackLeniency: 0.7
Mode: 3
LetterboxInBreaks: 0
SpecialStyle: 0
WidescreenStoryboard: 1

[Editor]
DistanceSpacing: 1
BeatDivisor: 4
GridSize: 16

[Metadata]
Title:Max Burning!!
TitleUnicode:Max Burning!!
Artist:BlackY
ArtistUnicode:BlackY
Creator:Skalim
Version:7K BASIC
Source:SOUND VOLTEX BOOTH
Tags:sdvx distortion asd123iii
BeatmapID:317013
BeatmapSetID:123431

[Difficulty]
HPDrainRate:7
CircleSize:7
OverallDifficulty:7
ApproachRate:5
SliderMultiplier:1.4
SliderTickRate:1

[Events]
//Background and Video events
0,0,"fuego1.jpg",0,0
//Break Periods
//Storyboard Layer 0 (Background)
//Storyboard Layer 1 (Fail)
//Storyboard Layer 2 (Pass)
//Storyboard Layer 3 (Foreground)
//Storyboard Sound Samples
//Background Colour Transformations
3,100,163,162,255

[TimingPoints]
1598,315.789473684211,4,3,1,75,1,0
21808,-100,4,3,1,75,0,1
31913,-100,4,3,1,75,0,0
52124,-100,4,3,1,75,0,1
62229,-100,4,3,1,75,0,0
92604,315.789473684211,4,3,1,75,1,1
100120,315.789473684211,4,3,1,75,1,1
102646,-100,4,3,1,75,0,0

[HitObjects]
256,192,1598,1,0,0:0:0:0:
36,192,1913,1,0,0:0:0:0:
475,192,1913,1,0,0:0:0:0:
256,192,2229,1,0,0:0:0:0:
182,192,2545,1,0,0:0:0:0:
475,192,2545,1,0,0:0:0:0:
109,192,2861,1,0,0:0:0:0:
320,192,3176,128,0,3492:0:0:0:0:
256,192,3176,1,0,0:0:0:0:
36,192,3492,1,0,0:0:0:0:
182,192,3650,128,0,3808:0:0:0:0:
329,192,3966,128,0,4124:0:0:0:0:
402,192,4124,1,0,0:0:0:0:
256,192,4440,1,0,0:0:0:0:
36,192,4440,1,0,0:0:0:0:
109,192,4755,128,2,5071:0:0:0:0:
475,192,4755,1,0,0:0:0:0:
402,192,4913,1,2,0:0:0:0:
320,192,5071,1,2,0:0:0:0:
109,192,5387,1,0,0:0:0:0:
329,192,5703,1,0,0:0:0:0:
256,192,5703,1,0,0:0:0:0:
36,192,6019,1,8,0:0:0:0:
109,192,6019,1,8,0:0:0:0:
402,192,6334,1,8,0:0:0:0:
475,192,6334,1,0,0:0:0:0:
182,192,6650,1,0,0:0:0:0:
256,192,6966,1,2,0:0:0:0:
402,192,6966,1,2,0:0:0:0:
182,192,7282,1,0,0:0:0:0:
109,192,7598,1,2,0:0:0:0:
329,192,7598,1,2,0:0:0:0:
402,192,7913,1,0,0:0:0:0:
192,192,8229,128,2,8545:0:0:0:0:
256,192,8229,1,0,0:0:0:0:
36,192,8229,1,0,0:0:0:0:
329,192,8545,1,0,0:0:0:0:
109,192,8703,128,0,8861:0:0:0:0:
402,192,9019,128,0,9176:0:0:0:0:
329,192,9176,1,0,0:0:0:0:
109,192,9492,1,2,0:0:0:0:
256,192,9492,1,0,0:0:0:0:
320,192,9808,128,2,10124:0:0:0:0:
36,192,9808,1,0,0:0:0:0:
109,192,9966,1,2,0:0:0:0:
182,192,10124,1,0,0:0:0:0:
109,192,10440,128,0,11071:0:0:0:0:
402,192,10440,1,0,0:0:0:0:
182,192,10755,1,2,0:0:0:0:
448,192,11071,128,8,11387:0:0:0:0:
256,192,11071,1,0,0:0:0:0:
64,192,11387,128,8,11703:0:0:0:0:
192,192,11387,1,8,0:0:0:0:
320,192,11703,1,0,0:0:0:0:
402,192,11861,1,0,0:0:0:0:
192,192,12019,1,0,0:0:0:0:
448,192,12334,1,8,0:0:0:0:
109,192,12492,1,0,0:0:0:0:
329,192,12650,1,8,0:0:0:0:
320,192,12966,1,8,0:0:0:0:
256,192,13124,1,0,0:0:0:0:
448,192,13282,1,0,0:0:0:0:
64,192,13282,128,0,13598:0:0:0:0:
192,192,13598,1,8,0:0:0:0:
256,192,13755,1,0,0:0:0:0:
320,192,13913,1,8,0:0:0:0:
192,192,14229,128,0,14545:0:0:0:0:
402,192,14229,1,0,0:0:0:0:
329,192,14387,1,0,0:0:0:0:
448,192,14545,1,0,0:0:0:0:
320,192,14861,128,10,15176:0:0:0:0:
182,192,14861,1,10,0:0:0:0:
109,192,15019,1,10,0:0:0:0:
64,192,15176,1,10,0:0:0:0:
192,192,15492,1,8,0:0:0:0:
256,192,15650,1,0,0:0:0:0:
448,192,15808,1,8,0:0:0:0:
192,192,16124,1,8,0:0:0:0:
64,192,16124,128,8,16440:0:0:0:0:
475,192,16440,128,8,16755:0:0:0:0:
256,192,16440,1,8,0:0:0:0:
109,192,16755,128,4,18019:0:0:0:0:
402,192,16755,128,0,19282:0:0:0:0:
182,192,17071,1,4,0:0:0:0:
256,192,17387,1,4,0:0:0:0:
329,192,17703,1,4,0:0:0:0:
64,192,18019,128,4,19282:0:0:0:0:
329,192,18334,1,4,0:0:0:0:
256,192,18650,1,4,0:0:0:0:
182,192,18966,1,4,0:0:0:0:
192,192,19282,128,8,20545:0:0:0:0:
475,192,19282,128,0,20545:0:0:0:0:
402,192,19598,1,8,0:0:0:0:
109,192,19755,1,8,0:0:0:0:
329,192,19913,1,8,0:0:0:0:
36,192,20071,1,8,0:0:0:0:
109,192,20229,1,0,0:0:0:0:
329,192,20387,1,8,0:0:0:0:
256,192,20545,1,14,0:0:0:0:
36,192,20782,1,10,0:0:0:0:
475,192,20782,1,4,0:0:0:0:
256,192,21019,1,14,0:0:0:0:
36,192,21255,1,14,0:0:0:0:
475,192,21255,1,10,0:0:0:0:
192,192,21492,1,14,0:0:0:0:
329,192,21492,1,10,0:0:0:0:
36,192,21650,1,10,0:0:0:0:
475,192,21650,1,0,0:0:0:0:
182,192,21808,1,10,0:0:0:0:
329,192,21808,1,10,0:0:0:0:
402,192,21966,1,0,0:0:0:0:
64,192,22124,1,12,0:0:0:0:
182,192,22282,1,0,0:0:0:0:
320,192,22440,1,4,0:0:0:0:
475,192,22440,128,0,23071:0:0:0:0:
109,192,22598,1,0,0:0:0:0:
402,192,22755,1,12,0:0:0:0:
109,192,22913,1,0,0:0:0:0:
256,192,23071,1,4,0:0:0:0:
182,192,23229,1,0,0:0:0:0:
320,192,23387,1,12,0:0:0:0:
36,192,23545,1,0,0:0:0:0:
475,192,23703,1,4,0:0:0:0:
402,192,23703,128,4,24019:0:0:0:0:
329,192,24019,1,12,0:0:0:0:
256,192,24176,1,0,0:0:0:0:
182,192,24334,1,4,0:0:0:0:
475,192,24492,1,0,0:0:0:0:
192,192,24650,1,12,0:0:0:0:
36,192,24808,1,0,0:0:0:0:
475,192,24966,1,4,0:0:0:0:
256,192,25124,1,0,0:0:0:0:
64,192,25282,1,12,0:0:0:0:
256,192,25440,1,0,0:0:0:0:
448,192,25598,1,4,0:0:0:0:
402,192,25755,1,10,0:0:0:0:
36,192,25913,1,12,0:0:0:0:
109,192,25992,1,8,0:0:0:0:
182,192,26071,1,8,0:0:0:0:
256,192,26229,1,0,0:0:0:0:
475,192,26229,1,0,0:0:0:0:
192,192,26545,128,8,26861:0:0:0:0:
320,192,26861,1,4,0:0:0:0:
256,192,27019,1,0,0:0:0:0:
475,192,27176,1,12,0:0:0:0:
329,192,27334,1,0,0:0:0:0:
64,192,27492,1,4,0:0:0:0:
475,192,27650,1,0,0:0:0:0:
320,192,27808,1,12,0:0:0:0:
475,192,27966,1,0,0:0:0:0:
36,192,28124,1,4,0:0:0:0:
256,192,28282,1,0,0:0:0:0:
402,192,28440,1,12,0:0:0:0:
182,192,28598,1,0,0:0:0:0:
64,192,28755,128,10,29071:0:0:0:0:
182,192,29071,128,8,29387:0:0:0:0:
402,192,29387,1,4,0:0:0:0:
109,192,29545,1,0,0:0:0:0:
256,192,29703,1,12,0:0:0:0:
182,192,29861,1,0,0:0:0:0:
64,192,30019,1,4,0:0:0:0:
475,192,30019,128,0,30650:0:0:0:0:
402,192,30176,1,0,0:0:0:0:
320,192,30334,1,12,0:0:0:0:
192,192,30650,128,0,30966:0:0:0:0:
109,192,30650,1,0,0:0:0:0:
402,192,30966,1,8,0:0:0:0:
329,192,31282,1,8,0:0:0:0:
475,192,31282,128,8,31598:0:0:0:0:
64,192,31598,128,8,31913:0:0:0:0:
192,192,31598,1,8,0:0:0:0:
402,192,31913,1,12,0:0:0:0:
329,192,32071,1,0,0:0:0:0:
475,192,32229,1,12,0:0:0:0:
182,192,32387,1,0,0:0:0:0:
329,192,32545,1,4,0:0:0:0:
109,192,32703,1,0,0:0:0:0:
256,192,32861,1,12,0:0:0:0:
36,192,33019,1,0,0:0:0:0:
320,192,33176,1,4,0:0:0:0:
475,192,33334,1,0,0:0:0:0:
329,192,33492,1,12,0:0:0:0:
109,192,33650,1,0,0:0:0:0:
448,192,33808,128,4,34440:0:0:0:0:
192,192,34124,128,4,34440:0:0:0:0:
402,192,34124,1,8,0:0:0:0:
329,192,34282,1,0,0:0:0:0:
64,192,34440,1,4,0:0:0:0:
256,192,34440,1,4,0:0:0:0:
402,192,34598,1,0,0:0:0:0:
320,192,34755,1,12,0:0:0:0:
256,192,34913,1,0,0:0:0:0:
64,192,35071,1,4,0:0:0:0:
256,192,35229,1,0,0:0:0:0:
109,192,35387,1,12,0:0:0:0:
256,192,35545,1,0,0:0:0:0:
448,192,35703,1,4,0:0:0:0:
329,192,35861,1,0,0:0:0:0:
182,192,36019,1,12,0:0:0:0:
36,192,36176,1,0,0:0:0:0:
448,192,36334,128,8,36966:0:0:0:0:
182,192,36650,128,8,36966:0:0:0:0:
329,192,36650,1,8,0:0:0:0:
64,192,36966,1,4,0:0:0:0:
256,192,37124,1,0,0:0:0:0:
182,192,37282,1,12,0:0:0:0:
402,192,37440,1,0,0:0:0:0:
64,192,37598,1,4,0:0:0:0:
109,192,37598,128,4,38229:0:0:0:0:
182,192,37913,1,12,0:0:0:0:
329,192,38071,1,0,0:0:0:0:
475,192,38229,1,4,0:0:0:0:
402,192,38387,1,0,0:0:0:0:
256,192,38545,1,12,0:0:0:0:
109,192,38703,1,0,0:0:0:0:
192,192,38861,128,0,39492:0:0:0:0:
320,192,39176,128,4,39492:0:0:0:0:
448,192,39492,1,4,0:0:0:0:
109,192,39650,1,4,0:0:0:0:
402,192,39808,1,8,0:0:0:0:
256,192,39966,1,0,0:0:0:0:
320,192,40124,1,4,0:0:0:0:
182,192,40282,1,4,0:0:0:0:
329,192,40440,1,8,0:0:0:0:
109,192,40598,1,0,0:0:0:0:
402,192,40755,1,8,0:0:0:0:
329,192,40834,1,4,0:0:0:0:
256,192,40913,1,4,0:0:0:0:
182,192,40992,1,4,0:0:0:0:
448,192,41071,128,12,41387:0:0:0:0:
109,192,41071,1,8,0:0:0:0:
64,192,41387,128,2,42019:0:0:0:0:
329,192,41624,1,2,0:0:0:0:
329,192,41861,1,2,0:0:0:0:
448,192,42019,128,2,44545:0:0:0:0:
109,192,42019,1,0,0:0:0:0:
402,192,42255,1,8,0:0:0:0:
109,192,42492,1,8,0:0:0:0:
64,192,42966,1,8,0:0:0:0:
64,192,43203,1,8,0:0:0:0:
109,192,43440,1,8,0:0:0:0:
109,192,43676,1,8,0:0:0:0:
182,192,43913,1,0,0:0:0:0:
182,192,44150,1,8,0:0:0:0:
256,192,44387,1,8,0:0:0:0:
192,192,44703,1,2,0:0:0:0:
320,192,44861,1,2,0:0:0:0:
36,192,44861,128,0,46282:0:0:0:0:
320,192,45334,1,8,0:0:0:0:
320,192,45571,1,8,0:0:0:0:
475,192,45808,1,8,0:0:0:0:
475,192,46045,1,8,0:0:0:0:
256,192,46282,1,0,0:0:0:0:
448,192,46755,1,10,0:0:0:0:
320,192,46913,128,10,48334:0:0:0:0:
64,192,46913,128,10,48966:0:0:0:0:
182,192,47229,1,10,0:0:0:0:
182,192,47466,1,10,0:0:0:0:
109,192,47703,128,8,47861:0:0:0:0:
402,192,48098,1,8,0:0:0:0:
402,192,48334,1,10,0:0:0:0:
402,192,48571,1,10,0:0:0:0:
448,192,48808,1,2,0:0:0:0:
320,192,48966,1,10,0:0:0:0:
192,192,49203,1,8,0:0:0:0:
448,192,49440,128,8,51808:0:0:0:0:
109,192,49440,128,2,49676:0:0:0:0:
329,192,49676,128,10,49913:0:0:0:0:
109,192,49913,128,8,50229:0:0:0:0:
182,192,50229,1,2,0:0:0:0:
256,192,50387,1,10,0:0:0:0:
329,192,50387,1,2,0:0:0:0:
36,192,50624,128,8,50861:0:0:0:0:
402,192,50861,128,8,51098:0:0:0:0:
36,192,51098,128,8,51334:0:0:0:0:
402,192,51334,128,8,51650:0:0:0:0:
256,192,51650,1,2,0:0:0:0:
329,192,51808,1,10,0:0:0:0:
109,192,51808,1,2,0:0:0:0:
182,192,52124,1,2,0:0:0:0:
109,192,52440,1,10,0:0:0:0:
475,192,52440,128,2,52676:0:0:0:0:
402,192,52676,1,10,0:0:0:0:
320,192,52913,1,8,0:0:0:0:
109,192,53071,1,10,0:0:0:0:
36,192,53071,128,2,53387:0:0:0:0:
192,192,53387,1,10,0:0:0:0:
448,192,53624,1,10,0:0:0:0:
256,192,53861,1,10,0:0:0:0:
402,192,53861,128,2,54098:0:0:0:0:
320,192,54098,1,10,0:0:0:0:
64,192,54334,1,10,0:0:0:0:
192,192,54571,1,10,0:0:0:0:
109,192,54571,128,2,54808:0:0:0:0:
320,192,54808,1,10,0:0:0:0:
192,192,55045,1,10,0:0:0:0:
475,192,55045,128,2,55282:0:0:0:0:
320,192,55282,1,10,0:0:0:0:
109,192,55519,1,10,0:0:0:0:
402,192,55755,1,10,0:0:0:0:
36,192,55755,128,2,55992:0:0:0:0:
256,192,55992,1,10,0:0:0:0:
182,192,56229,1,10,0:0:0:0:
320,192,56466,1,10,0:0:0:0:
475,192,56466,128,2,56703:0:0:0:0:
109,192,56703,1,8,0:0:0:0:
402,192,56861,1,10,0:0:0:0:
109,192,57019,1,8,0:0:0:0:
402,192,57176,1,10,0:0:0:0:
329,192,57176,128,8,57413:0:0:0:0:
109,192,57413,1,10,0:0:0:0:
182,192,57413,128,2,57650:0:0:0:0:
256,192,57650,1,10,0:0:0:0:
475,192,57650,128,2,57966:0:0:0:0:
402,192,57966,1,10,0:0:0:0:
36,192,57966,128,2,58124:0:0:0:0:
109,192,58124,1,10,0:0:0:0:
329,192,58124,128,2,58361:0:0:0:0:
402,192,58361,1,2,0:0:0:0:
109,192,58361,128,0,58598:0:0:0:0:
192,192,58598,1,10,0:0:0:0:
402,192,58598,128,2,58755:0:0:0:0:
320,192,58755,1,10,0:0:0:0:
36,192,58755,128,2,59071:0:0:0:0:
109,192,59071,1,10,0:0:0:0:
475,192,59071,128,8,59308:0:0:0:0:
402,192,59308,1,10,0:0:0:0:
109,192,59308,128,2,59545:0:0:0:0:
192,192,59545,1,2,0:0:0:0:
402,192,59545,128,0,59782:0:0:0:0:
448,192,59782,1,10,0:0:0:0:
182,192,59782,128,2,60019:0:0:0:0:
64,192,60019,1,10,0:0:0:0:
402,192,60019,128,2,60255:0:0:0:0:
320,192,60255,1,10,0:0:0:0:
109,192,60255,128,2,60492:0:0:0:0:
192,192,60492,1,10,0:0:0:0:
402,192,60492,128,2,60808:0:0:0:0:
448,192,60808,1,10,0:0:0:0:
182,192,60808,128,2,61124:0:0:0:0:
64,192,61124,5,10,0:0:0:0:
475,192,61124,128,2,61282:0:0:0:0:
320,192,61282,1,10,0:0:0:0:
256,192,61519,1,10,0:0:0:0:
36,192,61755,128,8,62229:0:0:0:0:
182,192,61755,1,0,0:0:0:0:
320,192,62229,5,0,0:0:0:0:
448,192,62229,1,0,0:0:0:0:
448,192,64755,128,0,66019:0:0:0:0:
192,192,64755,128,0,65387:0:0:0:0:
64,192,65387,128,0,66650:0:0:0:0:
402,192,66019,128,0,67282:0:0:0:0:
109,192,66650,128,0,67282:0:0:0:0:
448,192,67282,128,0,68545:0:0:0:0:
36,192,67282,128,0,67913:0:0:0:0:
182,192,67282,1,0,0:0:0:0:
182,192,67598,1,0,0:0:0:0:
109,192,67913,128,4,69334:0:0:0:0:
182,192,67913,1,4,0:0:0:0:
182,192,68229,1,12,0:0:0:0:
402,192,68545,128,12,69966:0:0:0:0:
256,192,68545,1,8,0:0:0:0:
256,192,68861,1,4,0:0:0:0:
256,192,69176,1,4,0:0:0:0:
36,192,69334,128,4,71071:0:0:0:0:
256,192,69492,1,4,0:0:0:0:
182,192,69808,1,4,0:0:0:0:
448,192,69966,128,8,71071:0:0:0:0:
182,192,70124,1,8,0:0:0:0:
329,192,70440,1,8,0:0:0:0:
182,192,70598,1,8,0:0:0:0:
329,192,70755,1,8,0:0:0:0:
192,192,71071,1,4,0:0:0:0:
320,192,71071,1,4,0:0:0:0:
109,192,72334,1,12,0:0:0:0:
329,192,72492,1,0,0:0:0:0:
192,192,72650,1,12,0:0:0:0:
36,192,72650,1,12,0:0:0:0:
256,192,72808,1,0,0:0:0:0:
448,192,72966,128,4,73282:0:0:0:0:
329,192,72966,1,4,0:0:0:0:
182,192,73124,1,0,0:0:0:0:
64,192,73282,1,12,0:0:0:0:
192,192,73598,128,0,74229:0:0:0:0:
329,192,73598,1,0,0:0:0:0:
256,192,73755,1,0,0:0:0:0:
329,192,73913,1,4,0:0:0:0:
402,192,74071,1,0,0:0:0:0:
448,192,74229,128,0,74861:0:0:0:0:
64,192,74229,1,0,0:0:0:0:
109,192,74387,1,0,0:0:0:0:
182,192,74545,1,4,0:0:0:0:
256,192,74703,1,0,0:0:0:0:
320,192,74861,1,4,0:0:0:0:
256,192,75019,1,0,0:0:0:0:
64,192,75176,1,12,0:0:0:0:
402,192,75176,1,4,0:0:0:0:
256,192,75334,1,0,0:0:0:0:
320,192,75492,1,4,0:0:0:0:
256,192,75650,1,0,0:0:0:0:
192,192,75808,1,12,0:0:0:0:
475,192,75808,1,12,0:0:0:0:
109,192,75966,1,0,0:0:0:0:
64,192,76124,1,4,0:0:0:0:
475,192,76282,1,0,0:0:0:0:
320,192,76440,128,8,76755:0:0:0:0:
109,192,76755,128,4,77071:0:0:0:0:
182,192,77071,1,12,0:0:0:0:
256,192,77150,1,8,0:0:0:0:
329,192,77229,1,8,0:0:0:0:
475,192,77387,1,4,0:0:0:0:
36,192,77545,1,0,0:0:0:0:
192,192,77703,1,12,0:0:0:0:
402,192,77703,1,4,0:0:0:0:
329,192,77861,1,0,0:0:0:0:
64,192,78019,128,4,78334:0:0:0:0:
475,192,78019,1,4,0:0:0:0:
182,192,78176,1,0,0:0:0:0:
320,192,78334,1,12,0:0:0:0:
256,192,78492,1,0,0:0:0:0:
448,192,78650,1,4,0:0:0:0:
402,192,78808,1,0,0:0:0:0:
64,192,78966,1,12,0:0:0:0:
256,192,78966,1,4,0:0:0:0:
475,192,79124,1,0,0:0:0:0:
109,192,79282,128,0,79598:0:0:0:0:
402,192,79282,128,0,79598:0:0:0:0:
182,192,79598,128,0,79913:0:0:0:0:
329,192,79598,128,0,79913:0:0:0:0:
448,192,79913,1,4,0:0:0:0:
256,192,80071,1,0,0:0:0:0:
64,192,80229,128,4,80545:0:0:0:0:
109,192,80545,1,12,0:0:0:0:
256,192,80703,1,0,0:0:0:0:
448,192,80861,128,4,81176:0:0:0:0:
402,192,81176,1,12,0:0:0:0:
329,192,81334,1,8,0:0:0:0:
256,192,81492,1,8,0:0:0:0:
182,192,81808,1,8,0:0:0:0:
320,192,81966,128,8,82440:0:0:0:0:
448,192,82440,1,8,0:0:0:0:
109,192,82598,1,0,0:0:0:0:
192,192,82755,1,12,0:0:0:0:
329,192,82755,1,4,0:0:0:0:
256,192,82913,1,0,0:0:0:0:
475,192,83071,1,0,0:0:0:0:
109,192,83071,128,0,83703:0:0:0:0:
329,192,83229,1,0,0:0:0:0:
182,192,83387,1,4,0:0:0:0:
329,192,83545,1,4,0:0:0:0:
475,192,83703,1,12,0:0:0:0:
256,192,83861,1,0,0:0:0:0:
475,192,84019,1,12,0:0:0:0:
109,192,84176,1,0,0:0:0:0:
320,192,84334,1,10,0:0:0:0:
475,192,84334,128,2,84492:0:0:0:0:
192,192,84492,1,10,0:0:0:0:
36,192,84492,128,10,84650:0:0:0:0:
320,192,84650,1,10,0:0:0:0:
475,192,84650,128,0,84808:0:0:0:0:
192,192,84808,1,10,0:0:0:0:
36,192,84808,128,2,84966:0:0:0:0:
329,192,84966,1,4,0:0:0:0:
109,192,85124,1,0,0:0:0:0:
402,192,85282,1,12,0:0:0:0:
256,192,85440,1,0,0:0:0:0:
402,192,85598,128,0,86229:0:0:0:0:
36,192,85598,1,0,0:0:0:0:
182,192,85755,1,0,0:0:0:0:
329,192,85913,1,4,0:0:0:0:
182,192,86071,1,4,0:0:0:0:
36,192,86229,1,12,0:0:0:0:
256,192,86387,1,0,0:0:0:0:
448,192,86545,1,12,0:0:0:0:
329,192,86703,1,0,0:0:0:0:
64,192,86861,1,10,0:0:0:0:
192,192,86861,1,8,0:0:0:0:
320,192,87019,1,10,0:0:0:0:
448,192,87019,1,8,0:0:0:0:
64,192,87176,1,10,0:0:0:0:
192,192,87176,1,2,0:0:0:0:
320,192,87334,1,8,0:0:0:0:
448,192,87334,1,2,0:0:0:0:
64,192,87492,1,4,0:0:0:0:
109,192,87650,1,0,0:0:0:0:
192,192,87808,1,12,0:0:0:0:
109,192,87966,1,0,0:0:0:0:
256,192,88124,128,0,88755:0:0:0:0:
475,192,88124,1,0,0:0:0:0:
329,192,88282,1,0,0:0:0:0:
182,192,88440,1,4,0:0:0:0:
36,192,88598,1,4,0:0:0:0:
329,192,88755,1,12,0:0:0:0:
256,192,88913,1,0,0:0:0:0:
192,192,89071,1,8,0:0:0:0:
256,192,89229,1,0,0:0:0:0:
448,192,89387,1,8,0:0:0:0:
64,192,89387,1,2,0:0:0:0:
192,192,89545,1,8,0:0:0:0:
320,192,89545,1,0,0:0:0:0:
448,192,89703,1,8,0:0:0:0:
64,192,89703,1,2,0:0:0:0:
192,192,89861,1,10,0:0:0:0:
320,192,89861,1,2,0:0:0:0:
448,192,90019,128,10,90650:0:0:0:0:
256,192,90019,1,0,0:0:0:0:
402,192,90650,1,2,0:0:0:0:
64,192,90650,128,0,91282:0:0:0:0:
448,192,91282,128,10,91598:0:0:0:0:
109,192,91282,1,2,0:0:0:0:
64,192,91598,128,10,91913:0:0:0:0:
402,192,91598,1,2,0:0:0:0:
448,192,91913,128,10,92229:0:0:0:0:
109,192,91913,1,2,0:0:0:0:
182,192,92071,1,4,0:0:0:0:
256,192,92229,128,0,92604:0:0:0:0:
36,192,92604,128,4,92919:0:0:0:0:
182,192,92761,128,0,92919:0:0:0:0:
329,192,92919,128,12,93235:0:0:0:0:
475,192,93077,128,0,93235:0:0:0:0:
109,192,93235,128,4,93551:0:0:0:0:
402,192,93551,128,12,93867:0:0:0:0:
182,192,93867,1,4,0:0:0:0:
329,192,94025,1,0,0:0:0:0:
182,192,94182,1,12,0:0:0:0:
475,192,94182,1,12,0:0:0:0:
402,192,94340,1,0,0:0:0:0:
329,192,94498,1,12,0:0:0:0:
36,192,94498,1,0,0:0:0:0:
475,192,94656,1,12,0:0:0:0:
182,192,94656,1,0,0:0:0:0:
36,192,94814,1,12,0:0:0:0:
329,192,94814,1,12,0:0:0:0:
109,192,94972,1,12,0:0:0:0:
256,192,94972,1,0,0:0:0:0:
475,192,95130,128,4,95446:0:0:0:0:
329,192,95288,128,0,95446:0:0:0:0:
182,192,95446,128,12,95761:0:0:0:0:
36,192,95604,128,0,95761:0:0:0:0:
402,192,95761,128,0,96077:0:0:0:0:
109,192,96077,128,12,96393:0:0:0:0:
320,192,96393,128,4,97498:0:0:0:0:
256,192,96551,1,0,0:0:0:0:
109,192,96709,1,12,0:0:0:0:
402,192,96867,1,0,0:0:0:0:
36,192,97025,1,12,0:0:0:0:
475,192,97182,1,4,0:0:0:0:
36,192,97340,1,12,0:0:0:0:
475,192,97498,1,4,0:0:0:0:
36,192,97656,128,4,98604:0:0:0:0:
109,192,97814,128,0,98604:0:0:0:0:
475,192,97972,128,12,98604:0:0:0:0:
402,192,98130,128,0,98604:0:0:0:0:
256,192,98288,128,4,98604:0:0:0:0:
36,192,98919,128,4,99788:0:0:0:0:
475,192,99077,128,0,99788:0:0:0:0:
256,192,99235,128,12,99788:0:0:0:0:
109,192,99393,128,0,99788:0:0:0:0:
402,192,99551,128,0,99788:0:0:0:0:
475,192,100120,128,4,100435:0:0:0:0:
329,192,100120,1,4,0:0:0:0:
256,192,100277,1,4,0:0:0:0:
182,192,100435,1,8,0:0:0:0:
64,192,100751,128,8,101067:0:0:0:0:
192,192,100751,1,4,0:0:0:0:
256,192,100909,1,4,0:0:0:0:
329,192,101067,1,8,0:0:0:0:
320,192,101383,1,12,0:0:0:0:
448,192,101383,128,8,101698:0:0:0:0:
256,192,101541,1,4,0:0:0:0:
182,192,101698,1,4,0:0:0:0:
109,192,101856,1,4,0:0:0:0:
192,192,102014,1,8,0:0:0:0:
256,192,102172,1,8,0:0:0:0:
475,192,102330,1,4,0:0:0:0:
402,192,102409,1,0,0:0:0:0:
329,192,102488,1,4,0:0:0:0:
256,192,102567,1,0,0:0:0:0:
64,192,102646,128,4,103909:0:0:0:0:
182,192,102646,1,0,0:0:0:0:
256,192,102962,1,0,0:0:0:0:
475,192,103277,1,0,0:0:0:0:
402,192,103593,1,0,0:0:0:0:
320,192,103909,128,0,104541:0:0:0:0:
109,192,104225,1,0,0:0:0:0:
192,192,104541,128,0,105172:0:0:0:0:
402,192,104856,1,4,0:0:0:0:
448,192,105172,1,8,0:0:0:0:
64,192,105172,128,8,107698:0:0:0:0:
320,192,105330,1,8,0:0:0:0:
448,192,105567,1,6,0:0:0:0:
192,192,105804,1,6,0:0:0:0:
320,192,106041,1,6,0:0:0:0:
448,192,106277,1,6,0:0:0:0:
320,192,106514,1,6,0:0:0:0:
192,192,106751,1,6,0:0:0:0:
448,192,106988,1,6,0:0:0:0:
320,192,107225,1,6,0:0:0:0:
448,192,107462,1,6,0:0:0:0:
192,192,107698,128,4,108962:0:0:0:0:
329,192,108014,1,4,0:0:0:0:
475,192,108330,1,4,0:0:0:0:
256,192,108646,1,4,0:0:0:0:
448,192,108962,128,4,109593:0:0:0:0:
256,192,109277,1,4,0:0:0:0:
64,192,109593,128,4,109909:0:0:0:0:
329,192,109593,1,0,0:0:0:0:
192,192,109909,128,8,110225:0:0:0:0:
256,192,109909,1,0,0:0:0:0:
320,192,110225,1,14,0:0:0:0:
402,192,110541,128,6,110777:0:0:0:0:
109,192,110777,128,6,111014:0:0:0:0:
475,192,111014,128,6,111251:0:0:0:0:
36,192,111251,128,4,111488:0:0:0:0:
402,192,111488,128,6,111725:0:0:0:0:
109,192,111725,128,6,111962:0:0:0:0:
329,192,111962,128,6,112277:0:0:0:0:
182,192,112277,128,6,112514:0:0:0:0:
402,192,112514,128,4,112751:0:0:0:0:
109,192,112751,128,6,112988:0:0:0:0:
402,192,112988,128,6,113225:0:0:0:0:
36,192,113225,128,6,113462:0:0:0:0:
448,192,113462,1,6,0:0:0:0:
109,192,113698,1,6,0:0:0:0:
402,192,113856,1,4,0:0:0:0:
109,192,114014,1,4,0:0:0:0:
320,192,114172,1,6,0:0:0:0:
448,192,114172,1,6,0:0:0:0:
36,192,114172,1,6,0:0:0:0:
182,192,114172,1,0,0:0:0:0:
