osu file format v12

[General]
AudioFilename: [SDVX] Max Burning!! - EXH [__].mp3
AudioLeadIn: 0
PreviewTime: 21709
Countdown: 0
SampleSet: None
StackLeniency: 0.7
Mode: 3
LetterboxInBreaks: 0
SpecialStyle: 0
WidescreenStoryboard: 1

[Editor]
DistanceSpacing: 1
BeatDivisor: 4
GridSize: 16

[Metadata]
Title:Max Burning!!
TitleUnicode:Max Burning!!
Artist:BlackY
ArtistUnicode:BlackY
Creator:Skalim
Version:6K BASIC
Source:SOUND VOLTEX BOOTH
Tags:sdvx distortion asd123iii
BeatmapID:323170
BeatmapSetID:123431

[Difficulty]
HPDrainRate:6
CircleSize:6
OverallDifficulty:7
ApproachRate:5
SliderMultiplier:1.4
SliderTickRate:1

[Events]
//Background and Video events
0,0,"fuego1.jpg",0,0
//Break Periods
//Storyboard Layer 0 (Background)
//Storyboard Layer 1 (Fail)
//Storyboard Layer 2 (Pass)
//Storyboard Layer 3 (Foreground)
//Storyboard Sound Samples
//Background Colour Transformations
3,100,163,162,255

[TimingPoints]
1598,315.789473684211,4,3,1,77,1,0
21808,-100,4,3,1,77,0,1
31913,-100,4,3,1,77,0,0
52124,-100,4,3,1,77,0,1
62229,-100,4,3,1,77,0,0
92604,315.789473684211,4,3,1,77,1,1
100120,315.789473684211,4,3,1,77,1,1
102646,-100,4,3,1,77,0,0

[HitObjects]
298,192,1598,1,0,0:0:0:0:
213,192,1598,1,0,0:0:0:0:
36,192,1913,1,0,0:0:0:0:
475,192,1913,1,0,0:0:0:0:
213,192,2229,1,0,0:0:0:0:
128,192,2545,1,0,0:0:0:0:
384,192,2545,1,0,0:0:0:0:
298,192,2861,1,0,0:0:0:0:
128,192,3176,128,0,3492:0:0:0:0:
384,192,3650,128,0,3808:0:0:0:0:
128,192,3966,128,0,4124:0:0:0:0:
402,192,4124,1,0,0:0:0:0:
256,192,4440,1,0,0:0:0:0:
36,192,4440,1,0,0:0:0:0:
384,192,4755,128,2,5071:0:0:0:0:
109,192,5387,1,0,0:0:0:0:
182,192,5703,1,0,0:0:0:0:
469,192,5703,1,0,0:0:0:0:
128,192,6019,128,8,6334:0:0:0:0:
384,192,6019,128,0,6334:0:0:0:0:
298,192,6334,1,8,0:0:0:0:
182,192,6650,1,0,0:0:0:0:
256,192,6966,1,2,0:0:0:0:
469,192,6966,1,2,0:0:0:0:
182,192,7282,1,0,0:0:0:0:
42,192,7598,1,2,0:0:0:0:
329,192,7598,1,2,0:0:0:0:
213,192,7913,1,0,0:0:0:0:
469,192,8229,128,2,8545:0:0:0:0:
42,192,8703,128,0,8861:0:0:0:0:
469,192,9019,128,0,9176:0:0:0:0:
42,192,9176,1,0,0:0:0:0:
109,192,9492,1,2,0:0:0:0:
256,192,9492,1,0,0:0:0:0:
213,192,9808,128,2,10124:0:0:0:0:
469,192,10440,1,0,0:0:0:0:
384,192,10755,1,2,0:0:0:0:
213,192,10755,1,2,0:0:0:0:
469,192,11071,128,8,11387:0:0:0:0:
42,192,11071,128,0,11387:0:0:0:0:
213,192,11387,1,8,0:0:0:0:
128,192,11703,1,0,0:0:0:0:
42,192,12019,1,0,0:0:0:0:
384,192,12019,1,0,0:0:0:0:
448,192,12334,1,8,0:0:0:0:
109,192,12492,1,0,0:0:0:0:
329,192,12650,1,8,0:0:0:0:
320,192,12966,1,8,0:0:0:0:
128,192,13282,128,0,13598:0:0:0:0:
384,192,13755,128,0,13913:0:0:0:0:
128,192,14071,128,0,14229:0:0:0:0:
469,192,14229,128,0,14545:0:0:0:0:
213,192,14545,1,0,0:0:0:0:
42,192,14861,128,10,15176:0:0:0:0:
192,192,15492,1,8,0:0:0:0:
384,192,15808,1,8,0:0:0:0:
128,192,15808,1,0,0:0:0:0:
64,192,16124,128,8,16440:0:0:0:0:
475,192,16440,128,8,16755:0:0:0:0:
384,192,16755,128,4,18019:0:0:0:0:
128,192,18019,128,4,19282:0:0:0:0:
475,192,19282,128,8,20229:0:0:0:0:
213,192,19598,1,8,0:0:0:0:
36,192,19913,1,8,0:0:0:0:
213,192,20229,1,8,0:0:0:0:
128,192,20545,1,14,0:0:0:0:
384,192,20545,1,10,0:0:0:0:
36,192,20782,1,10,0:0:0:0:
469,192,20782,1,4,0:0:0:0:
128,192,21019,1,14,0:0:0:0:
384,192,21019,1,10,0:0:0:0:
36,192,21255,1,14,0:0:0:0:
475,192,21255,1,10,0:0:0:0:
192,192,21492,1,14,0:0:0:0:
329,192,21492,1,10,0:0:0:0:
36,192,21650,1,10,0:0:0:0:
475,192,21650,1,0,0:0:0:0:
213,192,21808,1,10,0:0:0:0:
298,192,21808,1,10,0:0:0:0:
64,192,22124,1,4,0:0:0:0:
320,192,22440,1,4,0:0:0:0:
109,192,22598,1,0,0:0:0:0:
402,192,22755,1,12,0:0:0:0:
213,192,23071,1,4,0:0:0:0:
469,192,23387,1,12,0:0:0:0:
42,192,23387,1,8,0:0:0:0:
298,192,23387,1,0,0:0:0:0:
384,192,23703,128,4,24019:0:0:0:0:
128,192,24019,1,12,0:0:0:0:
182,192,24334,1,4,0:0:0:0:
384,192,24650,1,12,0:0:0:0:
448,192,24966,1,4,0:0:0:0:
256,192,25124,1,0,0:0:0:0:
64,192,25282,1,12,0:0:0:0:
298,192,25598,1,4,0:0:0:0:
128,192,25913,1,0,0:0:0:0:
298,192,25913,128,12,26071:0:0:0:0:
384,192,26229,1,4,0:0:0:0:
64,192,26545,128,0,26861:0:0:0:0:
192,192,26545,128,12,26861:0:0:0:0:
128,192,27176,1,12,0:0:0:0:
64,192,27492,1,4,0:0:0:0:
475,192,27650,1,0,0:0:0:0:
320,192,27808,1,12,0:0:0:0:
128,192,28124,1,4,0:0:0:0:
448,192,28440,1,12,0:0:0:0:
213,192,28440,1,0,0:0:0:0:
42,192,28440,1,0,0:0:0:0:
320,192,28755,128,10,29071:0:0:0:0:
128,192,29071,128,8,29387:0:0:0:0:
402,192,29387,1,4,0:0:0:0:
213,192,29703,1,12,0:0:0:0:
64,192,30019,1,4,0:0:0:0:
384,192,30176,1,0,0:0:0:0:
213,192,30334,1,12,0:0:0:0:
109,192,30650,1,4,0:0:0:0:
42,192,30966,1,8,0:0:0:0:
384,192,30966,1,0,0:0:0:0:
213,192,30966,1,0,0:0:0:0:
475,192,31282,128,8,31598:0:0:0:0:
64,192,31598,128,8,31913:0:0:0:0:
213,192,31913,1,12,0:0:0:0:
298,192,32229,1,12,0:0:0:0:
329,192,32545,1,4,0:0:0:0:
109,192,32703,1,0,0:0:0:0:
384,192,32861,1,12,0:0:0:0:
213,192,33176,1,4,0:0:0:0:
329,192,33492,1,12,0:0:0:0:
384,192,33492,1,12,0:0:0:0:
128,192,33492,1,0,0:0:0:0:
448,192,33808,128,4,34440:0:0:0:0:
298,192,34124,128,12,34440:0:0:0:0:
128,192,34440,1,4,0:0:0:0:
320,192,34755,1,12,0:0:0:0:
64,192,35071,1,4,0:0:0:0:
256,192,35229,1,0,0:0:0:0:
109,192,35387,1,0,0:0:0:0:
448,192,35703,1,4,0:0:0:0:
182,192,36019,1,12,0:0:0:0:
384,192,36019,1,4,0:0:0:0:
42,192,36019,1,0,0:0:0:0:
298,192,36334,128,8,36650:0:0:0:0:
213,192,36650,128,8,36966:0:0:0:0:
64,192,36966,1,4,0:0:0:0:
182,192,37282,1,12,0:0:0:0:
469,192,37598,1,4,0:0:0:0:
384,192,37755,1,0,0:0:0:0:
320,192,37913,1,12,0:0:0:0:
213,192,38229,1,4,0:0:0:0:
256,192,38545,1,12,0:0:0:0:
128,192,38545,1,4,0:0:0:0:
42,192,38545,1,0,0:0:0:0:
192,192,38861,128,0,39492:0:0:0:0:
298,192,39492,1,4,0:0:0:0:
402,192,39808,1,8,0:0:0:0:
42,192,40124,1,4,0:0:0:0:
128,192,40282,1,4,0:0:0:0:
213,192,40440,1,8,0:0:0:0:
128,192,40755,1,8,0:0:0:0:
298,192,40913,1,4,0:0:0:0:
448,192,41071,128,12,41387:0:0:0:0:
64,192,41387,128,2,42019:0:0:0:0:
384,192,41624,1,0,0:0:0:0:
128,192,41861,1,2,0:0:0:0:
448,192,42019,128,2,44545:0:0:0:0:
384,192,42019,1,0,0:0:0:0:
128,192,42255,1,8,0:0:0:0:
109,192,42492,1,8,0:0:0:0:
64,192,42966,1,8,0:0:0:0:
64,192,43203,1,8,0:0:0:0:
109,192,43440,1,8,0:0:0:0:
109,192,43676,1,8,0:0:0:0:
182,192,43913,1,0,0:0:0:0:
182,192,44150,1,8,0:0:0:0:
256,192,44387,1,8,0:0:0:0:
384,192,44703,1,2,0:0:0:0:
36,192,44861,128,2,46282:0:0:0:0:
320,192,45334,1,8,0:0:0:0:
320,192,45571,1,8,0:0:0:0:
475,192,45808,1,8,0:0:0:0:
475,192,46045,1,8,0:0:0:0:
256,192,46282,1,0,0:0:0:0:
448,192,46755,1,10,0:0:0:0:
42,192,46755,128,2,48966:0:0:0:0:
384,192,46755,1,0,0:0:0:0:
182,192,47229,1,10,0:0:0:0:
182,192,47466,1,10,0:0:0:0:
469,192,47703,1,8,0:0:0:0:
298,192,47861,1,2,0:0:0:0:
402,192,48098,1,8,0:0:0:0:
402,192,48334,1,10,0:0:0:0:
402,192,48571,1,10,0:0:0:0:
448,192,48808,1,2,0:0:0:0:
320,192,48966,1,10,0:0:0:0:
213,192,49203,1,8,0:0:0:0:
448,192,49440,128,8,51808:0:0:0:0:
128,192,49440,1,2,0:0:0:0:
128,192,49676,1,10,0:0:0:0:
213,192,49913,1,8,0:0:0:0:
298,192,49913,1,2,0:0:0:0:
42,192,50229,1,2,0:0:0:0:
213,192,50387,1,10,0:0:0:0:
298,192,50624,1,8,0:0:0:0:
128,192,50861,1,8,0:0:0:0:
384,192,51098,1,8,0:0:0:0:
298,192,51334,1,8,0:0:0:0:
213,192,51334,1,8,0:0:0:0:
42,192,51650,1,2,0:0:0:0:
213,192,51808,1,10,0:0:0:0:
384,192,52124,1,2,0:0:0:0:
128,192,52440,1,0,0:0:0:0:
402,192,52676,1,10,0:0:0:0:
320,192,52913,1,8,0:0:0:0:
109,192,53071,1,10,0:0:0:0:
192,192,53387,1,10,0:0:0:0:
448,192,53624,1,10,0:0:0:0:
192,192,53861,1,10,0:0:0:0:
320,192,54098,1,10,0:0:0:0:
64,192,54334,1,10,0:0:0:0:
192,192,54571,1,10,0:0:0:0:
320,192,54808,1,10,0:0:0:0:
192,192,55045,1,10,0:0:0:0:
320,192,55282,1,10,0:0:0:0:
109,192,55519,1,10,0:0:0:0:
402,192,55755,1,10,0:0:0:0:
256,192,55992,1,10,0:0:0:0:
64,192,56229,1,10,0:0:0:0:
320,192,56466,1,10,0:0:0:0:
109,192,56703,1,8,0:0:0:0:
402,192,56861,1,10,0:0:0:0:
109,192,57019,1,8,0:0:0:0:
402,192,57176,1,10,0:0:0:0:
109,192,57413,1,10,0:0:0:0:
256,192,57650,1,10,0:0:0:0:
402,192,57966,1,10,0:0:0:0:
109,192,58124,1,10,0:0:0:0:
402,192,58361,1,2,0:0:0:0:
192,192,58598,1,10,0:0:0:0:
320,192,58755,1,10,0:0:0:0:
109,192,59071,1,10,0:0:0:0:
402,192,59308,1,10,0:0:0:0:
192,192,59545,1,2,0:0:0:0:
448,192,59782,1,10,0:0:0:0:
64,192,60019,1,10,0:0:0:0:
320,192,60255,1,10,0:0:0:0:
192,192,60492,1,10,0:0:0:0:
448,192,60808,1,10,0:0:0:0:
64,192,61124,5,10,0:0:0:0:
320,192,61282,1,10,0:0:0:0:
213,192,61519,1,10,0:0:0:0:
384,192,61755,128,8,62229:0:0:0:0:
128,192,61755,128,0,62229:0:0:0:0:
448,192,64755,128,0,66019:0:0:0:0:
192,192,64755,128,0,65387:0:0:0:0:
64,192,65387,128,0,66650:0:0:0:0:
402,192,66019,128,0,67282:0:0:0:0:
109,192,66650,128,0,67282:0:0:0:0:
448,192,67282,128,0,68545:0:0:0:0:
36,192,67282,128,0,67913:0:0:0:0:
213,192,67913,128,4,69334:0:0:0:0:
298,192,68545,128,12,69966:0:0:0:0:
36,192,69334,128,4,71071:0:0:0:0:
448,192,69966,128,8,71071:0:0:0:0:
109,192,72334,1,12,0:0:0:0:
192,192,72650,1,12,0:0:0:0:
448,192,72966,128,4,73282:0:0:0:0:
42,192,72966,1,4,0:0:0:0:
182,192,73124,1,0,0:0:0:0:
64,192,73282,1,12,0:0:0:0:
192,192,73598,128,0,74229:0:0:0:0:
448,192,74229,128,0,74861:0:0:0:0:
320,192,74861,1,4,0:0:0:0:
64,192,75176,1,12,0:0:0:0:
128,192,75492,1,4,0:0:0:0:
384,192,75650,1,0,0:0:0:0:
192,192,75808,1,12,0:0:0:0:
64,192,76124,1,4,0:0:0:0:
213,192,76440,1,8,0:0:0:0:
469,192,76440,1,4,0:0:0:0:
298,192,76440,1,0,0:0:0:0:
109,192,76755,128,4,77071:0:0:0:0:
384,192,77071,128,4,77387:0:0:0:0:
42,192,77387,1,4,0:0:0:0:
256,192,77703,1,12,0:0:0:0:
64,192,78019,128,4,78334:0:0:0:0:
475,192,78019,1,4,0:0:0:0:
298,192,78176,1,0,0:0:0:0:
469,192,78334,1,12,0:0:0:0:
298,192,78650,1,4,0:0:0:0:
384,192,78966,1,12,0:0:0:0:
64,192,78966,1,4,0:0:0:0:
213,192,78966,1,0,0:0:0:0:
109,192,79282,128,0,79598:0:0:0:0:
402,192,79282,128,0,79598:0:0:0:0:
182,192,79598,128,0,79913:0:0:0:0:
329,192,79598,128,0,79913:0:0:0:0:
298,192,80229,128,4,80545:0:0:0:0:
213,192,80545,1,12,0:0:0:0:
448,192,80861,128,4,81176:0:0:0:0:
402,192,81176,1,12,0:0:0:0:
42,192,81492,128,8,81808:0:0:0:0:
128,192,81808,1,8,0:0:0:0:
320,192,81966,128,8,82440:0:0:0:0:
384,192,82440,1,8,0:0:0:0:
213,192,82755,1,12,0:0:0:0:
109,192,83071,128,0,83703:0:0:0:0:
298,192,83387,1,4,0:0:0:0:
475,192,83703,1,12,0:0:0:0:
213,192,84019,1,12,0:0:0:0:
42,192,84019,1,12,0:0:0:0:
298,192,84019,1,0,0:0:0:0:
320,192,84334,1,10,0:0:0:0:
192,192,84492,1,10,0:0:0:0:
384,192,84650,1,10,0:0:0:0:
128,192,84808,1,10,0:0:0:0:
298,192,84966,1,4,0:0:0:0:
128,192,85282,1,12,0:0:0:0:
402,192,85598,128,0,86229:0:0:0:0:
213,192,85913,1,4,0:0:0:0:
42,192,86229,1,12,0:0:0:0:
448,192,86545,1,12,0:0:0:0:
213,192,86545,1,4,0:0:0:0:
298,192,86545,1,0,0:0:0:0:
384,192,86861,1,10,0:0:0:0:
128,192,87019,1,10,0:0:0:0:
298,192,87176,1,10,0:0:0:0:
213,192,87334,1,8,0:0:0:0:
384,192,87492,1,4,0:0:0:0:
192,192,87808,1,12,0:0:0:0:
298,192,88124,128,0,88755:0:0:0:0:
42,192,88440,1,4,0:0:0:0:
128,192,88755,1,12,0:0:0:0:
192,192,89071,1,8,0:0:0:0:
42,192,89071,1,0,0:0:0:0:
384,192,89071,1,0,0:0:0:0:
448,192,89387,1,8,0:0:0:0:
320,192,89545,1,8,0:0:0:0:
64,192,89703,1,8,0:0:0:0:
192,192,89861,1,10,0:0:0:0:
448,192,90019,128,10,90650:0:0:0:0:
64,192,90650,128,2,91282:0:0:0:0:
448,192,91282,128,10,91598:0:0:0:0:
64,192,91598,128,10,91913:0:0:0:0:
384,192,91913,1,10,0:0:0:0:
128,192,92071,1,4,0:0:0:0:
384,192,92229,128,0,92604:0:0:0:0:
42,192,92604,1,4,0:0:0:0:
213,192,92761,1,0,0:0:0:0:
298,192,92919,1,12,0:0:0:0:
469,192,93077,1,0,0:0:0:0:
109,192,93235,128,4,93551:0:0:0:0:
402,192,93551,128,12,93709:0:0:0:0:
182,192,93867,1,4,0:0:0:0:
36,192,94025,1,0,0:0:0:0:
182,192,94182,1,12,0:0:0:0:
469,192,94182,1,0,0:0:0:0:
329,192,94498,1,4,0:0:0:0:
469,192,94656,1,0,0:0:0:0:
36,192,94814,1,0,0:0:0:0:
329,192,94814,1,12,0:0:0:0:
469,192,95130,1,4,0:0:0:0:
298,192,95288,1,0,0:0:0:0:
213,192,95446,1,12,0:0:0:0:
42,192,95604,1,0,0:0:0:0:
402,192,95761,128,0,96077:0:0:0:0:
109,192,96077,128,12,96235:0:0:0:0:
213,192,96393,1,4,0:0:0:0:
256,192,96551,1,0,0:0:0:0:
109,192,96709,1,12,0:0:0:0:
469,192,96709,1,12,0:0:0:0:
298,192,97025,1,12,0:0:0:0:
213,192,97182,1,4,0:0:0:0:
36,192,97340,1,12,0:0:0:0:
384,192,97340,1,4,0:0:0:0:
36,192,97656,128,4,98525:0:0:0:0:
256,192,98288,128,4,98525:0:0:0:0:
469,192,98919,128,4,99788:0:0:0:0:
213,192,99551,128,0,99788:0:0:0:0:
469,192,100120,128,4,100435:0:0:0:0:
128,192,100120,1,4,0:0:0:0:
182,192,100435,1,8,0:0:0:0:
64,192,100751,128,8,101067:0:0:0:0:
384,192,100751,1,4,0:0:0:0:
298,192,101067,1,8,0:0:0:0:
448,192,101383,128,12,101698:0:0:0:0:
213,192,101383,1,8,0:0:0:0:
128,192,101698,1,4,0:0:0:0:
192,192,102014,1,8,0:0:0:0:
256,192,102172,1,8,0:0:0:0:
384,192,102330,128,4,102646:0:0:0:0:
64,192,102646,128,4,103909:0:0:0:0:
256,192,102962,1,0,0:0:0:0:
475,192,103277,1,0,0:0:0:0:
402,192,103593,1,0,0:0:0:0:
320,192,103909,128,0,104541:0:0:0:0:
109,192,104225,1,0,0:0:0:0:
192,192,104541,128,0,105172:0:0:0:0:
402,192,104856,1,4,0:0:0:0:
298,192,105330,1,8,0:0:0:0:
448,192,105567,1,6,0:0:0:0:
192,192,105804,1,6,0:0:0:0:
42,192,106041,1,6,0:0:0:0:
42,192,106277,1,6,0:0:0:0:
320,192,106514,1,6,0:0:0:0:
469,192,106751,1,6,0:0:0:0:
448,192,106988,1,6,0:0:0:0:
320,192,107225,1,6,0:0:0:0:
42,192,107462,1,6,0:0:0:0:
128,192,107698,128,4,108962:0:0:0:0:
329,192,108014,1,4,0:0:0:0:
475,192,108330,1,4,0:0:0:0:
256,192,108646,1,4,0:0:0:0:
448,192,108962,128,4,109593:0:0:0:0:
298,192,109277,1,4,0:0:0:0:
64,192,109593,128,4,110225:0:0:0:0:
213,192,109909,1,8,0:0:0:0:
402,192,110541,128,6,110777:0:0:0:0:
109,192,110777,128,6,111014:0:0:0:0:
475,192,111014,128,6,111251:0:0:0:0:
36,192,111251,128,4,111488:0:0:0:0:
402,192,111488,128,6,111725:0:0:0:0:
109,192,111725,128,6,111962:0:0:0:0:
298,192,111962,1,6,0:0:0:0:
182,192,112277,128,6,112514:0:0:0:0:
402,192,112514,128,4,112751:0:0:0:0:
109,192,112751,128,6,112988:0:0:0:0:
402,192,112988,128,6,113225:0:0:0:0:
36,192,113225,128,6,113462:0:0:0:0:
448,192,113462,1,6,0:0:0:0:
109,192,113698,1,6,0:0:0:0:
402,192,113856,1,4,0:0:0:0:
109,192,114014,1,4,0:0:0:0:
448,192,114172,1,6,0:0:0:0:
36,192,114172,1,6,0:0:0:0:
